  0
SECTION
  2
HEADER
  9
$ACADVER
  1
AC1015
  9
$ACADMAINTVER
 70
    20
  9
$DWGCODEPAGE
  3
ANSI_1252
  9
$INSBASE
 10
1050.0
 20
1485.0
 30
0.0
  9
$EXTMIN
 10
-410.0
 20
-282.5
 30
0.0
  9
$EXTMAX
 10
2176.931294
 20
1767.5
 30
0.0
  9
$LIMMIN
 10
-435.0
 20
-307.5
  9
$LIMMAX
 10
2535.0
 20
1792.5
  9
$ORTHOMODE
 70
     0
  9
$REGENMODE
 70
     1
  9
$FILLMODE
 70
     1
  9
$QTEXTMODE
 70
     0
  9
$MIRRTEXT
 70
     1
  9
$LTSCALE
 40
5.0
  9
$ATTMODE
 70
     1
  9
$TEXTSIZE
 40
2.5
  9
$TRACEWID
 40
1.0
  9
$TEXTSTYLE
  7
Standard
  9
$CLAYER
  8
0
  9
$CELTYPE
  6
ByLayer
  9
$CECOLOR
 62
     7
  9
$CELTSCALE
 40
1.0
  9
$DISPSILH
 70
     0
  9
$DIMSCALE
 40
5.0
  9
$DIMASZ
 40
3.5
  9
$DIMEXO
 40
0.625
  9
$DIMDLI
 40
3.75
  9
$DIMRND
 40
0.0
  9
$DIMDLE
 40
0.0
  9
$DIMEXE
 40
1.25
  9
$DIMTP
 40
0.0
  9
$DIMTM
 40
0.0
  9
$DIMTXT
 40
3.5
  9
$DIMCEN
 40
2.5
  9
$DIMTSZ
 40
0.0
  9
$DIMTOL
 70
     0
  9
$DIMLIM
 70
     0
  9
$DIMTIH
 70
     0
  9
$DIMTOH
 70
     0
  9
$DIMSE1
 70
     0
  9
$DIMSE2
 70
     0
  9
$DIMTAD
 70
     1
  9
$DIMZIN
 70
     8
  9
$DIMBLK
  1

  9
$DIMASO
 70
     1
  9
$DIMSHO
 70
     1
  9
$DIMPOST
  1

  9
$DIMAPOST
  1

  9
$DIMALT
 70
     0
  9
$DIMALTD
 70
     3
  9
$DIMALTF
 40
0.03937
  9
$DIMLFAC
 40
1.0
  9
$DIMTOFL
 70
     1
  9
$DIMTVP
 40
0.0
  9
$DIMTIX
 70
     0
  9
$DIMSOXD
 70
     0
  9
$DIMSAH
 70
     0
  9
$DIMBLK1
  1

  9
$DIMBLK2
  1

  9
$DIMSTYLE
  2
ISO-25
  9
$DIMCLRD
 70
     0
  9
$DIMCLRE
 70
     0
  9
$DIMCLRT
 70
     0
  9
$DIMTFAC
 40
1.0
  9
$DIMGAP
 40
0.625
  9
$DIMJUST
 70
     0
  9
$DIMSD1
 70
     0
  9
$DIMSD2
 70
     0
  9
$DIMTOLJ
 70
     0
  9
$DIMTZIN
 70
     8
  9
$DIMALTZ
 70
     0
  9
$DIMALTTZ
 70
     0
  9
$DIMUPT
 70
     0
  9
$DIMDEC
 70
     2
  9
$DIMTDEC
 70
     2
  9
$DIMALTU
 70
     2
  9
$DIMALTTD
 70
     3
  9
$DIMTXSTY
  7
Standard
  9
$DIMAUNIT
 70
     0
  9
$DIMADEC
 70
     0
  9
$DIMALTRND
 40
0.0
  9
$DIMAZIN
 70
     0
  9
$DIMDSEP
 70
    44
  9
$DIMATFIT
 70
     3
  9
$DIMFRAC
 70
     0
  9
$DIMLDRBLK
  1

  9
$DIMLUNIT
 70
     2
  9
$DIMLWD
 70
    -2
  9
$DIMLWE
 70
    -2
  9
$DIMTMOVE
 70
     0
  9
$LUNITS
 70
     2
  9
$LUPREC
 70
     4
  9
$SKETCHINC
 40
1.0
  9
$FILLETRAD
 40
10.0
  9
$AUNITS
 70
     0
  9
$AUPREC
 70
     0
  9
$MENU
  1
.
  9
$ELEVATION
 40
0.0
  9
$PELEVATION
 40
0.0
  9
$THICKNESS
 40
0.0
  9
$LIMCHECK
 70
     0
  9
$CHAMFERA
 40
10.0
  9
$CHAMFERB
 40
10.0
  9
$CHAMFERC
 40
20.0
  9
$CHAMFERD
 40
0.0
  9
$SKPOLY
 70
     0
  9
$TDCREATE
 40
2455509.577476308
  9
$TDUCREATE
 40
2455509.535809642
  9
$TDUPDATE
 40
2455898.444730151
  9
$TDUUPDATE
 40
2455898.403063484
  9
$TDINDWG
 40
0.0003276968
  9
$TDUSRTIMER
 40
0.0003275231
  9
$USRTIMER
 70
     1
  9
$ANGBASE
 50
0.0
  9
$ANGDIR
 70
     0
  9
$PDMODE
 70
     0
  9
$PDSIZE
 40
0.0
  9
$PLINEWID
 40
0.0
  9
$SPLFRAME
 70
     0
  9
$SPLINETYPE
 70
     6
  9
$SPLINESEGS
 70
     8
  9
$HANDSEED
  5
7DA
  9
$SURFTAB1
 70
     6
  9
$SURFTAB2
 70
     6
  9
$SURFTYPE
 70
     6
  9
$SURFU
 70
     6
  9
$SURFV
 70
     6
  9
$UCSBASE
  2

  9
$UCSNAME
  2

  9
$UCSORG
 10
0.0
 20
0.0
 30
0.0
  9
$UCSXDIR
 10
1.0
 20
0.0
 30
0.0
  9
$UCSYDIR
 10
0.0
 20
1.0
 30
0.0
  9
$UCSORTHOREF
  2

  9
$UCSORTHOVIEW
 70
     0
  9
$UCSORGTOP
 10
0.0
 20
0.0
 30
0.0
  9
$UCSORGBOTTOM
 10
0.0
 20
0.0
 30
0.0
  9
$UCSORGLEFT
 10
0.0
 20
0.0
 30
0.0
  9
$UCSORGRIGHT
 10
0.0
 20
0.0
 30
0.0
  9
$UCSORGFRONT
 10
0.0
 20
0.0
 30
0.0
  9
$UCSORGBACK
 10
0.0
 20
0.0
 30
0.0
  9
$PUCSBASE
  2

  9
$PUCSNAME
  2

  9
$PUCSORG
 10
0.0
 20
0.0
 30
0.0
  9
$PUCSXDIR
 10
1.0
 20
0.0
 30
0.0
  9
$PUCSYDIR
 10
0.0
 20
1.0
 30
0.0
  9
$PUCSORTHOREF
  2

  9
$PUCSORTHOVIEW
 70
     0
  9
$PUCSORGTOP
 10
0.0
 20
0.0
 30
0.0
  9
$PUCSORGBOTTOM
 10
0.0
 20
0.0
 30
0.0
  9
$PUCSORGLEFT
 10
0.0
 20
0.0
 30
0.0
  9
$PUCSORGRIGHT
 10
0.0
 20
0.0
 30
0.0
  9
$PUCSORGFRONT
 10
0.0
 20
0.0
 30
0.0
  9
$PUCSORGBACK
 10
0.0
 20
0.0
 30
0.0
  9
$USERI1
 70
     0
  9
$USERI2
 70
     0
  9
$USERI3
 70
     0
  9
$USERI4
 70
     0
  9
$USERI5
 70
     0
  9
$USERR1
 40
0.0
  9
$USERR2
 40
0.0
  9
$USERR3
 40
0.0
  9
$USERR4
 40
0.0
  9
$USERR5
 40
0.0
  9
$WORLDVIEW
 70
     1
  9
$SHADEDGE
 70
     3
  9
$SHADEDIF
 70
    70
  9
$TILEMODE
 70
     1
  9
$MAXACTVP
 70
    64
  9
$PINSBASE
 10
0.0
 20
0.0
 30
0.0
  9
$PLIMCHECK
 70
     0
  9
$PEXTMIN
 10
-435.0
 20
-307.5
 30
0.0
  9
$PEXTMAX
 10
2535.0
 20
1792.5
 30
0.0
  9
$PLIMMIN
 10
-435.0
 20
-307.5
  9
$PLIMMAX
 10
2535.0
 20
1792.5
  9
$UNITMODE
 70
     0
  9
$VISRETAIN
 70
     1
  9
$PLINEGEN
 70
     0
  9
$PSLTSCALE
 70
     1
  9
$TREEDEPTH
 70
  3020
  9
$CMLSTYLE
  2
Standard
  9
$CMLJUST
 70
     0
  9
$CMLSCALE
 40
20.0
  9
$PROXYGRAPHICS
 70
     1
  9
$MEASUREMENT
 70
     1
  9
$CELWEIGHT
370
    -1
  9
$ENDCAPS
280
     0
  9
$JOINSTYLE
280
     0
  9
$LWDISPLAY
290
     0
  9
$INSUNITS
 70
     4
  9
$HYPERLINKBASE
  1

  9
$STYLESHEET
  1

  9
$XEDIT
290
     1
  9
$CEPSNTYPE
380
     0
  9
$PSTYLEMODE
290
     1
  9
$FINGERPRINTGUID
  2
{FAEB1C30-E019-11D5-929B-00C0DF256EC4}
  9
$VERSIONGUID
  2
{28744AF0-F92A-4031-98E9-1CD4EE826084}
  9
$EXTNAMES
290
     1
  9
$PSVPSCALE
 40
0.0
  9
$OLESTARTUP
290
     0
  0
ENDSEC
  0
SECTION
  2
CLASSES
  0
CLASS
  1
ACDBDICTIONARYWDFLT
  2
AcDbDictionaryWithDefault
  3
ObjectDBX Classes
 90
        0
280
     0
281
     0
  0
CLASS
  1
DICTIONARYVAR
  2
AcDbDictionaryVar
  3
ObjectDBX Classes
 90
        0
280
     0
281
     0
  0
CLASS
  1
ACDBPLACEHOLDER
  2
AcDbPlaceHolder
  3
ObjectDBX Classes
 90
        0
280
     0
281
     0
  0
CLASS
  1
LAYOUT
  2
AcDbLayout
  3
ObjectDBX Classes
 90
        0
280
     0
281
     0
  0
ENDSEC
  0
SECTION
  2
TABLES
  0
TABLE
  2
VPORT
  5
8
330
0
100
AcDbSymbolTable
 70
     2
  0
VPORT
  5
7CF
330
8
100
AcDbSymbolTableRecord
100
AcDbViewportTableRecord
  2
*Active
 70
     0
 10
0.0
 20
0.0
 11
1.0
 21
1.0
 12
2702.673596265072
 22
822.2719726849092
 13
0.0
 23
0.0
 14
1.0
 24
1.0
 15
0.0
 25
0.0
 16
0.0
 26
0.0
 36
1.0
 17
0.0
 27
0.0
 37
0.0
 40
2084.032694887409
 41
1.932762836185819
 42
50.0
 43
0.0
 44
0.0
 50
0.0
 51
0.0
 71
    16
 72
   100
 73
     1
 74
     0
 75
     0
 76
     0
 77
     0
 78
     0
281
     0
 65
     0
110
0.0
120
0.0
130
0.0
111
1.0
121
0.0
131
0.0
112
0.0
122
1.0
132
0.0
 79
     0
146
0.0
  0
ENDTAB
  0
TABLE
  2
LTYPE
  5
5
330
0
100
AcDbSymbolTable
 70
     4
  0
LTYPE
  5
14
330
5
100
AcDbSymbolTableRecord
100
AcDbLinetypeTableRecord
  2
ByBlock
 70
     0
  3

 72
    65
 73
     0
 40
0.0
  0
LTYPE
  5
15
330
5
100
AcDbSymbolTableRecord
100
AcDbLinetypeTableRecord
  2
ByLayer
 70
     0
  3

 72
    65
 73
     0
 40
0.0
  0
LTYPE
  5
16
330
5
100
AcDbSymbolTableRecord
100
AcDbLinetypeTableRecord
  2
Continuous
 70
     0
  3
Solid line
 72
    65
 73
     0
 40
0.0
  0
LTYPE
  5
2A
330
5
100
AcDbSymbolTableRecord
100
AcDbLinetypeTableRecord
  2
DASHED
 70
     0
  3
__ __ __ __ __
 72
    65
 73
     2
 40
6.25
 49
5.0
 74
     4
 75
     0
340
0
 46
1.0
 50
0.0
 44
0.0
 45
0.0
 49
-1.25
 74
     4
 75
     0
340
0
 46
1.0
 50
0.0
 44
0.0
 45
0.0
  0
LTYPE
  5
47
330
5
100
AcDbSymbolTableRecord
100
AcDbLinetypeTableRecord
  2
CENTER
 70
     0
  3
__ . __ . __ . __ . __
 72
    65
 73
     4
 40
7.5
 49
5.0
 74
     4
 75
     0
340
0
 46
1.0
 50
0.0
 44
0.0
 45
0.0
 49
-1.25
 74
     4
 75
     0
340
0
 46
1.0
 50
0.0
 44
0.0
 45
0.0
 49
0.0
 74
     4
 75
     0
340
0
 46
1.0
 50
0.0
 44
0.0
 45
0.0
 49
-1.25
 74
     4
 75
     0
340
0
 46
1.0
 50
0.0
 44
0.0
 45
0.0
  0
LTYPE
  5
3F5
330
5
100
AcDbSymbolTableRecord
100
AcDbLinetypeTableRecord
  2
DIVIDE
 70
     0
  3
__ . . __ . . __ . . __
 72
    65
 73
     6
 40
8.75
 49
5.0
 74
     4
 75
     0
340
0
 46
1.0
 50
0.0
 44
0.0
 45
0.0
 49
-1.25
 74
     4
 75
     0
340
0
 46
1.0
 50
0.0
 44
0.0
 45
0.0
 49
0.0
 74
     4
 75
     0
340
0
 46
1.0
 50
0.0
 44
0.0
 45
0.0
 49
-1.25
 74
     4
 75
     0
340
0
 46
1.0
 50
0.0
 44
0.0
 45
0.0
 49
0.0
 74
     4
 75
     0
340
0
 46
1.0
 50
0.0
 44
0.0
 45
0.0
 49
-1.25
 74
     4
 75
     0
340
0
 46
1.0
 50
0.0
 44
0.0
 45
0.0
  0
ENDTAB
  0
TABLE
  2
LAYER
  5
2
330
0
100
AcDbSymbolTable
 70
    14
  0
LAYER
  5
10
330
2
100
AcDbSymbolTableRecord
100
AcDbLayerTableRecord
  2
0
 70
     0
 62
     7
  6
Continuous
370
    -3
390
F
  0
LAYER
  5
2B
330
2
100
AcDbSymbolTableRecord
100
AcDbLayerTableRecord
  2
LC-INFO-1-5-mm-A2-0
 70
     1
 62
     7
  6
ByBlock
370
    -3
390
F
  0
LAYER
  5
2C
330
2
100
AcDbSymbolTableRecord
100
AcDbLayerTableRecord
  2
LC-CUT-HIDDEN
 70
     0
 62
     7
  6
DASHED
370
    -3
390
F
  0
LAYER
  5
2D
330
2
100
AcDbSymbolTableRecord
100
AcDbLayerTableRecord
  2
LC-VIEWPORT
 70
     0
 62
     7
  6
ByBlock
370
    -3
390
F
  0
LAYER
  5
2E
330
2
100
AcDbSymbolTableRecord
100
AcDbLayerTableRecord
  2
LC-3D-HIDDEN
 70
     0
 62
     9
  6
DASHED
370
    -3
390
F
  0
LAYER
  5
33
330
2
100
AcDbSymbolTableRecord
100
AcDbLayerTableRecord
  2
LC-001-002-----0
 70
     0
 62
     1
  6
ByBlock
370
    -3
390
F
  0
LAYER
  5
48
330
2
100
AcDbSymbolTableRecord
100
AcDbLayerTableRecord
  2
LC-002-006-MLN-0
 70
     0
 62
     2
  6
CENTER
370
    -3
390
F
  0
LAYER
  5
5B
330
2
100
AcDbSymbolTableRecord
100
AcDbLayerTableRecord
  2
LC-003-005-----0
 70
     0
 62
     2
  6
ByBlock
370
    -3
390
F
  0
LAYER
  5
81
330
2
100
AcDbSymbolTableRecord
100
AcDbLayerTableRecord
  2
LC-004-002-RND-0
 70
     0
 62
     1
  6
ByBlock
370
    -3
390
F
  0
LAYER
  5
108
330
2
100
AcDbSymbolTableRecord
100
AcDbLayerTableRecord
  2
LC-005-003-----0
 70
     0
 62
     2
  6
ByBlock
370
    -3
390
F
  0
LAYER
  5
121
330
2
100
AcDbSymbolTableRecord
100
AcDbLayerTableRecord
  2
LC-006-003-MTG-0
 70
     0
 62
     2
  6
ByBlock
370
    -3
390
F
  0
LAYER
  5
127
330
2
100
AcDbSymbolTableRecord
100
AcDbLayerTableRecord
  2
Defpoints
 70
     0
 62
     7
  6
Continuous
290
     0
370
    -3
390
F
  0
LAYER
  5
177
330
2
100
AcDbSymbolTableRecord
100
AcDbLayerTableRecord
  2
LC-007-004-----0
 70
     0
 62
     7
  6
ByBlock
370
    -3
390
F
  0
LAYER
  5
3F6
330
2
100
AcDbSymbolTableRecord
100
AcDbLayerTableRecord
  2
LC-008-101-----0
 70
     0
 62
    51
  6
DIVIDE
370
    -3
390
F
  0
ENDTAB
  0
TABLE
  2
STYLE
  5
3
330
0
100
AcDbSymbolTable
 70
     5
  0
STYLE
  5
11
330
3
100
AcDbSymbolTableRecord
100
AcDbTextStyleTableRecord
  2
Standard
 70
     0
 40
0.0
 41
1.0
 50
0.0
 71
     0
 42
2.5
  3
txt
  4

  0
STYLE
  5
2F
330
3
100
AcDbSymbolTableRecord
100
AcDbTextStyleTableRecord
  2
LCTX0-400-0-0pDIN-Schrift
 70
     0
 40
0.0
 41
1.0
 50
0.0
 71
     0
 42
3.5
  3
TXT
  4

  0
STYLE
  5
30
330
3
100
AcDbSymbolTableRecord
100
AcDbTextStyleTableRecord
  2
LCTX0-560-0-0-DIN-Schrift
 70
     0
 40
0.0
 41
1.0
 50
0.0
 71
     0
 42
3.5
  3
MONOTXT
  4

  0
STYLE
  5
31
330
3
100
AcDbSymbolTableRecord
100
AcDbTextStyleTableRecord
  2
LCTX0-400-0-0-DIN-Schrift
 70
     0
 40
0.0
 41
1.0
 50
0.0
 71
     0
 42
3.5
  3
MONOTXT
  4

  0
STYLE
  5
32
330
3
100
AcDbSymbolTableRecord
100
AcDbTextStyleTableRecord
  2
LCTX0-560-0-0pDIN-Schrift
 70
     0
 40
0.0
 41
1.0
 50
0.0
 71
     0
 42
3.5
  3
TXT
  4

  0
ENDTAB
  0
TABLE
  2
VIEW
  5
6
330
0
100
AcDbSymbolTable
 70
     0
  0
ENDTAB
  0
TABLE
  2
UCS
  5
7
330
0
100
AcDbSymbolTable
 70
     0
  0
ENDTAB
  0
TABLE
  2
APPID
  5
9
330
0
100
AcDbSymbolTable
 70
     1
  0
APPID
  5
12
330
9
100
AcDbSymbolTableRecord
100
AcDbRegAppTableRecord
  2
ACAD
 70
     0
  0
ENDTAB
  0
TABLE
  2
DIMSTYLE
  5
A
330
0
100
AcDbSymbolTable
 70
     6
100
AcDbDimStyleTable
 71
     0
  0
DIMSTYLE
105
27
330
A
100
AcDbSymbolTableRecord
100
AcDbDimStyleTableRecord
  2
ISO-25
 70
     0
 41
2.5
 42
0.625
 43
3.75
 44
1.25
 73
     0
 74
     0
 77
     1
 78
     8
140
2.5
141
2.5
143
0.03937
147
0.625
171
     3
172
     1
271
     2
272
     2
274
     3
278
    44
283
     0
284
     8
340
11
  0
DIMSTYLE
105
10A
330
A
100
AcDbSymbolTableRecord
100
AcDbDimStyleTableRecord
  2
LC-DIM-W-0025-02-32
 70
     0
 40
5.0
 41
2.5
 42
0.0
 43
7.5
 44
1.8
 73
     0
 74
     0
 75
     1
 76
     1
 77
     1
 78
     8
 79
     2
140
2.5
141
0.0
146
0.71
147
1.5
176
     2
177
     2
178
     2
179
     2
271
     2
278
    44
289
     1
340
2F
  0
DIMSTYLE
105
125
102
{ACAD_REACTORS
330
126
330
135
330
142
330
14F
330
15C
330
169
330
7A4
102
}
330
A
100
AcDbSymbolTableRecord
100
AcDbDimStyleTableRecord
  2
LC-DIM-L-0025-02-02
 70
     0
 40
5.0
 41
2.5
 42
0.0
 43
7.5
 44
1.8
 73
     0
 74
     0
 77
     1
 78
     8
 79
     2
140
2.5
141
0.0
146
0.71
147
1.5
172
     1
176
     2
177
     2
178
     2
179
     2
271
     2
278
    44
289
     1
340
2F
  0
DIMSTYLE
105
400
330
A
100
AcDbSymbolTableRecord
100
AcDbDimStyleTableRecord
  2
LC-DIM-L-0025-05-02
 70
     0
 40
5.0
 41
2.5
 42
0.0
 43
7.5
 44
1.8
 73
     0
 74
     0
 77
     1
 78
     8
 79
     2
140
2.5
141
0.0
146
0.71
147
1.5
172
     1
176
     2
177
     2
178
     2
179
     5
271
     5
278
    44
289
     1
340
2F
  0
DIMSTYLE
105
783
102
{ACAD_REACTORS
330
784
330
78D
102
}
330
A
100
AcDbSymbolTableRecord
100
AcDbDimStyleTableRecord
  2
LC-DIM-R-0025-02-02
 70
     0
 40
5.0
 41
2.5
 42
0.0
 43
7.5
 44
1.8
 73
     0
 74
     0
 77
     1
 78
     8
 79
     2
140
2.5
141
0.0
146
0.71
147
1.5
176
     2
177
     2
178
     2
179
     2
271
     2
278
    44
289
     1
340
2F
  0
DIMSTYLE
105
796
102
{ACAD_REACTORS
330
797
102
}
330
A
100
AcDbSymbolTableRecord
100
AcDbDimStyleTableRecord
  2
LC-DIM-L-0025-01-02
 70
     0
 40
5.0
 41
2.5
 42
0.0
 43
7.5
 44
1.8
 73
     0
 74
     0
 77
     1
 78
     8
 79
     2
140
2.5
141
0.0
146
0.71
147
1.5
172
     1
176
     2
177
     2
178
     2
179
     1
271
     1
278
    44
289
     1
340
2F
  0
ENDTAB
  0
TABLE
  2
BLOCK_RECORD
  5
1
330
0
100
AcDbSymbolTable
 70
    34
  0
BLOCK_RECORD
  5
1F
330
1
100
AcDbSymbolTableRecord
100
AcDbBlockTableRecord
  2
*Model_Space
340
22
  0
BLOCK_RECORD
  5
1B
330
1
100
AcDbSymbolTableRecord
100
AcDbBlockTableRecord
  2
*Paper_Space
340
1E
  0
BLOCK_RECORD
  5
23
330
1
100
AcDbSymbolTableRecord
100
AcDbBlockTableRecord
  2
*Paper_Space0
340
26
  0
BLOCK_RECORD
  5
58
330
1
100
AcDbSymbolTableRecord
100
AcDbBlockTableRecord
  2
*X1
340
0
102
{BLKREFS
331
66
102
}
  0
BLOCK_RECORD
  5
83
330
1
100
AcDbSymbolTableRecord
100
AcDbBlockTableRecord
  2
*X2
340
0
102
{BLKREFS
331
94
102
}
  0
BLOCK_RECORD
  5
DF
330
1
100
AcDbSymbolTableRecord
100
AcDbBlockTableRecord
  2
*X3
340
0
102
{BLKREFS
331
F1
102
}
  0
BLOCK_RECORD
  5
F2
330
1
100
AcDbSymbolTableRecord
100
AcDbBlockTableRecord
  2
*X4
340
0
102
{BLKREFS
331
107
102
}
  0
BLOCK_RECORD
  5
10B
330
1
100
AcDbSymbolTableRecord
100
AcDbBlockTableRecord
  2
LCDIM1
340
0
102
{BLKREFS
331
123
102
}
  0
BLOCK_RECORD
  5
128
330
1
100
AcDbSymbolTableRecord
100
AcDbBlockTableRecord
  2
*D6
340
0
  0
BLOCK_RECORD
  5
136
330
1
100
AcDbSymbolTableRecord
100
AcDbBlockTableRecord
  2
*D7
340
0
  0
BLOCK_RECORD
  5
143
330
1
100
AcDbSymbolTableRecord
100
AcDbBlockTableRecord
  2
*D8
340
0
  0
BLOCK_RECORD
  5
150
330
1
100
AcDbSymbolTableRecord
100
AcDbBlockTableRecord
  2
*D9
340
0
  0
BLOCK_RECORD
  5
15D
330
1
100
AcDbSymbolTableRecord
100
AcDbBlockTableRecord
  2
*D10
340
0
  0
BLOCK_RECORD
  5
16A
330
1
100
AcDbSymbolTableRecord
100
AcDbBlockTableRecord
  2
*D11
340
0
  0
BLOCK_RECORD
  5
19B
330
1
100
AcDbSymbolTableRecord
100
AcDbBlockTableRecord
  2
*X12
340
0
  0
BLOCK_RECORD
  5
325
330
1
100
AcDbSymbolTableRecord
100
AcDbBlockTableRecord
  2
*X13
340
0
  0
BLOCK_RECORD
  5
392
330
1
100
AcDbSymbolTableRecord
100
AcDbBlockTableRecord
  2
*X14
340
0
  0
BLOCK_RECORD
  5
402
330
1
100
AcDbSymbolTableRecord
100
AcDbBlockTableRecord
  2
*D15
340
0
  0
BLOCK_RECORD
  5
410
330
1
100
AcDbSymbolTableRecord
100
AcDbBlockTableRecord
  2
*D16
340
0
  0
BLOCK_RECORD
  5
41D
330
1
100
AcDbSymbolTableRecord
100
AcDbBlockTableRecord
  2
*D17
340
0
  0
BLOCK_RECORD
  5
43E
330
1
100
AcDbSymbolTableRecord
100
AcDbBlockTableRecord
  2
*D18
340
0
  0
BLOCK_RECORD
  5
44B
330
1
100
AcDbSymbolTableRecord
100
AcDbBlockTableRecord
  2
*D19
340
0
  0
BLOCK_RECORD
  5
458
330
1
100
AcDbSymbolTableRecord
100
AcDbBlockTableRecord
  2
*D20
340
0
  0
BLOCK_RECORD
  5
497
330
1
100
AcDbSymbolTableRecord
100
AcDbBlockTableRecord
  2
*X21
340
0
  0
BLOCK_RECORD
  5
621
330
1
100
AcDbSymbolTableRecord
100
AcDbBlockTableRecord
  2
*X22
340
0
  0
BLOCK_RECORD
  5
68E
330
1
100
AcDbSymbolTableRecord
100
AcDbBlockTableRecord
  2
*X23
340
0
  0
BLOCK_RECORD
  5
6FB
330
1
100
AcDbSymbolTableRecord
100
AcDbBlockTableRecord
  2
*D24
340
0
  0
BLOCK_RECORD
  5
709
330
1
100
AcDbSymbolTableRecord
100
AcDbBlockTableRecord
  2
*D25
340
0
  0
BLOCK_RECORD
  5
716
330
1
100
AcDbSymbolTableRecord
100
AcDbBlockTableRecord
  2
*D26
340
0
  0
BLOCK_RECORD
  5
737
330
1
100
AcDbSymbolTableRecord
100
AcDbBlockTableRecord
  2
*D27
340
0
  0
BLOCK_RECORD
  5
744
330
1
100
AcDbSymbolTableRecord
100
AcDbBlockTableRecord
  2
*D28
340
0
  0
BLOCK_RECORD
  5
751
330
1
100
AcDbSymbolTableRecord
100
AcDbBlockTableRecord
  2
*D29
340
0
  0
BLOCK_RECORD
  5
785
330
1
100
AcDbSymbolTableRecord
100
AcDbBlockTableRecord
  2
*D30
340
0
  0
BLOCK_RECORD
  5
78E
330
1
100
AcDbSymbolTableRecord
100
AcDbBlockTableRecord
  2
*D31
340
0
  0
BLOCK_RECORD
  5
798
330
1
100
AcDbSymbolTableRecord
100
AcDbBlockTableRecord
  2
*D32
340
0
  0
BLOCK_RECORD
  5
7A5
330
1
100
AcDbSymbolTableRecord
100
AcDbBlockTableRecord
  2
*D33
340
0
  0
ENDTAB
  0
ENDSEC
  0
SECTION
  2
BLOCKS
  0
BLOCK
  5
20
330
1F
100
AcDbEntity
  8
0
100
AcDbBlockBegin
  2
*Model_Space
 70
     0
 10
0.0
 20
0.0
 30
0.0
  3
*Model_Space
  1

  0
ENDBLK
  5
21
330
1F
100
AcDbEntity
  8
0
100
AcDbBlockEnd
  0
BLOCK
  5
1C
330
1B
100
AcDbEntity
 67
     1
  8
0
100
AcDbBlockBegin
  2
*Paper_Space
 70
     0
 10
0.0
 20
0.0
 30
0.0
  3
*Paper_Space
  1

  0
ENDBLK
  5
1D
330
1B
100
AcDbEntity
 67
     1
  8
0
100
AcDbBlockEnd
  0
BLOCK
  5
24
330
23
100
AcDbEntity
  8
0
100
AcDbBlockBegin
  2
*Paper_Space0
 70
     0
 10
0.0
 20
0.0
 30
0.0
  3
*Paper_Space0
  1

  0
ENDBLK
  5
25
330
23
100
AcDbEntity
  8
0
100
AcDbBlockEnd
  0
BLOCK
  5
59
330
58
100
AcDbEntity
  8
0
100
AcDbBlockBegin
  2
*X1
 70
     1
 10
0.0
 20
0.0
 30
0.0
  3
*X1
  1

  4
*X1
  0
LINE
  5
5C
330
58
100
AcDbEntity
  8
LC-003-005-----0
 62
     7
370
    25
100
AcDbLine
 10
2055.629158
 20
952.54258
 30
0.0
 11
2059.582251
 21
956.4956719999999
 31
0.0
  0
LINE
  5
5D
330
58
100
AcDbEntity
  8
LC-003-005-----0
 62
     7
370
    25
100
AcDbLine
 10
2041.487023
 20
952.54258
 30
0.0
 11
2070.577993
 21
981.63355
 31
0.0
  0
LINE
  5
5E
330
58
100
AcDbEntity
  8
LC-003-005-----0
 62
     7
370
    25
100
AcDbLine
 10
2062.220693
 20
987.4183849999999
 30
0.0
 11
2072.557479
 21
997.7551710000001
 31
0.0
  0
LINE
  5
5F
330
58
100
AcDbEntity
  8
LC-003-005-----0
 62
     7
370
    25
100
AcDbLine
 10
2064.200179
 20
1003.540007
 30
0.0
 11
2074.536965
 21
1013.876793
 31
0.0
  0
LINE
  5
60
330
58
100
AcDbEntity
  8
LC-003-005-----0
 62
     7
370
    25
100
AcDbLine
 10
2066.179664999999
 20
1019.661629
 30
0.0
 11
2076.516451
 21
1029.998415
 31
0.0
  0
LINE
  5
61
330
58
100
AcDbEntity
  8
LC-003-005-----0
 62
     7
370
    25
100
AcDbLine
 10
2068.159151000001
 20
1035.783251
 30
0.0
 11
2078.495938
 21
1046.120037
 31
0.0
  0
LINE
  5
62
330
58
100
AcDbEntity
  8
LC-003-005-----0
 62
     7
370
    25
100
AcDbLine
 10
2070.138638
 20
1051.904873
 30
0.0
 11
2080.475424
 21
1062.241659
 31
0.0
  0
LINE
  5
63
330
58
100
AcDbEntity
  8
LC-003-005-----0
 62
     7
370
    25
100
AcDbLine
 10
2072.118124
 20
1068.026495
 30
0.0
 11
2082.45491
 21
1078.363281
 31
0.0
  0
LINE
  5
64
330
58
100
AcDbEntity
  8
LC-003-005-----0
 62
     7
370
    25
100
AcDbLine
 10
2087.911212
 20
1083.819582
 30
0.0
 11
2093.724444
 21
1089.632814
 31
0.0
  0
LINE
  5
65
330
58
100
AcDbEntity
  8
LC-003-005-----0
 62
     7
370
    25
100
AcDbLine
 10
2074.09761
 20
1084.148117
 30
0.0
 11
2086.792073
 21
1096.84258
 31
0.0
  0
ENDBLK
  5
5A
330
58
100
AcDbEntity
  8
0
100
AcDbBlockEnd
  0
BLOCK
  5
84
330
83
100
AcDbEntity
  8
0
100
AcDbBlockBegin
  2
*X2
 70
     1
 10
0.0
 20
0.0
 30
0.0
  3
*X2
  1

  4
*X2
  0
LINE
  5
86
330
83
100
AcDbEntity
  8
LC-003-005-----0
 62
     7
370
    25
100
AcDbLine
 10
1942.492073
 20
952.54258
 30
0.0
 11
1948.632651
 21
958.6831570000001
 31
0.0
  0
LINE
  5
87
330
83
100
AcDbEntity
  8
LC-003-005-----0
 62
     7
370
    25
100
AcDbLine
 10
1930.071092
 20
954.263734
 30
0.0
 11
1939.732565
 21
963.9252069999999
 31
0.0
  0
LINE
  5
88
330
83
100
AcDbEntity
  8
LC-003-005-----0
 62
     7
370
    25
100
AcDbLine
 10
1924.018056
 20
962.352834
 30
0.0
 11
1930.910895
 21
969.245672
 31
0.0
  0
LINE
  5
89
330
83
100
AcDbEntity
  8
LC-003-005-----0
 62
     7
370
    25
100
AcDbLine
 10
1919.618789
 20
972.095702
 30
0.0
 11
1927.326854
 21
979.8037669999999
 31
0.0
  0
LINE
  5
8A
330
83
100
AcDbEntity
  8
LC-003-005-----0
 62
     7
370
    25
100
AcDbLine
 10
1917.704327
 20
984.323376
 30
0.0
 11
1925.780309
 21
992.3993579999999
 31
0.0
  0
LINE
  5
8B
330
83
100
AcDbEntity
  8
LC-003-005-----0
 62
     7
370
    25
100
AcDbLine
 10
1916.157783
 20
996.918967
 30
0.0
 11
1924.233765
 21
1004.99495
 31
0.0
  0
LINE
  5
8C
330
83
100
AcDbEntity
  8
LC-003-005-----0
 62
     7
370
    25
100
AcDbLine
 10
1914.611239
 20
1009.514559
 30
0.0
 11
1922.687221
 21
1017.590541
 31
0.0
  0
LINE
  5
8D
330
83
100
AcDbEntity
  8
LC-003-005-----0
 62
     7
370
    25
100
AcDbLine
 10
1913.064694
 20
1022.11015
 30
0.0
 11
1921.140677
 21
1030.186133
 31
0.0
  0
LINE
  5
8E
330
83
100
AcDbEntity
  8
LC-003-005-----0
 62
     7
370
    25
100
AcDbLine
 10
1911.51815
 20
1034.705742
 30
0.0
 11
1919.594133
 21
1042.781724
 31
0.0
  0
LINE
  5
8F
330
83
100
AcDbEntity
  8
LC-003-005-----0
 62
     7
370
    25
100
AcDbLine
 10
1909.971606
 20
1047.301333
 30
0.0
 11
1918.047589
 21
1055.377316
 31
0.0
  0
LINE
  5
90
330
83
100
AcDbEntity
  8
LC-003-005-----0
 62
     7
370
    25
100
AcDbLine
 10
1908.425062
 20
1059.896925
 30
0.0
 11
1916.501044
 21
1067.972907
 31
0.0
  0
LINE
  5
91
330
83
100
AcDbEntity
  8
LC-003-005-----0
 62
     7
370
    25
100
AcDbLine
 10
1906.878518
 20
1072.492516
 30
0.0
 11
1914.9545
 21
1080.568498
 31
0.0
  0
LINE
  5
92
330
83
100
AcDbEntity
  8
LC-003-005-----0
 62
     7
370
    25
100
AcDbLine
 10
1903.243417
 20
1082.999551
 30
0.0
 11
1913.407956
 21
1093.16409
 31
0.0
  0
LINE
  5
93
330
83
100
AcDbEntity
  8
LC-003-005-----0
 62
     7
370
    25
100
AcDbLine
 10
1895.06701
 20
1088.96528
 30
0.0
 11
1902.94431
 21
1096.84258
 31
0.0
  0
ENDBLK
  5
85
330
83
100
AcDbEntity
  8
0
100
AcDbBlockEnd
  0
BLOCK
  5
E0
330
DF
100
AcDbEntity
  8
0
100
AcDbBlockBegin
  2
*X3
 70
     1
 10
0.0
 20
0.0
 30
0.0
  3
*X3
  1

  4
*X3
  0
LINE
  5
E2
330
DF
100
AcDbEntity
  8
LC-003-005-----0
 62
     7
370
    25
100
AcDbLine
 10
1879.168953
 20
1313.483528
 30
0.0
 11
1886.526205
 21
1320.84078
 31
0.0
  0
LINE
  5
E3
330
DF
100
AcDbEntity
  8
LC-003-005-----0
 62
     7
370
    25
100
AcDbLine
 10
1867.142197
 20
1315.598908
 30
0.0
 11
1876.607776
 21
1325.064487
 31
0.0
  0
LINE
  5
E4
330
DF
100
AcDbEntity
  8
LC-003-005-----0
 62
     7
370
    25
100
AcDbLine
 10
1855.069312
 20
1317.668158
 30
0.0
 11
1865.194155
 21
1327.793001
 31
0.0
  0
LINE
  5
E5
330
DF
100
AcDbEntity
  8
LC-003-005-----0
 62
     7
370
    25
100
AcDbLine
 10
1845.780461
 20
1322.521443
 30
0.0
 11
1853.146884
 21
1329.887866
 31
0.0
  0
LINE
  5
E6
330
DF
100
AcDbEntity
  8
LC-003-005-----0
 62
     7
370
    25
100
AcDbLine
 10
1839.789985
 20
1330.673102
 30
0.0
 11
1846.893405
 21
1337.776522
 31
0.0
  0
LINE
  5
E7
330
DF
100
AcDbEntity
  8
LC-003-005-----0
 62
     7
370
    25
100
AcDbLine
 10
1836.84595
 20
1341.871203
 30
0.0
 11
1844.921932
 21
1349.947185
 31
0.0
  0
LINE
  5
E8
330
DF
100
AcDbEntity
  8
LC-003-005-----0
 62
     7
370
    25
100
AcDbLine
 10
1835.299406
 20
1354.466794
 30
0.0
 11
1843.375388
 21
1362.542777
 31
0.0
  0
LINE
  5
E9
330
DF
100
AcDbEntity
  8
LC-003-005-----0
 62
     7
370
    25
100
AcDbLine
 10
1833.752862
 20
1367.062386
 30
0.0
 11
1841.828844
 21
1375.138368
 31
0.0
  0
LINE
  5
EA
330
DF
100
AcDbEntity
  8
LC-003-005-----0
 62
     7
370
    25
100
AcDbLine
 10
1832.206317
 20
1379.657977
 30
0.0
 11
1840.2823
 21
1387.73396
 31
0.0
  0
LINE
  5
EB
330
DF
100
AcDbEntity
  8
LC-003-005-----0
 62
     7
370
    25
100
AcDbLine
 10
1830.659773
 20
1392.253569
 30
0.0
 11
1838.735756
 21
1400.329551
 31
0.0
  0
LINE
  5
EC
330
DF
100
AcDbEntity
  8
LC-003-005-----0
 62
     7
370
    25
100
AcDbLine
 10
1829.113229
 20
1404.84916
 30
0.0
 11
1837.189211
 21
1412.925143
 31
0.0
  0
LINE
  5
ED
330
DF
100
AcDbEntity
  8
LC-003-005-----0
 62
     7
370
    25
100
AcDbLine
 10
1827.566685
 20
1417.444752
 30
0.0
 11
1835.642667
 21
1425.520734
 31
0.0
  0
LINE
  5
EE
330
DF
100
AcDbEntity
  8
LC-003-005-----0
 62
     7
370
    25
100
AcDbLine
 10
1826.020141
 20
1430.040343
 30
0.0
 11
1834.096123
 21
1438.116326
 31
0.0
  0
LINE
  5
EF
330
DF
100
AcDbEntity
  8
LC-003-005-----0
 62
     7
370
    25
100
AcDbLine
 10
1823.915973
 20
1442.078311
 30
0.0
 11
1832.549579
 21
1450.711917
 31
0.0
  0
LINE
  5
F0
330
DF
100
AcDbEntity
  8
LC-003-005-----0
 62
     7
370
    25
100
AcDbLine
 10
1814.597104
 20
1446.901578
 30
0.0
 11
1825.479055
 21
1457.783528
 31
0.0
  0
ENDBLK
  5
E1
330
DF
100
AcDbEntity
  8
0
100
AcDbBlockEnd
  0
BLOCK
  5
F3
330
F2
100
AcDbEntity
  8
0
100
AcDbBlockBegin
  2
*X4
 70
     1
 10
0.0
 20
0.0
 30
0.0
  3
*X4
  1

  4
*X4
  0
LINE
  5
F5
330
F2
100
AcDbEntity
  8
LC-003-005-----0
 62
     7
370
    25
100
AcDbLine
 10
2127.355694
 20
1321.253964
 30
0.0
 11
2152.297647
 21
1346.195916
 31
0.0
  0
LINE
  5
F6
330
F2
100
AcDbEntity
  8
LC-003-005-----0
 62
     7
370
    25
100
AcDbLine
 10
2112.701835000001
 20
1320.74224
 30
0.0
 11
2124.10681
 21
1332.147215
 31
0.0
  0
LINE
  5
F7
330
F2
100
AcDbEntity
  8
LC-003-005-----0
 62
     7
370
    25
100
AcDbLine
 10
2143.940347
 20
1351.980752
 30
0.0
 11
2154.277133
 21
1362.317538
 31
0.0
  0
LINE
  5
F8
330
F2
100
AcDbEntity
  8
LC-003-005-----0
 62
     7
370
    25
100
AcDbLine
 10
2098.047975
 20
1320.230516
 30
0.0
 11
2109.45295
 21
1331.635491
 31
0.0
  0
LINE
  5
F9
330
F2
100
AcDbEntity
  8
LC-003-005-----0
 62
     7
370
    25
100
AcDbLine
 10
2145.919833
 20
1368.102374
 30
0.0
 11
2156.256619
 21
1378.43916
 31
0.0
  0
LINE
  5
FA
330
F2
100
AcDbEntity
  8
LC-003-005-----0
 62
     7
370
    25
100
AcDbLine
 10
2083.394115
 20
1319.718792
 30
0.0
 11
2094.799091
 21
1331.123767
 31
0.0
  0
LINE
  5
FB
330
F2
100
AcDbEntity
  8
LC-003-005-----0
 62
     7
370
    25
100
AcDbLine
 10
2147.899319
 20
1384.223996
 30
0.0
 11
2158.236106
 21
1394.560782
 31
0.0
  0
LINE
  5
FC
330
F2
100
AcDbEntity
  8
LC-003-005-----0
 62
     7
370
    25
100
AcDbLine
 10
2068.740256
 20
1319.207067
 30
0.0
 11
2080.145231
 21
1330.612043
 31
0.0
  0
LINE
  5
FD
330
F2
100
AcDbEntity
  8
LC-003-005-----0
 62
     7
370
    25
100
AcDbLine
 10
2149.878806
 20
1400.345618
 30
0.0
 11
2160.215592
 21
1410.682404
 31
0.0
  0
LINE
  5
FE
330
F2
100
AcDbEntity
  8
LC-003-005-----0
 62
     7
370
    25
100
AcDbLine
 10
2054.086396
 20
1318.695343
 30
0.0
 11
2065.491371
 21
1330.100319
 31
0.0
  0
LINE
  5
FF
330
F2
100
AcDbEntity
  8
LC-003-005-----0
 62
     7
370
    25
100
AcDbLine
 10
2151.858292
 20
1416.467239
 30
0.0
 11
2162.195078
 21
1426.804026
 31
0.0
  0
LINE
  5
100
330
F2
100
AcDbEntity
  8
LC-003-005-----0
 62
     7
370
    25
100
AcDbLine
 10
2039.432536
 20
1318.183619
 30
0.0
 11
2050.837512
 21
1329.588595
 31
0.0
  0
LINE
  5
101
330
F2
100
AcDbEntity
  8
LC-003-005-----0
 62
     7
370
    25
100
AcDbLine
 10
2153.837778
 20
1432.588861
 30
0.0
 11
2176.16222
 21
1454.913303
 31
0.0
  0
LINE
  5
102
330
F2
100
AcDbEntity
  8
LC-003-005-----0
 62
     7
370
    25
100
AcDbLine
 10
2024.778676
 20
1317.671895
 30
0.0
 11
2036.183652
 21
1329.076871
 31
0.0
  0
LINE
  5
103
330
F2
100
AcDbEntity
  8
LC-003-005-----0
 62
     7
370
    25
100
AcDbLine
 10
2155.817264
 20
1448.710483
 30
0.0
 11
2164.89031
 21
1457.783528
 31
0.0
  0
LINE
  5
104
330
F2
100
AcDbEntity
  8
LC-003-005-----0
 62
     7
370
    25
100
AcDbLine
 10
2010.124817
 20
1317.160171
 30
0.0
 11
2021.529792
 21
1328.565147
 31
0.0
  0
LINE
  5
105
330
F2
100
AcDbEntity
  8
LC-003-005-----0
 62
     7
370
    25
100
AcDbLine
 10
1992.306038
 20
1313.483528
 30
0.0
 11
2006.875933
 21
1328.053423
 31
0.0
  0
LINE
  5
106
330
F2
100
AcDbEntity
  8
LC-003-005-----0
 62
     7
370
    25
100
AcDbLine
 10
1978.163903
 20
1313.483528
 30
0.0
 11
1992.222073
 21
1327.541699
 31
0.0
  0
ENDBLK
  5
F4
330
F2
100
AcDbEntity
  8
0
100
AcDbBlockEnd
  0
BLOCK
  5
10C
330
10B
100
AcDbEntity
  8
0
100
AcDbBlockBegin
  2
LCDIM1
 70
     0
 10
0.0
 20
0.0
 30
0.0
  3
LCDIM1
  1

  4
LCDIM1
  0
TEXT
  5
10E
330
10B
100
AcDbEntity
  8
LC-005-003-----0
 62
     7
370
    25
100
AcDbText
 10
1818.982767666031
 20
1035.93964433711
 30
0.0
 40
12.5
  1
 15%%d
 50
-35.411118
  7
LCTX0-400-0-0pDIN-Schrift
 72
     1
 11
1839.358152
 21
1021.453661
 31
0.0
100
AcDbText
  0
LINE
  5
10F
330
10B
100
AcDbEntity
  8
LC-005-003-----0
 62
     7
370
    25
100
AcDbLine
 10
1880.485593
 20
995.9872369999999
 30
0.0
 11
1892.956294
 21
996.8425800000002
 31
0.0
  0
LINE
  5
110
330
10B
100
AcDbEntity
  8
LC-005-003-----0
 62
     7
370
    25
100
AcDbLine
 10
1892.956294
 20
996.8425800000002
 30
0.0
 11
1880.689143
 21
999.2440380000001
 31
0.0
  0
LINE
  5
111
330
10B
100
AcDbEntity
  8
LC-005-003-----0
 62
     7
370
    25
100
AcDbLine
 10
1880.689143
 20
999.2440380000001
 30
0.0
 11
1880.485593
 21
995.9872369999999
 31
0.0
  0
LINE
  5
112
330
10B
100
AcDbEntity
  8
LC-005-003-----0
 62
     7
370
    25
100
AcDbLine
 10
1880.484305
 20
996.412356
 30
0.0
 11
1889.712623
 21
997.0453089999999
 31
0.0
  0
LINE
  5
113
330
10B
100
AcDbEntity
  8
LC-005-003-----0
 62
     7
370
    25
100
AcDbLine
 10
1889.712623
 20
997.0453089999999
 30
0.0
 11
1880.634932
 21
998.8223880000001
 31
0.0
  0
LINE
  5
114
330
10B
100
AcDbEntity
  8
LC-005-003-----0
 62
     7
370
    25
100
AcDbLine
 10
1880.483016
 20
996.8374739999999
 30
0.0
 11
1886.468953
 21
997.248038
 31
0.0
  0
LINE
  5
115
330
10B
100
AcDbEntity
  8
LC-005-003-----0
 62
     7
370
    25
100
AcDbLine
 10
1886.468953
 20
997.248038
 30
0.0
 11
1880.58072
 21
998.4007380000001
 31
0.0
  0
LINE
  5
116
330
10B
100
AcDbEntity
  8
LC-005-003-----0
 62
     7
370
    25
100
AcDbLine
 10
1880.481727
 20
997.2625929999999
 30
0.0
 11
1883.225282
 21
997.450768
 31
0.0
  0
LINE
  5
117
330
10B
100
AcDbEntity
  8
LC-005-003-----0
 62
     7
370
    25
100
AcDbLine
 10
1883.225282
 20
997.450768
 30
0.0
 11
1880.526508
 21
997.979089
 31
0.0
  0
LINE
  5
118
330
10B
100
AcDbEntity
  8
LC-005-003-----0
 62
     7
370
    25
100
AcDbLine
 10
1930.065814
 20
1005.7446
 30
0.0
 11
1918.838199
 21
1000.249997
 31
0.0
  0
LINE
  5
119
330
10B
100
AcDbEntity
  8
LC-005-003-----0
 62
     7
370
    25
100
AcDbLine
 10
1918.838199
 20
1000.249997
 30
0.0
 11
1931.10535
 21
1002.651455
 31
0.0
  0
LINE
  5
11A
330
10B
100
AcDbEntity
  8
LC-005-003-----0
 62
     7
370
    25
100
AcDbLine
 10
1931.10535
 20
1002.651455
 30
0.0
 11
1930.065814
 21
1005.7446
 31
0.0
  0
LINE
  5
11B
330
10B
100
AcDbEntity
  8
LC-005-003-----0
 62
     7
370
    25
100
AcDbLine
 10
1930.227309
 20
1005.351348
 30
0.0
 11
1921.918873999999
 21
1001.285342
 31
0.0
  0
LINE
  5
11C
330
10B
100
AcDbEntity
  8
LC-005-003-----0
 62
     7
370
    25
100
AcDbLine
 10
1921.918873999999
 20
1001.285342
 30
0.0
 11
1930.996566
 21
1003.062421
 31
0.0
  0
LINE
  5
11D
330
10B
100
AcDbEntity
  8
LC-005-003-----0
 62
     7
370
    25
100
AcDbLine
 10
1930.388805
 20
1004.958097
 30
0.0
 11
1924.999549
 21
1002.320688
 31
0.0
  0
LINE
  5
11E
330
10B
100
AcDbEntity
  8
LC-005-003-----0
 62
     7
370
    25
100
AcDbLine
 10
1924.999549
 20
1002.320688
 30
0.0
 11
1930.887782
 21
1003.473388
 31
0.0
  0
LINE
  5
11F
330
10B
100
AcDbEntity
  8
LC-005-003-----0
 62
     7
370
    25
100
AcDbLine
 10
1930.5503
 20
1004.564846
 30
0.0
 11
1928.080225
 21
1003.356033
 31
0.0
  0
LINE
  5
120
330
10B
100
AcDbEntity
  8
LC-005-003-----0
 62
     7
370
    25
100
AcDbLine
 10
1928.080225
 20
1003.356033
 30
0.0
 11
1930.778998
 21
1003.884354
 31
0.0
  0
ARC
  5
122
330
10B
100
AcDbEntity
  8
LC-006-003-MTG-0
 62
     7
370
    25
100
AcDbCircle
 10
1892.956294
 20
1096.84258
 30
0.0
 40
100.0000000000009
100
AcDbArc
 50
225.087872
 51
294.926246
  0
ENDBLK
  5
10D
330
10B
100
AcDbEntity
  8
0
100
AcDbBlockEnd
  0
BLOCK
  5
133
330
128
100
AcDbEntity
  8
0
100
AcDbBlockBegin
  2
*D6
 70
     1
 10
0.0
 20
0.0
 30
0.0
  3
*D6
  1

  0
LINE
  5
129
330
128
100
AcDbEntity
  8
LC-005-003-----0
 62
     2
370
    -2
100
AcDbLine
 10
1811.681294
 20
1457.783528
 30
0.0
 11
1666.0
 21
1457.783528
 31
0.0
  0
LINE
  5
12A
330
128
100
AcDbEntity
  8
LC-005-003-----0
 62
     2
370
    -2
100
AcDbLine
 10
1791.681294
 20
1313.483528
 30
0.0
 11
1666.0
 21
1313.483528
 31
0.0
  0
LINE
  5
12B
330
128
100
AcDbEntity
  8
LC-005-003-----0
 62
     2
370
    -2
100
AcDbLine
 10
1675.0
 20
1445.283528
 30
0.0
 11
1675.0
 21
1417.208528
 31
0.0
  0
LINE
  5
12C
330
128
100
AcDbEntity
  8
LC-005-003-----0
 62
     2
370
    -2
100
AcDbLine
 10
1675.0
 20
1325.983528
 30
0.0
 11
1675.0
 21
1354.058529
 31
0.0
  0
SOLID
  5
12D
330
128
100
AcDbEntity
  8
LC-005-003-----0
 62
     2
100
AcDbTrace
 10
1677.083333
 20
1445.283528
 30
0.0
 11
1672.916667
 21
1445.283528
 31
0.0
 12
1675.0
 22
1457.783528
 32
0.0
 13
1675.0
 23
1457.783528
 33
0.0
  0
SOLID
  5
12E
330
128
100
AcDbEntity
  8
LC-005-003-----0
 62
     2
100
AcDbTrace
 10
1672.916667
 20
1325.983528
 30
0.0
 11
1677.083333
 21
1325.983528
 31
0.0
 12
1675.0
 22
1313.483528
 32
0.0
 13
1675.0
 23
1313.483528
 33
0.0
  0
MTEXT
  5
12F
330
128
100
AcDbEntity
  8
LC-005-003-----0
 62
     2
100
AcDbMText
 10
1660.0
 20
1385.633528
 30
0.0
 40
12.5
 41
0.0
 71
     5
 72
     1
  1
\A1;144,3
  7
LCTX0-400-0-0pDIN-Schrift
 11
0.0000000000000001
 21
1.0
 31
0.0
 73
     1
 44
1.0
1001
ACAD
1000
MTEXTBEGIN
1070
    73
1070
     1
1070
    44
1040
1.0
1070
    74
1070
     0
1000
MTEXTEND
  0
POINT
  5
130
330
128
100
AcDbEntity
  8
Defpoints
 62
     0
100
AcDbPoint
 10
1811.681294
 20
1457.783528
 30
0.0
  0
POINT
  5
131
330
128
100
AcDbEntity
  8
Defpoints
 62
     0
100
AcDbPoint
 10
1791.681294
 20
1313.483528
 30
0.0
  0
POINT
  5
132
330
128
100
AcDbEntity
  8
Defpoints
 62
     0
100
AcDbPoint
 10
1675.0
 20
1313.483528
 30
0.0
  0
ENDBLK
  5
134
330
128
100
AcDbEntity
  8
0
100
AcDbBlockEnd
  0
BLOCK
  5
140
330
136
100
AcDbEntity
  8
0
100
AcDbBlockBegin
  2
*D7
 70
     1
 10
0.0
 20
0.0
 30
0.0
  3
*D7
  1

  0
LINE
  5
137
330
136
100
AcDbEntity
  8
LC-005-003-----0
 62
     2
370
    -2
100
AcDbLine
 10
1791.681294
 20
1457.783528
 30
0.0
 11
1741.0
 21
1457.783528
 31
0.0
  0
LINE
  5
138
330
136
100
AcDbEntity
  8
LC-005-003-----0
 62
     2
370
    -2
100
AcDbLine
 10
1791.681294
 20
1327.483528
 30
0.0
 11
1741.0
 21
1327.483528
 31
0.0
  0
LINE
  5
139
330
136
100
AcDbEntity
  8
LC-005-003-----0
 62
     2
370
    -2
100
AcDbLine
 10
1750.0
 20
1445.283528
 30
0.0
 11
1750.0
 21
1339.983528
 31
0.0
  0
SOLID
  5
13A
330
136
100
AcDbEntity
  8
LC-005-003-----0
 62
     2
100
AcDbTrace
 10
1752.083333
 20
1445.283528
 30
0.0
 11
1747.916667
 21
1445.283528
 31
0.0
 12
1750.0
 22
1457.783528
 32
0.0
 13
1750.0
 23
1457.783528
 33
0.0
  0
SOLID
  5
13B
330
136
100
AcDbEntity
  8
LC-005-003-----0
 62
     2
100
AcDbTrace
 10
1747.916667
 20
1339.983528
 30
0.0
 11
1752.083333
 21
1339.983528
 31
0.0
 12
1750.0
 22
1327.483528
 32
0.0
 13
1750.0
 23
1327.483528
 33
0.0
  0
MTEXT
  5
13C
330
136
100
AcDbEntity
  8
LC-005-003-----0
 62
     2
100
AcDbMText
 10
1735.0
 20
1392.633528
 30
0.0
 40
12.5
 41
0.0
 71
     5
 72
     1
  1
\A1;130,3
  7
LCTX0-400-0-0pDIN-Schrift
 11
0.0000000000000001
 21
1.0
 31
0.0
 73
     1
 44
1.0
1001
ACAD
1000
MTEXTBEGIN
1070
    73
1070
     1
1070
    44
1040
1.0
1070
    74
1070
     0
1000
MTEXTEND
  0
POINT
  5
13D
330
136
100
AcDbEntity
  8
Defpoints
 62
     0
100
AcDbPoint
 10
1791.681294
 20
1457.783528
 30
0.0
  0
POINT
  5
13E
330
136
100
AcDbEntity
  8
Defpoints
 62
     0
100
AcDbPoint
 10
1791.681294
 20
1327.483528
 30
0.0
  0
POINT
  5
13F
330
136
100
AcDbEntity
  8
Defpoints
 62
     0
100
AcDbPoint
 10
1750.0
 20
1327.483528
 30
0.0
  0
ENDBLK
  5
141
330
136
100
AcDbEntity
  8
0
100
AcDbBlockEnd
  0
BLOCK
  5
14D
330
143
100
AcDbEntity
  8
0
100
AcDbBlockBegin
  2
*D8
 70
     1
 10
0.0
 20
0.0
 30
0.0
  3
*D8
  1

  0
LINE
  5
144
330
143
100
AcDbEntity
  8
LC-005-003-----0
 62
     2
370
    -2
100
AcDbLine
 10
1872.956294
 20
776.5607469999999
 30
0.0
 11
1666.0
 21
776.5607469999999
 31
0.0
  0
LINE
  5
145
330
143
100
AcDbEntity
  8
LC-005-003-----0
 62
     2
370
    -2
100
AcDbLine
 10
1872.956294
 20
411.310747
 30
0.0
 11
1666.0
 21
411.310747
 31
0.0
  0
LINE
  5
146
330
143
100
AcDbEntity
  8
LC-005-003-----0
 62
     2
370
    -2
100
AcDbLine
 10
1675.0
 20
764.0607469999999
 30
0.0
 11
1675.0
 21
423.810747
 31
0.0
  0
SOLID
  5
147
330
143
100
AcDbEntity
  8
LC-005-003-----0
 62
     2
100
AcDbTrace
 10
1677.083333
 20
764.0607469999999
 30
0.0
 11
1672.916667
 21
764.0607469999999
 31
0.0
 12
1675.0
 22
776.5607469999999
 32
0.0
 13
1675.0
 23
776.5607469999999
 33
0.0
  0
SOLID
  5
148
330
143
100
AcDbEntity
  8
LC-005-003-----0
 62
     2
100
AcDbTrace
 10
1672.916667
 20
423.810747
 30
0.0
 11
1677.083333
 21
423.810747
 31
0.0
 12
1675.0
 22
411.310747
 32
0.0
 13
1675.0
 23
411.310747
 33
0.0
  0
MTEXT
  5
149
330
143
100
AcDbEntity
  8
LC-005-003-----0
 62
     2
100
AcDbMText
 10
1660.0
 20
593.935747
 30
0.0
 40
12.5
 41
0.0
 71
     5
 72
     1
  1
\A1;365,25
  7
LCTX0-400-0-0pDIN-Schrift
 11
0.0000000000000001
 21
1.0
 31
0.0
 73
     1
 44
1.0
1001
ACAD
1000
MTEXTBEGIN
1070
    73
1070
     1
1070
    44
1040
1.0
1070
    74
1070
     0
1000
MTEXTEND
  0
POINT
  5
14A
330
143
100
AcDbEntity
  8
Defpoints
 62
     0
100
AcDbPoint
 10
1872.956294
 20
776.5607469999999
 30
0.0
  0
POINT
  5
14B
330
143
100
AcDbEntity
  8
Defpoints
 62
     0
100
AcDbPoint
 10
1872.956294
 20
411.310747
 30
0.0
  0
POINT
  5
14C
330
143
100
AcDbEntity
  8
Defpoints
 62
     0
100
AcDbPoint
 10
1675.0
 20
411.310747
 30
0.0
  0
ENDBLK
  5
14E
330
143
100
AcDbEntity
  8
0
100
AcDbBlockEnd
  0
BLOCK
  5
15A
330
150
100
AcDbEntity
  8
0
100
AcDbBlockBegin
  2
*D9
 70
     1
 10
0.0
 20
0.0
 30
0.0
  3
*D9
  1

  0
LINE
  5
151
330
150
100
AcDbEntity
  8
LC-005-003-----0
 62
     2
370
    -2
100
AcDbLine
 10
1872.956294
 20
756.5607469999999
 30
0.0
 11
1741.0
 21
756.5607469999999
 31
0.0
  0
LINE
  5
152
330
150
100
AcDbEntity
  8
LC-005-003-----0
 62
     2
370
    -2
100
AcDbLine
 10
1872.956294
 20
431.310747
 30
0.0
 11
1741.0
 21
431.310747
 31
0.0
  0
LINE
  5
153
330
150
100
AcDbEntity
  8
LC-005-003-----0
 62
     2
370
    -2
100
AcDbLine
 10
1750.0
 20
744.0607469999999
 30
0.0
 11
1750.0
 21
443.810747
 31
0.0
  0
SOLID
  5
154
330
150
100
AcDbEntity
  8
LC-005-003-----0
 62
     2
100
AcDbTrace
 10
1752.083333
 20
744.0607469999999
 30
0.0
 11
1747.916667
 21
744.0607469999999
 31
0.0
 12
1750.0
 22
756.5607469999999
 32
0.0
 13
1750.0
 23
756.5607469999999
 33
0.0
  0
SOLID
  5
155
330
150
100
AcDbEntity
  8
LC-005-003-----0
 62
     2
100
AcDbTrace
 10
1747.916667
 20
443.810747
 30
0.0
 11
1752.083333
 21
443.810747
 31
0.0
 12
1750.0
 22
431.310747
 32
0.0
 13
1750.0
 23
431.310747
 33
0.0
  0
MTEXT
  5
156
330
150
100
AcDbEntity
  8
LC-005-003-----0
 62
     2
100
AcDbMText
 10
1735.0
 20
593.935747
 30
0.0
 40
12.5
 41
0.0
 71
     5
 72
     1
  1
\A1;325,25
  7
LCTX0-400-0-0pDIN-Schrift
 11
0.0000000000000001
 21
1.0
 31
0.0
 73
     1
 44
1.0
1001
ACAD
1000
MTEXTBEGIN
1070
    73
1070
     1
1070
    44
1040
1.0
1070
    74
1070
     0
1000
MTEXTEND
  0
POINT
  5
157
330
150
100
AcDbEntity
  8
Defpoints
 62
     0
100
AcDbPoint
 10
1872.956294
 20
756.5607469999999
 30
0.0
  0
POINT
  5
158
330
150
100
AcDbEntity
  8
Defpoints
 62
     0
100
AcDbPoint
 10
1872.956294
 20
431.310747
 30
0.0
  0
POINT
  5
159
330
150
100
AcDbEntity
  8
Defpoints
 62
     0
100
AcDbPoint
 10
1750.0
 20
431.310747
 30
0.0
  0
ENDBLK
  5
15B
330
150
100
AcDbEntity
  8
0
100
AcDbBlockEnd
  0
BLOCK
  5
167
330
15D
100
AcDbEntity
  8
0
100
AcDbBlockBegin
  2
*D10
 70
     1
 10
0.0
 20
0.0
 30
0.0
  3
*D10
  1

  0
LINE
  5
15E
330
15D
100
AcDbEntity
  8
LC-005-003-----0
 62
     2
370
    -2
100
AcDbLine
 10
2095.656294000001
 20
391.310747
 30
0.0
 11
2095.656294000001
 21
216.0
 31
0.0
  0
LINE
  5
15F
330
15D
100
AcDbEntity
  8
LC-005-003-----0
 62
     2
370
    -2
100
AcDbLine
 10
1892.956294
 20
391.310747
 30
0.0
 11
1892.956294
 21
216.0
 31
0.0
  0
LINE
  5
160
330
15D
100
AcDbEntity
  8
LC-005-003-----0
 62
     2
370
    -2
100
AcDbLine
 10
2083.156294000001
 20
225.0
 30
0.0
 11
1905.456294
 21
225.0
 31
0.0
  0
SOLID
  5
161
330
15D
100
AcDbEntity
  8
LC-005-003-----0
 62
     2
100
AcDbTrace
 10
2083.156294000001
 20
222.916667
 30
0.0
 11
2083.156294000001
 21
227.083333
 31
0.0
 12
2095.656294000001
 22
225.0
 32
0.0
 13
2095.656294000001
 23
225.0
 33
0.0
  0
SOLID
  5
162
330
15D
100
AcDbEntity
  8
LC-005-003-----0
 62
     2
100
AcDbTrace
 10
1905.456294
 20
227.083333
 30
0.0
 11
1905.456294
 21
222.916667
 31
0.0
 12
1892.956294
 22
225.0
 32
0.0
 13
1892.956294
 23
225.0
 33
0.0
  0
MTEXT
  5
163
330
15D
100
AcDbEntity
  8
LC-005-003-----0
 62
     2
100
AcDbMText
 10
1994.306294
 20
240.0
 30
0.0
 40
12.5
 41
0.0
 71
     5
 72
     1
  1
\A1;202,7
  7
LCTX0-400-0-0pDIN-Schrift
 73
     1
 44
1.0
1001
ACAD
1000
MTEXTBEGIN
1070
    73
1070
     1
1070
    44
1040
1.0
1070
    74
1070
     0
1000
MTEXTEND
  0
POINT
  5
164
330
15D
100
AcDbEntity
  8
Defpoints
 62
     0
100
AcDbPoint
 10
2095.656294000001
 20
391.310747
 30
0.0
  0
POINT
  5
165
330
15D
100
AcDbEntity
  8
Defpoints
 62
     0
100
AcDbPoint
 10
1892.956294
 20
391.310747
 30
0.0
  0
POINT
  5
166
330
15D
100
AcDbEntity
  8
Defpoints
 62
     0
100
AcDbPoint
 10
1892.956294
 20
225.0
 30
0.0
  0
ENDBLK
  5
168
330
15D
100
AcDbEntity
  8
0
100
AcDbBlockEnd
  0
BLOCK
  5
174
330
16A
100
AcDbEntity
  8
0
100
AcDbBlockBegin
  2
*D11
 70
     1
 10
0.0
 20
0.0
 30
0.0
  3
*D11
  1

  0
LINE
  5
16B
330
16A
100
AcDbEntity
  8
LC-005-003-----0
 62
     2
370
    -2
100
AcDbLine
 10
2075.656294000001
 20
391.310747
 30
0.0
 11
2075.656294000001
 21
291.0
 31
0.0
  0
LINE
  5
16C
330
16A
100
AcDbEntity
  8
LC-005-003-----0
 62
     2
370
    -2
100
AcDbLine
 10
1912.956294
 20
391.310747
 30
0.0
 11
1912.956294
 21
291.0
 31
0.0
  0
LINE
  5
16D
330
16A
100
AcDbEntity
  8
LC-005-003-----0
 62
     2
370
    -2
100
AcDbLine
 10
2063.156294000001
 20
300.0
 30
0.0
 11
1925.456294
 21
300.0
 31
0.0
  0
SOLID
  5
16E
330
16A
100
AcDbEntity
  8
LC-005-003-----0
 62
     2
100
AcDbTrace
 10
2063.156294000001
 20
297.916667
 30
0.0
 11
2063.156294000001
 21
302.083333
 31
0.0
 12
2075.656294000001
 22
300.0
 32
0.0
 13
2075.656294000001
 23
300.0
 33
0.0
  0
SOLID
  5
16F
330
16A
100
AcDbEntity
  8
LC-005-003-----0
 62
     2
100
AcDbTrace
 10
1925.456294
 20
302.083333
 30
0.0
 11
1925.456294
 21
297.916667
 31
0.0
 12
1912.956294
 22
300.0
 32
0.0
 13
1912.956294
 23
300.0
 33
0.0
  0
MTEXT
  5
170
330
16A
100
AcDbEntity
  8
LC-005-003-----0
 62
     2
100
AcDbMText
 10
1994.306294
 20
315.0
 30
0.0
 40
12.5
 41
0.0
 71
     5
 72
     1
  1
\A1;162,7
  7
LCTX0-400-0-0pDIN-Schrift
 73
     1
 44
1.0
1001
ACAD
1000
MTEXTBEGIN
1070
    73
1070
     1
1070
    44
1040
1.0
1070
    74
1070
     0
1000
MTEXTEND
  0
POINT
  5
171
330
16A
100
AcDbEntity
  8
Defpoints
 62
     0
100
AcDbPoint
 10
2075.656294000001
 20
391.310747
 30
0.0
  0
POINT
  5
172
330
16A
100
AcDbEntity
  8
Defpoints
 62
     0
100
AcDbPoint
 10
1912.956294
 20
391.310747
 30
0.0
  0
POINT
  5
173
330
16A
100
AcDbEntity
  8
Defpoints
 62
     0
100
AcDbPoint
 10
1912.956294
 20
300.0
 30
0.0
  0
ENDBLK
  5
175
330
16A
100
AcDbEntity
  8
0
100
AcDbBlockEnd
  0
BLOCK
  5
19C
330
19B
100
AcDbEntity
  8
0
100
AcDbBlockBegin
  2
*X12
 70
     1
 10
0.0
 20
0.0
 30
0.0
  3
*X12
  1

  4
*X5
  0
LINE
  5
19E
330
19B
100
AcDbEntity
  8
LC-001-002-----0
 62
     7
370
    35
100
AcDbLine
 10
501.461565
 20
1315.0
 30
0.0
 11
511.7304599999999
 21
1315.0
 31
0.0
  0
LINE
  5
19F
330
19B
100
AcDbEntity
  8
LC-001-002-----0
 62
     7
370
    35
100
AcDbLine
 10
501.4747309999999
 20
1315.1
 30
0.0
 11
511.717295
 21
1315.1
 31
0.0
  0
LINE
  5
1A0
330
19B
100
AcDbEntity
  8
LC-001-002-----0
 62
     7
370
    35
100
AcDbLine
 10
501.4878959999999
 20
1315.2
 30
0.0
 11
511.7041299999999
 21
1315.2
 31
0.0
  0
LINE
  5
1A1
330
19B
100
AcDbEntity
  8
LC-001-002-----0
 62
     7
370
    35
100
AcDbLine
 10
501.501061
 20
1315.3
 30
0.0
 11
511.6909639999999
 21
1315.3
 31
0.0
  0
LINE
  5
1A2
330
19B
100
AcDbEntity
  8
LC-001-002-----0
 62
     7
370
    35
100
AcDbLine
 10
501.5142259999999
 20
1315.4
 30
0.0
 11
511.677799
 21
1315.4
 31
0.0
  0
LINE
  5
1A3
330
19B
100
AcDbEntity
  8
LC-001-002-----0
 62
     7
370
    35
100
AcDbLine
 10
501.527392
 20
1315.5
 30
0.0
 11
511.6646339999999
 21
1315.5
 31
0.0
  0
LINE
  5
1A4
330
19B
100
AcDbEntity
  8
LC-001-002-----0
 62
     7
370
    35
100
AcDbLine
 10
501.540557
 20
1315.6
 30
0.0
 11
511.651469
 21
1315.6
 31
0.0
  0
LINE
  5
1A5
330
19B
100
AcDbEntity
  8
LC-001-002-----0
 62
     7
370
    35
100
AcDbLine
 10
501.5537219999999
 20
1315.7
 30
0.0
 11
511.638303
 21
1315.7
 31
0.0
  0
LINE
  5
1A6
330
19B
100
AcDbEntity
  8
LC-001-002-----0
 62
     7
370
    35
100
AcDbLine
 10
501.5668869999999
 20
1315.8
 30
0.0
 11
511.625138
 21
1315.8
 31
0.0
  0
LINE
  5
1A7
330
19B
100
AcDbEntity
  8
LC-001-002-----0
 62
     7
370
    35
100
AcDbLine
 10
501.5800529999999
 20
1315.9
 30
0.0
 11
511.611973
 21
1315.9
 31
0.0
  0
LINE
  5
1A8
330
19B
100
AcDbEntity
  8
LC-001-002-----0
 62
     7
370
    35
100
AcDbLine
 10
501.593218
 20
1316.0
 30
0.0
 11
511.598808
 21
1316.0
 31
0.0
  0
LINE
  5
1A9
330
19B
100
AcDbEntity
  8
LC-001-002-----0
 62
     7
370
    35
100
AcDbLine
 10
501.606383
 20
1316.1
 30
0.0
 11
511.585642
 21
1316.1
 31
0.0
  0
LINE
  5
1AA
330
19B
100
AcDbEntity
  8
LC-001-002-----0
 62
     7
370
    35
100
AcDbLine
 10
501.619548
 20
1316.2
 30
0.0
 11
511.5724769999999
 21
1316.2
 31
0.0
  0
LINE
  5
1AB
330
19B
100
AcDbEntity
  8
LC-001-002-----0
 62
     7
370
    35
100
AcDbLine
 10
501.6327139999999
 20
1316.3
 30
0.0
 11
511.559312
 21
1316.3
 31
0.0
  0
LINE
  5
1AC
330
19B
100
AcDbEntity
  8
LC-001-002-----0
 62
     7
370
    35
100
AcDbLine
 10
501.6458789999999
 20
1316.4
 30
0.0
 11
511.5461469999999
 21
1316.4
 31
0.0
  0
LINE
  5
1AD
330
19B
100
AcDbEntity
  8
LC-001-002-----0
 62
     7
370
    35
100
AcDbLine
 10
501.659044
 20
1316.5
 30
0.0
 11
511.5329809999999
 21
1316.5
 31
0.0
  0
LINE
  5
1AE
330
19B
100
AcDbEntity
  8
LC-001-002-----0
 62
     7
370
    35
100
AcDbLine
 10
501.672209
 20
1316.6
 30
0.0
 11
511.519816
 21
1316.6
 31
0.0
  0
LINE
  5
1AF
330
19B
100
AcDbEntity
  8
LC-001-002-----0
 62
     7
370
    35
100
AcDbLine
 10
501.685375
 20
1316.7
 30
0.0
 11
511.506651
 21
1316.7
 31
0.0
  0
LINE
  5
1B0
330
19B
100
AcDbEntity
  8
LC-001-002-----0
 62
     7
370
    35
100
AcDbLine
 10
501.69854
 20
1316.8
 30
0.0
 11
511.4934859999999
 21
1316.8
 31
0.0
  0
LINE
  5
1B1
330
19B
100
AcDbEntity
  8
LC-001-002-----0
 62
     7
370
    35
100
AcDbLine
 10
501.711705
 20
1316.9
 30
0.0
 11
511.4803199999999
 21
1316.9
 31
0.0
  0
LINE
  5
1B2
330
19B
100
AcDbEntity
  8
LC-001-002-----0
 62
     7
370
    35
100
AcDbLine
 10
501.72487
 20
1317.0
 30
0.0
 11
511.4671549999999
 21
1317.0
 31
0.0
  0
LINE
  5
1B3
330
19B
100
AcDbEntity
  8
LC-001-002-----0
 62
     7
370
    35
100
AcDbLine
 10
501.738036
 20
1317.1
 30
0.0
 11
511.45399
 21
1317.1
 31
0.0
  0
LINE
  5
1B4
330
19B
100
AcDbEntity
  8
LC-001-002-----0
 62
     7
370
    35
100
AcDbLine
 10
501.7512009999999
 20
1317.2
 30
0.0
 11
511.440825
 21
1317.2
 31
0.0
  0
LINE
  5
1B5
330
19B
100
AcDbEntity
  8
LC-001-002-----0
 62
     7
370
    35
100
AcDbLine
 10
501.764366
 20
1317.3
 30
0.0
 11
511.427659
 21
1317.3
 31
0.0
  0
LINE
  5
1B6
330
19B
100
AcDbEntity
  8
LC-001-002-----0
 62
     7
370
    35
100
AcDbLine
 10
501.7775309999999
 20
1317.4
 30
0.0
 11
511.414494
 21
1317.4
 31
0.0
  0
LINE
  5
1B7
330
19B
100
AcDbEntity
  8
LC-001-002-----0
 62
     7
370
    35
100
AcDbLine
 10
501.7906969999999
 20
1317.5
 30
0.0
 11
511.4013289999999
 21
1317.5
 31
0.0
  0
LINE
  5
1B8
330
19B
100
AcDbEntity
  8
LC-001-002-----0
 62
     7
370
    35
100
AcDbLine
 10
501.803862
 20
1317.6
 30
0.0
 11
511.3881639999999
 21
1317.6
 31
0.0
  0
LINE
  5
1B9
330
19B
100
AcDbEntity
  8
LC-001-002-----0
 62
     7
370
    35
100
AcDbLine
 10
501.8170269999999
 20
1317.7
 30
0.0
 11
511.374998
 21
1317.7
 31
0.0
  0
LINE
  5
1BA
330
19B
100
AcDbEntity
  8
LC-001-002-----0
 62
     7
370
    35
100
AcDbLine
 10
501.8301919999999
 20
1317.8
 30
0.0
 11
511.361833
 21
1317.8
 31
0.0
  0
LINE
  5
1BB
330
19B
100
AcDbEntity
  8
LC-001-002-----0
 62
     7
370
    35
100
AcDbLine
 10
501.8433579999999
 20
1317.9
 30
0.0
 11
511.348668
 21
1317.9
 31
0.0
  0
LINE
  5
1BC
330
19B
100
AcDbEntity
  8
LC-001-002-----0
 62
     7
370
    35
100
AcDbLine
 10
501.856523
 20
1318.0
 30
0.0
 11
511.335503
 21
1318.0
 31
0.0
  0
LINE
  5
1BD
330
19B
100
AcDbEntity
  8
LC-001-002-----0
 62
     7
370
    35
100
AcDbLine
 10
501.869688
 20
1318.1
 30
0.0
 11
511.322337
 21
1318.1
 31
0.0
  0
LINE
  5
1BE
330
19B
100
AcDbEntity
  8
LC-001-002-----0
 62
     7
370
    35
100
AcDbLine
 10
501.882853
 20
1318.2
 30
0.0
 11
511.3091719999999
 21
1318.2
 31
0.0
  0
LINE
  5
1BF
330
19B
100
AcDbEntity
  8
LC-001-002-----0
 62
     7
370
    35
100
AcDbLine
 10
501.896019
 20
1318.3
 30
0.0
 11
511.296007
 21
1318.3
 31
0.0
  0
LINE
  5
1C0
330
19B
100
AcDbEntity
  8
LC-001-002-----0
 62
     7
370
    35
100
AcDbLine
 10
501.9091839999999
 20
1318.4
 30
0.0
 11
511.282842
 21
1318.4
 31
0.0
  0
LINE
  5
1C1
330
19B
100
AcDbEntity
  8
LC-001-002-----0
 62
     7
370
    35
100
AcDbLine
 10
501.9223489999999
 20
1318.5
 30
0.0
 11
511.269676
 21
1318.5
 31
0.0
  0
LINE
  5
1C2
330
19B
100
AcDbEntity
  8
LC-001-002-----0
 62
     7
370
    35
100
AcDbLine
 10
501.935514
 20
1318.6
 30
0.0
 11
511.256511
 21
1318.6
 31
0.0
  0
LINE
  5
1C3
330
19B
100
AcDbEntity
  8
LC-001-002-----0
 62
     7
370
    35
100
AcDbLine
 10
501.94868
 20
1318.7
 30
0.0
 11
511.243346
 21
1318.7
 31
0.0
  0
LINE
  5
1C4
330
19B
100
AcDbEntity
  8
LC-001-002-----0
 62
     7
370
    35
100
AcDbLine
 10
501.961845
 20
1318.8
 30
0.0
 11
511.2301809999999
 21
1318.8
 31
0.0
  0
LINE
  5
1C5
330
19B
100
AcDbEntity
  8
LC-001-002-----0
 62
     7
370
    35
100
AcDbLine
 10
501.9750099999999
 20
1318.9
 30
0.0
 11
511.217015
 21
1318.9
 31
0.0
  0
LINE
  5
1C6
330
19B
100
AcDbEntity
  8
LC-001-002-----0
 62
     7
370
    35
100
AcDbLine
 10
501.988175
 20
1319.0
 30
0.0
 11
511.2038499999999
 21
1319.0
 31
0.0
  0
LINE
  5
1C7
330
19B
100
AcDbEntity
  8
LC-001-002-----0
 62
     7
370
    35
100
AcDbLine
 10
502.001341
 20
1319.1
 30
0.0
 11
511.1906849999999
 21
1319.1
 31
0.0
  0
LINE
  5
1C8
330
19B
100
AcDbEntity
  8
LC-001-002-----0
 62
     7
370
    35
100
AcDbLine
 10
502.0145059999999
 20
1319.2
 30
0.0
 11
511.17752
 21
1319.2
 31
0.0
  0
LINE
  5
1C9
330
19B
100
AcDbEntity
  8
LC-001-002-----0
 62
     7
370
    35
100
AcDbLine
 10
502.027671
 20
1319.3
 30
0.0
 11
511.164354
 21
1319.3
 31
0.0
  0
LINE
  5
1CA
330
19B
100
AcDbEntity
  8
LC-001-002-----0
 62
     7
370
    35
100
AcDbLine
 10
502.040836
 20
1319.4
 30
0.0
 11
511.151189
 21
1319.4
 31
0.0
  0
LINE
  5
1CB
330
19B
100
AcDbEntity
  8
LC-001-002-----0
 62
     7
370
    35
100
AcDbLine
 10
502.0540019999999
 20
1319.5
 30
0.0
 11
511.138024
 21
1319.5
 31
0.0
  0
LINE
  5
1CC
330
19B
100
AcDbEntity
  8
LC-001-002-----0
 62
     7
370
    35
100
AcDbLine
 10
502.0671669999999
 20
1319.6
 30
0.0
 11
511.1248589999999
 21
1319.6
 31
0.0
  0
LINE
  5
1CD
330
19B
100
AcDbEntity
  8
LC-001-002-----0
 62
     7
370
    35
100
AcDbLine
 10
502.080332
 20
1319.7
 30
0.0
 11
511.1116929999999
 21
1319.7
 31
0.0
  0
LINE
  5
1CE
330
19B
100
AcDbEntity
  8
LC-001-002-----0
 62
     7
370
    35
100
AcDbLine
 10
502.0934969999999
 20
1319.8
 30
0.0
 11
511.098528
 21
1319.8
 31
0.0
  0
LINE
  5
1CF
330
19B
100
AcDbEntity
  8
LC-001-002-----0
 62
     7
370
    35
100
AcDbLine
 10
502.1066629999999
 20
1319.9
 30
0.0
 11
511.085363
 21
1319.9
 31
0.0
  0
LINE
  5
1D0
330
19B
100
AcDbEntity
  8
LC-001-002-----0
 62
     7
370
    35
100
AcDbLine
 10
502.119828
 20
1320.0
 30
0.0
 11
511.072198
 21
1320.0
 31
0.0
  0
LINE
  5
1D1
330
19B
100
AcDbEntity
  8
LC-001-002-----0
 62
     7
370
    35
100
AcDbLine
 10
502.1329929999999
 20
1320.1
 30
0.0
 11
511.059032
 21
1320.1
 31
0.0
  0
LINE
  5
1D2
330
19B
100
AcDbEntity
  8
LC-001-002-----0
 62
     7
370
    35
100
AcDbLine
 10
502.146158
 20
1320.2
 30
0.0
 11
511.0458669999999
 21
1320.2
 31
0.0
  0
LINE
  5
1D3
330
19B
100
AcDbEntity
  8
LC-001-002-----0
 62
     7
370
    35
100
AcDbLine
 10
502.159324
 20
1320.3
 30
0.0
 11
511.0327019999999
 21
1320.3
 31
0.0
  0
LINE
  5
1D4
330
19B
100
AcDbEntity
  8
LC-001-002-----0
 62
     7
370
    35
100
AcDbLine
 10
502.1724889999999
 20
1320.4
 30
0.0
 11
511.019537
 21
1320.4
 31
0.0
  0
LINE
  5
1D5
330
19B
100
AcDbEntity
  8
LC-001-002-----0
 62
     7
370
    35
100
AcDbLine
 10
502.1856539999999
 20
1320.5
 30
0.0
 11
511.006371
 21
1320.5
 31
0.0
  0
LINE
  5
1D6
330
19B
100
AcDbEntity
  8
LC-001-002-----0
 62
     7
370
    35
100
AcDbLine
 10
502.198819
 20
1320.6
 30
0.0
 11
510.993206
 21
1320.6
 31
0.0
  0
LINE
  5
1D7
330
19B
100
AcDbEntity
  8
LC-001-002-----0
 62
     7
370
    35
100
AcDbLine
 10
502.211985
 20
1320.7
 30
0.0
 11
510.980041
 21
1320.7
 31
0.0
  0
LINE
  5
1D8
330
19B
100
AcDbEntity
  8
LC-001-002-----0
 62
     7
370
    35
100
AcDbLine
 10
502.22515
 20
1320.8
 30
0.0
 11
510.9668759999999
 21
1320.8
 31
0.0
  0
LINE
  5
1D9
330
19B
100
AcDbEntity
  8
LC-001-002-----0
 62
     7
370
    35
100
AcDbLine
 10
502.238315
 20
1320.9
 30
0.0
 11
510.9537099999999
 21
1320.9
 31
0.0
  0
LINE
  5
1DA
330
19B
100
AcDbEntity
  8
LC-001-002-----0
 62
     7
370
    35
100
AcDbLine
 10
502.2514799999999
 20
1321.0
 30
0.0
 11
510.940545
 21
1321.0
 31
0.0
  0
LINE
  5
1DB
330
19B
100
AcDbEntity
  8
LC-001-002-----0
 62
     7
370
    35
100
AcDbLine
 10
502.2646459999999
 20
1321.1
 30
0.0
 11
510.9273799999999
 21
1321.1
 31
0.0
  0
LINE
  5
1DC
330
19B
100
AcDbEntity
  8
LC-001-002-----0
 62
     7
370
    35
100
AcDbLine
 10
502.277811
 20
1321.2
 30
0.0
 11
510.914215
 21
1321.2
 31
0.0
  0
LINE
  5
1DD
330
19B
100
AcDbEntity
  8
LC-001-002-----0
 62
     7
370
    35
100
AcDbLine
 10
502.290976
 20
1321.3
 30
0.0
 11
510.901049
 21
1321.3
 31
0.0
  0
LINE
  5
1DE
330
19B
100
AcDbEntity
  8
LC-001-002-----0
 62
     7
370
    35
100
AcDbLine
 10
502.304141
 20
1321.4
 30
0.0
 11
510.887884
 21
1321.4
 31
0.0
  0
LINE
  5
1DF
330
19B
100
AcDbEntity
  8
LC-001-002-----0
 62
     7
370
    35
100
AcDbLine
 10
502.317307
 20
1321.5
 30
0.0
 11
510.874719
 21
1321.5
 31
0.0
  0
LINE
  5
1E0
330
19B
100
AcDbEntity
  8
LC-001-002-----0
 62
     7
370
    35
100
AcDbLine
 10
502.3304719999999
 20
1321.6
 30
0.0
 11
510.861554
 21
1321.6
 31
0.0
  0
LINE
  5
1E1
330
19B
100
AcDbEntity
  8
LC-001-002-----0
 62
     7
370
    35
100
AcDbLine
 10
502.3436369999999
 20
1321.7
 30
0.0
 11
510.848388
 21
1321.7
 31
0.0
  0
LINE
  5
1E2
330
19B
100
AcDbEntity
  8
LC-001-002-----0
 62
     7
370
    35
100
AcDbLine
 10
502.3568019999999
 20
1321.8
 30
0.0
 11
510.835223
 21
1321.8
 31
0.0
  0
LINE
  5
1E3
330
19B
100
AcDbEntity
  8
LC-001-002-----0
 62
     7
370
    35
100
AcDbLine
 10
502.369968
 20
1321.9
 30
0.0
 11
510.822058
 21
1321.9
 31
0.0
  0
LINE
  5
1E4
330
19B
100
AcDbEntity
  8
LC-001-002-----0
 62
     7
370
    35
100
AcDbLine
 10
502.383133
 20
1322.0
 30
0.0
 11
510.808893
 21
1322.0
 31
0.0
  0
LINE
  5
1E5
330
19B
100
AcDbEntity
  8
LC-001-002-----0
 62
     7
370
    35
100
AcDbLine
 10
502.396298
 20
1322.1
 30
0.0
 11
510.7957269999999
 21
1322.1
 31
0.0
  0
LINE
  5
1E6
330
19B
100
AcDbEntity
  8
LC-001-002-----0
 62
     7
370
    35
100
AcDbLine
 10
502.409463
 20
1322.2
 30
0.0
 11
510.7825619999999
 21
1322.2
 31
0.0
  0
LINE
  5
1E7
330
19B
100
AcDbEntity
  8
LC-001-002-----0
 62
     7
370
    35
100
AcDbLine
 10
502.422629
 20
1322.3
 30
0.0
 11
510.7693969999999
 21
1322.3
 31
0.0
  0
LINE
  5
1E8
330
19B
100
AcDbEntity
  8
LC-001-002-----0
 62
     7
370
    35
100
AcDbLine
 10
502.435794
 20
1322.4
 30
0.0
 11
510.756232
 21
1322.4
 31
0.0
  0
LINE
  5
1E9
330
19B
100
AcDbEntity
  8
LC-001-002-----0
 62
     7
370
    35
100
AcDbLine
 10
502.4489589999999
 20
1322.5
 30
0.0
 11
510.743066
 21
1322.5
 31
0.0
  0
LINE
  5
1EA
330
19B
100
AcDbEntity
  8
LC-001-002-----0
 62
     7
370
    35
100
AcDbLine
 10
502.462124
 20
1322.6
 30
0.0
 11
510.729901
 21
1322.6
 31
0.0
  0
LINE
  5
1EB
330
19B
100
AcDbEntity
  8
LC-001-002-----0
 62
     7
370
    35
100
AcDbLine
 10
502.47529
 20
1322.7
 30
0.0
 11
510.716736
 21
1322.7
 31
0.0
  0
LINE
  5
1EC
330
19B
100
AcDbEntity
  8
LC-001-002-----0
 62
     7
370
    35
100
AcDbLine
 10
502.488455
 20
1322.8
 30
0.0
 11
510.7035709999999
 21
1322.8
 31
0.0
  0
LINE
  5
1ED
330
19B
100
AcDbEntity
  8
LC-001-002-----0
 62
     7
370
    35
100
AcDbLine
 10
502.50162
 20
1322.9
 30
0.0
 11
510.6904049999999
 21
1322.9
 31
0.0
  0
LINE
  5
1EE
330
19B
100
AcDbEntity
  8
LC-001-002-----0
 62
     7
370
    35
100
AcDbLine
 10
502.5147849999999
 20
1323.0
 30
0.0
 11
510.67724
 21
1323.0
 31
0.0
  0
LINE
  5
1EF
330
19B
100
AcDbEntity
  8
LC-001-002-----0
 62
     7
370
    35
100
AcDbLine
 10
502.5279509999999
 20
1323.1
 30
0.0
 11
510.664075
 21
1323.1
 31
0.0
  0
LINE
  5
1F0
330
19B
100
AcDbEntity
  8
LC-001-002-----0
 62
     7
370
    35
100
AcDbLine
 10
502.5411159999999
 20
1323.2
 30
0.0
 11
510.6509099999999
 21
1323.2
 31
0.0
  0
LINE
  5
1F1
330
19B
100
AcDbEntity
  8
LC-001-002-----0
 62
     7
370
    35
100
AcDbLine
 10
502.5542809999999
 20
1323.3
 30
0.0
 11
510.6377440000001
 21
1323.3
 31
0.0
  0
LINE
  5
1F2
330
19B
100
AcDbEntity
  8
LC-001-002-----0
 62
     7
370
    35
100
AcDbLine
 10
502.567446
 20
1323.4
 30
0.0
 11
510.624579
 21
1323.4
 31
0.0
  0
LINE
  5
1F3
330
19B
100
AcDbEntity
  8
LC-001-002-----0
 62
     7
370
    35
100
AcDbLine
 10
502.580612
 20
1323.5
 30
0.0
 11
510.6114139999999
 21
1323.5
 31
0.0
  0
LINE
  5
1F4
330
19B
100
AcDbEntity
  8
LC-001-002-----0
 62
     7
370
    35
100
AcDbLine
 10
502.5937769999999
 20
1323.6
 30
0.0
 11
510.598249
 21
1323.6
 31
0.0
  0
LINE
  5
1F5
330
19B
100
AcDbEntity
  8
LC-001-002-----0
 62
     7
370
    35
100
AcDbLine
 10
502.6069419999999
 20
1323.7
 30
0.0
 11
510.585083
 21
1323.7
 31
0.0
  0
LINE
  5
1F6
330
19B
100
AcDbEntity
  8
LC-001-002-----0
 62
     7
370
    35
100
AcDbLine
 10
502.6201069999999
 20
1323.8
 30
0.0
 11
510.571918
 21
1323.8
 31
0.0
  0
LINE
  5
1F7
330
19B
100
AcDbEntity
  8
LC-001-002-----0
 62
     7
370
    35
100
AcDbLine
 10
502.633273
 20
1323.9
 30
0.0
 11
510.558753
 21
1323.9
 31
0.0
  0
LINE
  5
1F8
330
19B
100
AcDbEntity
  8
LC-001-002-----0
 62
     7
370
    35
100
AcDbLine
 10
502.646438
 20
1324.0
 30
0.0
 11
510.545588
 21
1324.0
 31
0.0
  0
LINE
  5
1F9
330
19B
100
AcDbEntity
  8
LC-001-002-----0
 62
     7
370
    35
100
AcDbLine
 10
502.659603
 20
1324.1
 30
0.0
 11
510.5324219999999
 21
1324.1
 31
0.0
  0
LINE
  5
1FA
330
19B
100
AcDbEntity
  8
LC-001-002-----0
 62
     7
370
    35
100
AcDbLine
 10
502.6727679999999
 20
1324.2
 30
0.0
 11
510.519257
 21
1324.2
 31
0.0
  0
LINE
  5
1FB
330
19B
100
AcDbEntity
  8
LC-001-002-----0
 62
     7
370
    35
100
AcDbLine
 10
502.6859339999999
 20
1324.3
 30
0.0
 11
510.5060919999999
 21
1324.3
 31
0.0
  0
LINE
  5
1FC
330
19B
100
AcDbEntity
  8
LC-001-002-----0
 62
     7
370
    35
100
AcDbLine
 10
502.699099
 20
1324.4
 30
0.0
 11
510.4929269999999
 21
1324.4
 31
0.0
  0
LINE
  5
1FD
330
19B
100
AcDbEntity
  8
LC-001-002-----0
 62
     7
370
    35
100
AcDbLine
 10
502.7122639999999
 20
1324.5
 30
0.0
 11
510.479761
 21
1324.5
 31
0.0
  0
LINE
  5
1FE
330
19B
100
AcDbEntity
  8
LC-001-002-----0
 62
     7
370
    35
100
AcDbLine
 10
502.725429
 20
1324.6
 30
0.0
 11
510.466596
 21
1324.6
 31
0.0
  0
LINE
  5
1FF
330
19B
100
AcDbEntity
  8
LC-001-002-----0
 62
     7
370
    35
100
AcDbLine
 10
502.738595
 20
1324.7
 30
0.0
 11
510.453431
 21
1324.7
 31
0.0
  0
LINE
  5
200
330
19B
100
AcDbEntity
  8
LC-001-002-----0
 62
     7
370
    35
100
AcDbLine
 10
502.75176
 20
1324.8
 30
0.0
 11
510.4402659999999
 21
1324.8
 31
0.0
  0
LINE
  5
201
330
19B
100
AcDbEntity
  8
LC-001-002-----0
 62
     7
370
    35
100
AcDbLine
 10
502.764925
 20
1324.9
 30
0.0
 11
510.4270999999999
 21
1324.9
 31
0.0
  0
LINE
  5
202
330
19B
100
AcDbEntity
  8
LC-001-002-----0
 62
     7
370
    35
100
AcDbLine
 10
502.77809
 20
1325.0
 30
0.0
 11
510.4139349999999
 21
1325.0
 31
0.0
  0
LINE
  5
203
330
19B
100
AcDbEntity
  8
LC-001-002-----0
 62
     7
370
    35
100
AcDbLine
 10
502.7912559999999
 20
1325.1
 30
0.0
 11
510.40077
 21
1325.1
 31
0.0
  0
LINE
  5
204
330
19B
100
AcDbEntity
  8
LC-001-002-----0
 62
     7
370
    35
100
AcDbLine
 10
502.804421
 20
1325.2
 30
0.0
 11
510.387605
 21
1325.2
 31
0.0
  0
LINE
  5
205
330
19B
100
AcDbEntity
  8
LC-001-002-----0
 62
     7
370
    35
100
AcDbLine
 10
502.817586
 20
1325.3
 30
0.0
 11
510.3744389999999
 21
1325.3
 31
0.0
  0
LINE
  5
206
330
19B
100
AcDbEntity
  8
LC-001-002-----0
 62
     7
370
    35
100
AcDbLine
 10
502.8307509999999
 20
1325.4
 30
0.0
 11
510.361274
 21
1325.4
 31
0.0
  0
LINE
  5
207
330
19B
100
AcDbEntity
  8
LC-001-002-----0
 62
     7
370
    35
100
AcDbLine
 10
502.8439169999999
 20
1325.5
 30
0.0
 11
510.3481089999999
 21
1325.5
 31
0.0
  0
LINE
  5
208
330
19B
100
AcDbEntity
  8
LC-001-002-----0
 62
     7
370
    35
100
AcDbLine
 10
502.857082
 20
1325.6
 30
0.0
 11
510.334944
 21
1325.6
 31
0.0
  0
LINE
  5
209
330
19B
100
AcDbEntity
  8
LC-001-002-----0
 62
     7
370
    35
100
AcDbLine
 10
502.8702469999999
 20
1325.7
 30
0.0
 11
510.321778
 21
1325.7
 31
0.0
  0
LINE
  5
20A
330
19B
100
AcDbEntity
  8
LC-001-002-----0
 62
     7
370
    35
100
AcDbLine
 10
502.8834119999999
 20
1325.8
 30
0.0
 11
510.308613
 21
1325.8
 31
0.0
  0
LINE
  5
20B
330
19B
100
AcDbEntity
  8
LC-001-002-----0
 62
     7
370
    35
100
AcDbLine
 10
502.896578
 20
1325.9
 30
0.0
 11
510.295448
 21
1325.9
 31
0.0
  0
LINE
  5
20C
330
19B
100
AcDbEntity
  8
LC-001-002-----0
 62
     7
370
    35
100
AcDbLine
 10
502.909743
 20
1326.0
 30
0.0
 11
510.282283
 21
1326.0
 31
0.0
  0
LINE
  5
20D
330
19B
100
AcDbEntity
  8
LC-001-002-----0
 62
     7
370
    35
100
AcDbLine
 10
502.922908
 20
1326.1
 30
0.0
 11
510.2691169999999
 21
1326.1
 31
0.0
  0
LINE
  5
20E
330
19B
100
AcDbEntity
  8
LC-001-002-----0
 62
     7
370
    35
100
AcDbLine
 10
502.936073
 20
1326.2
 30
0.0
 11
510.2559519999999
 21
1326.2
 31
0.0
  0
LINE
  5
20F
330
19B
100
AcDbEntity
  8
LC-001-002-----0
 62
     7
370
    35
100
AcDbLine
 10
502.9492389999999
 20
1326.3
 30
0.0
 11
510.242787
 21
1326.3
 31
0.0
  0
LINE
  5
210
330
19B
100
AcDbEntity
  8
LC-001-002-----0
 62
     7
370
    35
100
AcDbLine
 10
502.9624039999999
 20
1326.4
 30
0.0
 11
510.2296219999999
 21
1326.4
 31
0.0
  0
LINE
  5
211
330
19B
100
AcDbEntity
  8
LC-001-002-----0
 62
     7
370
    35
100
AcDbLine
 10
502.975569
 20
1326.5
 30
0.0
 11
510.2164559999999
 21
1326.5
 31
0.0
  0
LINE
  5
212
330
19B
100
AcDbEntity
  8
LC-001-002-----0
 62
     7
370
    35
100
AcDbLine
 10
502.988734
 20
1326.6
 30
0.0
 11
510.203291
 21
1326.6
 31
0.0
  0
LINE
  5
213
330
19B
100
AcDbEntity
  8
LC-001-002-----0
 62
     7
370
    35
100
AcDbLine
 10
503.0019
 20
1326.7
 30
0.0
 11
510.1901259999999
 21
1326.7
 31
0.0
  0
LINE
  5
214
330
19B
100
AcDbEntity
  8
LC-001-002-----0
 62
     7
370
    35
100
AcDbLine
 10
503.015065
 20
1326.8
 30
0.0
 11
510.1769609999999
 21
1326.8
 31
0.0
  0
LINE
  5
215
330
19B
100
AcDbEntity
  8
LC-001-002-----0
 62
     7
370
    35
100
AcDbLine
 10
503.02823
 20
1326.9
 30
0.0
 11
510.1637949999999
 21
1326.9
 31
0.0
  0
LINE
  5
216
330
19B
100
AcDbEntity
  8
LC-001-002-----0
 62
     7
370
    35
100
AcDbLine
 10
503.041395
 20
1327.0
 30
0.0
 11
510.1506299999999
 21
1327.0
 31
0.0
  0
LINE
  5
217
330
19B
100
AcDbEntity
  8
LC-001-002-----0
 62
     7
370
    35
100
AcDbLine
 10
503.054561
 20
1327.1
 30
0.0
 11
510.137465
 21
1327.1
 31
0.0
  0
LINE
  5
218
330
19B
100
AcDbEntity
  8
LC-001-002-----0
 62
     7
370
    35
100
AcDbLine
 10
503.067726
 20
1327.2
 30
0.0
 11
510.1243
 21
1327.2
 31
0.0
  0
LINE
  5
219
330
19B
100
AcDbEntity
  8
LC-001-002-----0
 62
     7
370
    35
100
AcDbLine
 10
503.080891
 20
1327.3
 30
0.0
 11
510.111134
 21
1327.3
 31
0.0
  0
LINE
  5
21A
330
19B
100
AcDbEntity
  8
LC-001-002-----0
 62
     7
370
    35
100
AcDbLine
 10
503.0940559999999
 20
1327.4
 30
0.0
 11
510.097969
 21
1327.4
 31
0.0
  0
LINE
  5
21B
330
19B
100
AcDbEntity
  8
LC-001-002-----0
 62
     7
370
    35
100
AcDbLine
 10
503.1072219999999
 20
1327.5
 30
0.0
 11
510.084804
 21
1327.5
 31
0.0
  0
LINE
  5
21C
330
19B
100
AcDbEntity
  8
LC-001-002-----0
 62
     7
370
    35
100
AcDbLine
 10
503.1203869999999
 20
1327.6
 30
0.0
 11
510.0716389999999
 21
1327.6
 31
0.0
  0
LINE
  5
21D
330
19B
100
AcDbEntity
  8
LC-001-002-----0
 62
     7
370
    35
100
AcDbLine
 10
503.1335519999999
 20
1327.7
 30
0.0
 11
510.058473
 21
1327.7
 31
0.0
  0
LINE
  5
21E
330
19B
100
AcDbEntity
  8
LC-001-002-----0
 62
     7
370
    35
100
AcDbLine
 10
503.1467169999999
 20
1327.8
 30
0.0
 11
510.045308
 21
1327.8
 31
0.0
  0
LINE
  5
21F
330
19B
100
AcDbEntity
  8
LC-001-002-----0
 62
     7
370
    35
100
AcDbLine
 10
503.159883
 20
1327.9
 30
0.0
 11
510.032143
 21
1327.9
 31
0.0
  0
LINE
  5
220
330
19B
100
AcDbEntity
  8
LC-001-002-----0
 62
     7
370
    35
100
AcDbLine
 10
503.173048
 20
1328.0
 30
0.0
 11
510.018978
 21
1328.0
 31
0.0
  0
LINE
  5
221
330
19B
100
AcDbEntity
  8
LC-001-002-----0
 62
     7
370
    35
100
AcDbLine
 10
503.186213
 20
1328.1
 30
0.0
 11
510.0058119999999
 21
1328.1
 31
0.0
  0
LINE
  5
222
330
19B
100
AcDbEntity
  8
LC-001-002-----0
 62
     7
370
    35
100
AcDbLine
 10
503.199378
 20
1328.2
 30
0.0
 11
509.9926469999999
 21
1328.2
 31
0.0
  0
LINE
  5
223
330
19B
100
AcDbEntity
  8
LC-001-002-----0
 62
     7
370
    35
100
AcDbLine
 10
503.212544
 20
1328.3
 30
0.0
 11
509.979482
 21
1328.3
 31
0.0
  0
LINE
  5
224
330
19B
100
AcDbEntity
  8
LC-001-002-----0
 62
     7
370
    35
100
AcDbLine
 10
503.2257089999999
 20
1328.4
 30
0.0
 11
509.966317
 21
1328.4
 31
0.0
  0
LINE
  5
225
330
19B
100
AcDbEntity
  8
LC-001-002-----0
 62
     7
370
    35
100
AcDbLine
 10
503.238874
 20
1328.5
 30
0.0
 11
509.953151
 21
1328.5
 31
0.0
  0
LINE
  5
226
330
19B
100
AcDbEntity
  8
LC-001-002-----0
 62
     7
370
    35
100
AcDbLine
 10
503.252039
 20
1328.6
 30
0.0
 11
509.939986
 21
1328.6
 31
0.0
  0
LINE
  5
227
330
19B
100
AcDbEntity
  8
LC-001-002-----0
 62
     7
370
    35
100
AcDbLine
 10
503.265205
 20
1328.7
 30
0.0
 11
509.9268209999999
 21
1328.7
 31
0.0
  0
LINE
  5
228
330
19B
100
AcDbEntity
  8
LC-001-002-----0
 62
     7
370
    35
100
AcDbLine
 10
503.27837
 20
1328.8
 30
0.0
 11
509.9136559999999
 21
1328.8
 31
0.0
  0
LINE
  5
229
330
19B
100
AcDbEntity
  8
LC-001-002-----0
 62
     7
370
    35
100
AcDbLine
 10
503.2915349999999
 20
1328.9
 30
0.0
 11
509.90049
 21
1328.9
 31
0.0
  0
LINE
  5
22A
330
19B
100
AcDbEntity
  8
LC-001-002-----0
 62
     7
370
    35
100
AcDbLine
 10
503.3047
 20
1329.0
 30
0.0
 11
509.8873249999999
 21
1329.0
 31
0.0
  0
LINE
  5
22B
330
19B
100
AcDbEntity
  8
LC-001-002-----0
 62
     7
370
    35
100
AcDbLine
 10
503.317866
 20
1329.1
 30
0.0
 11
509.8741599999999
 21
1329.1
 31
0.0
  0
LINE
  5
22C
330
19B
100
AcDbEntity
  8
LC-001-002-----0
 62
     7
370
    35
100
AcDbLine
 10
503.3310309999999
 20
1329.2
 30
0.0
 11
509.860995
 21
1329.2
 31
0.0
  0
LINE
  5
22D
330
19B
100
AcDbEntity
  8
LC-001-002-----0
 62
     7
370
    35
100
AcDbLine
 10
503.344196
 20
1329.3
 30
0.0
 11
509.847829
 21
1329.3
 31
0.0
  0
LINE
  5
22E
330
19B
100
AcDbEntity
  8
LC-001-002-----0
 62
     7
370
    35
100
AcDbLine
 10
503.357361
 20
1329.4
 30
0.0
 11
509.8346639999999
 21
1329.4
 31
0.0
  0
LINE
  5
22F
330
19B
100
AcDbEntity
  8
LC-001-002-----0
 62
     7
370
    35
100
AcDbLine
 10
503.3705269999999
 20
1329.5
 30
0.0
 11
509.821499
 21
1329.5
 31
0.0
  0
LINE
  5
230
330
19B
100
AcDbEntity
  8
LC-001-002-----0
 62
     7
370
    35
100
AcDbLine
 10
503.3836919999999
 20
1329.6
 30
0.0
 11
509.808334
 21
1329.6
 31
0.0
  0
LINE
  5
231
330
19B
100
AcDbEntity
  8
LC-001-002-----0
 62
     7
370
    35
100
AcDbLine
 10
503.3968569999999
 20
1329.7
 30
0.0
 11
509.795168
 21
1329.7
 31
0.0
  0
LINE
  5
232
330
19B
100
AcDbEntity
  8
LC-001-002-----0
 62
     7
370
    35
100
AcDbLine
 10
503.410022
 20
1329.8
 30
0.0
 11
509.782003
 21
1329.8
 31
0.0
  0
LINE
  5
233
330
19B
100
AcDbEntity
  8
LC-001-002-----0
 62
     7
370
    35
100
AcDbLine
 10
503.423188
 20
1329.9
 30
0.0
 11
509.768838
 21
1329.9
 31
0.0
  0
LINE
  5
234
330
19B
100
AcDbEntity
  8
LC-001-002-----0
 62
     7
370
    35
100
AcDbLine
 10
503.436353
 20
1330.0
 30
0.0
 11
509.755673
 21
1330.0
 31
0.0
  0
LINE
  5
235
330
19B
100
AcDbEntity
  8
LC-001-002-----0
 62
     7
370
    35
100
AcDbLine
 10
503.4495179999999
 20
1330.1
 30
0.0
 11
509.742507
 21
1330.1
 31
0.0
  0
LINE
  5
236
330
19B
100
AcDbEntity
  8
LC-001-002-----0
 62
     7
370
    35
100
AcDbLine
 10
503.462683
 20
1330.2
 30
0.0
 11
509.7293419999999
 21
1330.2
 31
0.0
  0
LINE
  5
237
330
19B
100
AcDbEntity
  8
LC-001-002-----0
 62
     7
370
    35
100
AcDbLine
 10
503.475849
 20
1330.3
 30
0.0
 11
509.7161769999999
 21
1330.3
 31
0.0
  0
LINE
  5
238
330
19B
100
AcDbEntity
  8
LC-001-002-----0
 62
     7
370
    35
100
AcDbLine
 10
503.4890139999999
 20
1330.4
 30
0.0
 11
509.703012
 21
1330.4
 31
0.0
  0
LINE
  5
239
330
19B
100
AcDbEntity
  8
LC-001-002-----0
 62
     7
370
    35
100
AcDbLine
 10
503.502179
 20
1330.5
 30
0.0
 11
509.689846
 21
1330.5
 31
0.0
  0
LINE
  5
23A
330
19B
100
AcDbEntity
  8
LC-001-002-----0
 62
     7
370
    35
100
AcDbLine
 10
503.515344
 20
1330.6
 30
0.0
 11
509.676681
 21
1330.6
 31
0.0
  0
LINE
  5
23B
330
19B
100
AcDbEntity
  8
LC-001-002-----0
 62
     7
370
    35
100
AcDbLine
 10
503.52851
 20
1330.7
 30
0.0
 11
509.6635159999999
 21
1330.7
 31
0.0
  0
LINE
  5
23C
330
19B
100
AcDbEntity
  8
LC-001-002-----0
 62
     7
370
    35
100
AcDbLine
 10
503.541675
 20
1330.8
 30
0.0
 11
509.6503509999999
 21
1330.8
 31
0.0
  0
LINE
  5
23D
330
19B
100
AcDbEntity
  8
LC-001-002-----0
 62
     7
370
    35
100
AcDbLine
 10
503.55484
 20
1330.9
 30
0.0
 11
509.6371849999999
 21
1330.9
 31
0.0
  0
LINE
  5
23E
330
19B
100
AcDbEntity
  8
LC-001-002-----0
 62
     7
370
    35
100
AcDbLine
 10
503.5680049999999
 20
1331.0
 30
0.0
 11
509.62402
 21
1331.0
 31
0.0
  0
LINE
  5
23F
330
19B
100
AcDbEntity
  8
LC-001-002-----0
 62
     7
370
    35
100
AcDbLine
 10
503.5811709999999
 20
1331.1
 30
0.0
 11
509.6108549999999
 21
1331.1
 31
0.0
  0
LINE
  5
240
330
19B
100
AcDbEntity
  8
LC-001-002-----0
 62
     7
370
    35
100
AcDbLine
 10
503.594336
 20
1331.2
 30
0.0
 11
509.5976900000001
 21
1331.2
 31
0.0
  0
LINE
  5
241
330
19B
100
AcDbEntity
  8
LC-001-002-----0
 62
     7
370
    35
100
AcDbLine
 10
503.6075009999999
 20
1331.3
 30
0.0
 11
509.584524
 21
1331.3
 31
0.0
  0
LINE
  5
242
330
19B
100
AcDbEntity
  8
LC-001-002-----0
 62
     7
370
    35
100
AcDbLine
 10
503.620666
 20
1331.4
 30
0.0
 11
509.5713589999999
 21
1331.4
 31
0.0
  0
LINE
  5
243
330
19B
100
AcDbEntity
  8
LC-001-002-----0
 62
     7
370
    35
100
AcDbLine
 10
503.633832
 20
1331.5
 30
0.0
 11
509.558194
 21
1331.5
 31
0.0
  0
LINE
  5
244
330
19B
100
AcDbEntity
  8
LC-001-002-----0
 62
     7
370
    35
100
AcDbLine
 10
503.6469969999999
 20
1331.6
 30
0.0
 11
509.545029
 21
1331.6
 31
0.0
  0
LINE
  5
245
330
19B
100
AcDbEntity
  8
LC-001-002-----0
 62
     7
370
    35
100
AcDbLine
 10
503.6601619999999
 20
1331.7
 30
0.0
 11
509.531863
 21
1331.7
 31
0.0
  0
LINE
  5
246
330
19B
100
AcDbEntity
  8
LC-001-002-----0
 62
     7
370
    35
100
AcDbLine
 10
503.673327
 20
1331.8
 30
0.0
 11
509.518698
 21
1331.8
 31
0.0
  0
LINE
  5
247
330
19B
100
AcDbEntity
  8
LC-001-002-----0
 62
     7
370
    35
100
AcDbLine
 10
503.686493
 20
1331.9
 30
0.0
 11
509.505533
 21
1331.9
 31
0.0
  0
LINE
  5
248
330
19B
100
AcDbEntity
  8
LC-001-002-----0
 62
     7
370
    35
100
AcDbLine
 10
503.699658
 20
1332.0
 30
0.0
 11
509.4923679999999
 21
1332.0
 31
0.0
  0
LINE
  5
249
330
19B
100
AcDbEntity
  8
LC-001-002-----0
 62
     7
370
    35
100
AcDbLine
 10
503.712823
 20
1332.1
 30
0.0
 11
509.4792019999998
 21
1332.1
 31
0.0
  0
LINE
  5
24A
330
19B
100
AcDbEntity
  8
LC-001-002-----0
 62
     7
370
    35
100
AcDbLine
 10
503.7259879999999
 20
1332.2
 30
0.0
 11
509.466037
 21
1332.2
 31
0.0
  0
LINE
  5
24B
330
19B
100
AcDbEntity
  8
LC-001-002-----0
 62
     7
370
    35
100
AcDbLine
 10
503.7391539999999
 20
1332.3
 30
0.0
 11
509.4528719999999
 21
1332.3
 31
0.0
  0
LINE
  5
24C
330
19B
100
AcDbEntity
  8
LC-001-002-----0
 62
     7
370
    35
100
AcDbLine
 10
503.752319
 20
1332.4
 30
0.0
 11
509.439707
 21
1332.4
 31
0.0
  0
LINE
  5
24D
330
19B
100
AcDbEntity
  8
LC-001-002-----0
 62
     7
370
    35
100
AcDbLine
 10
503.765484
 20
1332.5
 30
0.0
 11
509.426541
 21
1332.5
 31
0.0
  0
LINE
  5
24E
330
19B
100
AcDbEntity
  8
LC-001-002-----0
 62
     7
370
    35
100
AcDbLine
 10
503.778649
 20
1332.6
 30
0.0
 11
509.413376
 21
1332.6
 31
0.0
  0
LINE
  5
24F
330
19B
100
AcDbEntity
  8
LC-001-002-----0
 62
     7
370
    35
100
AcDbLine
 10
503.791815
 20
1332.7
 30
0.0
 11
509.4002109999999
 21
1332.7
 31
0.0
  0
LINE
  5
250
330
19B
100
AcDbEntity
  8
LC-001-002-----0
 62
     7
370
    35
100
AcDbLine
 10
503.80498
 20
1332.8
 30
0.0
 11
509.3870459999999
 21
1332.8
 31
0.0
  0
LINE
  5
251
330
19B
100
AcDbEntity
  8
LC-001-002-----0
 62
     7
370
    35
100
AcDbLine
 10
503.818145
 20
1332.9
 30
0.0
 11
509.3738799999999
 21
1332.9
 31
0.0
  0
LINE
  5
252
330
19B
100
AcDbEntity
  8
LC-001-002-----0
 62
     7
370
    35
100
AcDbLine
 10
503.8313099999999
 20
1333.0
 30
0.0
 11
509.360715
 21
1333.0
 31
0.0
  0
LINE
  5
253
330
19B
100
AcDbEntity
  8
LC-001-002-----0
 62
     7
370
    35
100
AcDbLine
 10
503.8444759999999
 20
1333.1
 30
0.0
 11
509.34755
 21
1333.1
 31
0.0
  0
LINE
  5
254
330
19B
100
AcDbEntity
  8
LC-001-002-----0
 62
     7
370
    35
100
AcDbLine
 10
503.857641
 20
1333.2
 30
0.0
 11
509.3343849999999
 21
1333.2
 31
0.0
  0
LINE
  5
255
330
19B
100
AcDbEntity
  8
LC-001-002-----0
 62
     7
370
    35
100
AcDbLine
 10
503.8708059999999
 20
1333.3
 30
0.0
 11
509.321219
 21
1333.3
 31
0.0
  0
LINE
  5
256
330
19B
100
AcDbEntity
  8
LC-001-002-----0
 62
     7
370
    35
100
AcDbLine
 10
503.8839709999999
 20
1333.4
 30
0.0
 11
509.308054
 21
1333.4
 31
0.0
  0
LINE
  5
257
330
19B
100
AcDbEntity
  8
LC-001-002-----0
 62
     7
370
    35
100
AcDbLine
 10
503.8971369999999
 20
1333.5
 30
0.0
 11
509.2948889999999
 21
1333.5
 31
0.0
  0
LINE
  5
258
330
19B
100
AcDbEntity
  8
LC-001-002-----0
 62
     7
370
    35
100
AcDbLine
 10
503.9103019999999
 20
1333.6
 30
0.0
 11
509.281724
 21
1333.6
 31
0.0
  0
LINE
  5
259
330
19B
100
AcDbEntity
  8
LC-001-002-----0
 62
     7
370
    35
100
AcDbLine
 10
503.9234669999999
 20
1333.7
 30
0.0
 11
509.268558
 21
1333.7
 31
0.0
  0
LINE
  5
25A
330
19B
100
AcDbEntity
  8
LC-001-002-----0
 62
     7
370
    35
100
AcDbLine
 10
503.936632
 20
1333.8
 30
0.0
 11
509.255393
 21
1333.8
 31
0.0
  0
LINE
  5
25B
330
19B
100
AcDbEntity
  8
LC-001-002-----0
 62
     7
370
    35
100
AcDbLine
 10
503.949798
 20
1333.9
 30
0.0
 11
509.242228
 21
1333.9
 31
0.0
  0
LINE
  5
25C
330
19B
100
AcDbEntity
  8
LC-001-002-----0
 62
     7
370
    35
100
AcDbLine
 10
503.962963
 20
1334.0
 30
0.0
 11
509.2290629999999
 21
1334.0
 31
0.0
  0
LINE
  5
25D
330
19B
100
AcDbEntity
  8
LC-001-002-----0
 62
     7
370
    35
100
AcDbLine
 10
503.976128
 20
1334.1
 30
0.0
 11
509.2158969999999
 21
1334.1
 31
0.0
  0
LINE
  5
25E
330
19B
100
AcDbEntity
  8
LC-001-002-----0
 62
     7
370
    35
100
AcDbLine
 10
503.9892929999999
 20
1334.2
 30
0.0
 11
509.202732
 21
1334.2
 31
0.0
  0
LINE
  5
25F
330
19B
100
AcDbEntity
  8
LC-001-002-----0
 62
     7
370
    35
100
AcDbLine
 10
504.0024589999999
 20
1334.3
 30
0.0
 11
509.189567
 21
1334.3
 31
0.0
  0
LINE
  5
260
330
19B
100
AcDbEntity
  8
LC-001-002-----0
 62
     7
370
    35
100
AcDbLine
 10
504.0156239999999
 20
1334.4
 30
0.0
 11
509.1764019999999
 21
1334.4
 31
0.0
  0
LINE
  5
261
330
19B
100
AcDbEntity
  8
LC-001-002-----0
 62
     7
370
    35
100
AcDbLine
 10
504.028789
 20
1334.5
 30
0.0
 11
509.163236
 21
1334.5
 31
0.0
  0
LINE
  5
262
330
19B
100
AcDbEntity
  8
LC-001-002-----0
 62
     7
370
    35
100
AcDbLine
 10
504.041954
 20
1334.6
 30
0.0
 11
509.150071
 21
1334.6
 31
0.0
  0
LINE
  5
263
330
19B
100
AcDbEntity
  8
LC-001-002-----0
 62
     7
370
    35
100
AcDbLine
 10
504.05512
 20
1334.7
 30
0.0
 11
509.1369059999999
 21
1334.7
 31
0.0
  0
LINE
  5
264
330
19B
100
AcDbEntity
  8
LC-001-002-----0
 62
     7
370
    35
100
AcDbLine
 10
504.0682849999999
 20
1334.8
 30
0.0
 11
509.1237409999999
 21
1334.8
 31
0.0
  0
LINE
  5
265
330
19B
100
AcDbEntity
  8
LC-001-002-----0
 62
     7
370
    35
100
AcDbLine
 10
504.08145
 20
1334.9
 30
0.0
 11
509.1105749999999
 21
1334.9
 31
0.0
  0
LINE
  5
266
330
19B
100
AcDbEntity
  8
LC-001-002-----0
 62
     7
370
    35
100
AcDbLine
 10
504.094615
 20
1335.0
 30
0.0
 11
509.0974099999999
 21
1335.0
 31
0.0
  0
LINE
  5
267
330
19B
100
AcDbEntity
  8
LC-001-002-----0
 62
     7
370
    35
100
AcDbLine
 10
504.1077809999999
 20
1335.1
 30
0.0
 11
509.084245
 21
1335.1
 31
0.0
  0
LINE
  5
268
330
19B
100
AcDbEntity
  8
LC-001-002-----0
 62
     7
370
    35
100
AcDbLine
 10
504.120946
 20
1335.2
 30
0.0
 11
509.07108
 21
1335.2
 31
0.0
  0
LINE
  5
269
330
19B
100
AcDbEntity
  8
LC-001-002-----0
 62
     7
370
    35
100
AcDbLine
 10
504.134111
 20
1335.3
 30
0.0
 11
509.057914
 21
1335.3
 31
0.0
  0
LINE
  5
26A
330
19B
100
AcDbEntity
  8
LC-001-002-----0
 62
     7
370
    35
100
AcDbLine
 10
504.1472759999999
 20
1335.4
 30
0.0
 11
509.044749
 21
1335.4
 31
0.0
  0
LINE
  5
26B
330
19B
100
AcDbEntity
  8
LC-001-002-----0
 62
     7
370
    35
100
AcDbLine
 10
504.1604419999999
 20
1335.5
 30
0.0
 11
509.031584
 21
1335.5
 31
0.0
  0
LINE
  5
26C
330
19B
100
AcDbEntity
  8
LC-001-002-----0
 62
     7
370
    35
100
AcDbLine
 10
504.1736069999999
 20
1335.6
 30
0.0
 11
509.018419
 21
1335.6
 31
0.0
  0
LINE
  5
26D
330
19B
100
AcDbEntity
  8
LC-001-002-----0
 62
     7
370
    35
100
AcDbLine
 10
504.1867719999999
 20
1335.7
 30
0.0
 11
509.005253
 21
1335.7
 31
0.0
  0
LINE
  5
26E
330
19B
100
AcDbEntity
  8
LC-001-002-----0
 62
     7
370
    35
100
AcDbLine
 10
504.199937
 20
1335.8
 30
0.0
 11
508.992088
 21
1335.8
 31
0.0
  0
LINE
  5
26F
330
19B
100
AcDbEntity
  8
LC-001-002-----0
 62
     7
370
    35
100
AcDbLine
 10
504.213103
 20
1335.9
 30
0.0
 11
508.978923
 21
1335.9
 31
0.0
  0
LINE
  5
270
330
19B
100
AcDbEntity
  8
LC-001-002-----0
 62
     7
370
    35
100
AcDbLine
 10
504.2262679999999
 20
1336.0
 30
0.0
 11
508.9657579999999
 21
1336.0
 31
0.0
  0
LINE
  5
271
330
19B
100
AcDbEntity
  8
LC-001-002-----0
 62
     7
370
    35
100
AcDbLine
 10
504.239433
 20
1336.1
 30
0.0
 11
508.9525919999999
 21
1336.1
 31
0.0
  0
LINE
  5
272
330
19B
100
AcDbEntity
  8
LC-001-002-----0
 62
     7
370
    35
100
AcDbLine
 10
504.252598
 20
1336.2
 30
0.0
 11
508.9394269999999
 21
1336.2
 31
0.0
  0
LINE
  5
273
330
19B
100
AcDbEntity
  8
LC-001-002-----0
 62
     7
370
    35
100
AcDbLine
 10
504.2657639999999
 20
1336.3
 30
0.0
 11
508.926262
 21
1336.3
 31
0.0
  0
LINE
  5
274
330
19B
100
AcDbEntity
  8
LC-001-002-----0
 62
     7
370
    35
100
AcDbLine
 10
504.2789289999999
 20
1336.4
 30
0.0
 11
508.913097
 21
1336.4
 31
0.0
  0
LINE
  5
275
330
19B
100
AcDbEntity
  8
LC-001-002-----0
 62
     7
370
    35
100
AcDbLine
 10
504.292094
 20
1336.5
 30
0.0
 11
508.899931
 21
1336.5
 31
0.0
  0
LINE
  5
276
330
19B
100
AcDbEntity
  8
LC-001-002-----0
 62
     7
370
    35
100
AcDbLine
 10
504.305259
 20
1336.6
 30
0.0
 11
508.886766
 21
1336.6
 31
0.0
  0
LINE
  5
277
330
19B
100
AcDbEntity
  8
LC-001-002-----0
 62
     7
370
    35
100
AcDbLine
 10
504.318425
 20
1336.7
 30
0.0
 11
508.8736009999999
 21
1336.7
 31
0.0
  0
LINE
  5
278
330
19B
100
AcDbEntity
  8
LC-001-002-----0
 62
     7
370
    35
100
AcDbLine
 10
504.33159
 20
1336.8
 30
0.0
 11
508.860436
 21
1336.8
 31
0.0
  0
LINE
  5
279
330
19B
100
AcDbEntity
  8
LC-001-002-----0
 62
     7
370
    35
100
AcDbLine
 10
504.3447549999999
 20
1336.9
 30
0.0
 11
508.8472709999999
 21
1336.9
 31
0.0
  0
LINE
  5
27A
330
19B
100
AcDbEntity
  8
LC-001-002-----0
 62
     7
370
    35
100
AcDbLine
 10
504.35792
 20
1337.0
 30
0.0
 11
508.8341049999999
 21
1337.0
 31
0.0
  0
LINE
  5
27B
330
19B
100
AcDbEntity
  8
LC-001-002-----0
 62
     7
370
    35
100
AcDbLine
 10
504.371086
 20
1337.1
 30
0.0
 11
508.8209400000001
 21
1337.1
 31
0.0
  0
LINE
  5
27C
330
19B
100
AcDbEntity
  8
LC-001-002-----0
 62
     7
370
    35
100
AcDbLine
 10
504.3842509999999
 20
1337.2
 30
0.0
 11
508.807775
 21
1337.2
 31
0.0
  0
LINE
  5
27D
330
19B
100
AcDbEntity
  8
LC-001-002-----0
 62
     7
370
    35
100
AcDbLine
 10
504.397416
 20
1337.3
 30
0.0
 11
508.7946099999999
 21
1337.3
 31
0.0
  0
LINE
  5
27E
330
19B
100
AcDbEntity
  8
LC-001-002-----0
 62
     7
370
    35
100
AcDbLine
 10
504.4105809999999
 20
1337.4
 30
0.0
 11
508.781444
 21
1337.4
 31
0.0
  0
LINE
  5
27F
330
19B
100
AcDbEntity
  8
LC-001-002-----0
 62
     7
370
    35
100
AcDbLine
 10
504.4237469999999
 20
1337.5
 30
0.0
 11
508.768279
 21
1337.5
 31
0.0
  0
LINE
  5
280
330
19B
100
AcDbEntity
  8
LC-001-002-----0
 62
     7
370
    35
100
AcDbLine
 10
504.4369119999999
 20
1337.6
 30
0.0
 11
508.755114
 21
1337.6
 31
0.0
  0
LINE
  5
281
330
19B
100
AcDbEntity
  8
LC-001-002-----0
 62
     7
370
    35
100
AcDbLine
 10
504.4500769999999
 20
1337.7
 30
0.0
 11
508.741949
 21
1337.7
 31
0.0
  0
LINE
  5
282
330
19B
100
AcDbEntity
  8
LC-001-002-----0
 62
     7
370
    35
100
AcDbLine
 10
504.463242
 20
1337.8
 30
0.0
 11
508.728783
 21
1337.8
 31
0.0
  0
LINE
  5
283
330
19B
100
AcDbEntity
  8
LC-001-002-----0
 62
     7
370
    35
100
AcDbLine
 10
504.476408
 20
1337.9
 30
0.0
 11
508.715618
 21
1337.9
 31
0.0
  0
LINE
  5
284
330
19B
100
AcDbEntity
  8
LC-001-002-----0
 62
     7
370
    35
100
AcDbLine
 10
504.489573
 20
1338.0
 30
0.0
 11
508.702453
 21
1338.0
 31
0.0
  0
LINE
  5
285
330
19B
100
AcDbEntity
  8
LC-001-002-----0
 62
     7
370
    35
100
AcDbLine
 10
504.5027379999999
 20
1338.1
 30
0.0
 11
508.6892879999999
 21
1338.1
 31
0.0
  0
LINE
  5
286
330
19B
100
AcDbEntity
  8
LC-001-002-----0
 62
     7
370
    35
100
AcDbLine
 10
504.515903
 20
1338.2
 30
0.0
 11
508.6761219999999
 21
1338.2
 31
0.0
  0
LINE
  5
287
330
19B
100
AcDbEntity
  8
LC-001-002-----0
 62
     7
370
    35
100
AcDbLine
 10
504.529069
 20
1338.3
 30
0.0
 11
508.662957
 21
1338.3
 31
0.0
  0
LINE
  5
288
330
19B
100
AcDbEntity
  8
LC-001-002-----0
 62
     7
370
    35
100
AcDbLine
 10
504.542234
 20
1338.4
 30
0.0
 11
508.649792
 21
1338.4
 31
0.0
  0
LINE
  5
289
330
19B
100
AcDbEntity
  8
LC-001-002-----0
 62
     7
370
    35
100
AcDbLine
 10
504.555399
 20
1338.5
 30
0.0
 11
508.636627
 21
1338.5
 31
0.0
  0
LINE
  5
28A
330
19B
100
AcDbEntity
  8
LC-001-002-----0
 62
     7
370
    35
100
AcDbLine
 10
504.568564
 20
1338.6
 30
0.0
 11
508.6234609999999
 21
1338.6
 31
0.0
  0
LINE
  5
28B
330
19B
100
AcDbEntity
  8
LC-001-002-----0
 62
     7
370
    35
100
AcDbLine
 10
504.58173
 20
1338.7
 30
0.0
 11
508.6102959999999
 21
1338.7
 31
0.0
  0
LINE
  5
28C
330
19B
100
AcDbEntity
  8
LC-001-002-----0
 62
     7
370
    35
100
AcDbLine
 10
504.594895
 20
1338.8
 30
0.0
 11
508.5971309999999
 21
1338.8
 31
0.0
  0
LINE
  5
28D
330
19B
100
AcDbEntity
  8
LC-001-002-----0
 62
     7
370
    35
100
AcDbLine
 10
504.6080599999999
 20
1338.9
 30
0.0
 11
508.583966
 21
1338.9
 31
0.0
  0
LINE
  5
28E
330
19B
100
AcDbEntity
  8
LC-001-002-----0
 62
     7
370
    35
100
AcDbLine
 10
504.6212249999999
 20
1339.0
 30
0.0
 11
508.5708
 21
1339.0
 31
0.0
  0
LINE
  5
28F
330
19B
100
AcDbEntity
  8
LC-001-002-----0
 62
     7
370
    35
100
AcDbLine
 10
504.634391
 20
1339.1
 30
0.0
 11
508.5576349999999
 21
1339.1
 31
0.0
  0
LINE
  5
290
330
19B
100
AcDbEntity
  8
LC-001-002-----0
 62
     7
370
    35
100
AcDbLine
 10
504.6475559999999
 20
1339.2
 30
0.0
 11
508.54447
 21
1339.2
 31
0.0
  0
LINE
  5
291
330
19B
100
AcDbEntity
  8
LC-001-002-----0
 62
     7
370
    35
100
AcDbLine
 10
504.660721
 20
1339.3
 30
0.0
 11
508.5313049999999
 21
1339.3
 31
0.0
  0
LINE
  5
292
330
19B
100
AcDbEntity
  8
LC-001-002-----0
 62
     7
370
    35
100
AcDbLine
 10
504.673886
 20
1339.4
 30
0.0
 11
508.5181389999999
 21
1339.4
 31
0.0
  0
LINE
  5
293
330
19B
100
AcDbEntity
  8
LC-001-002-----0
 62
     7
370
    35
100
AcDbLine
 10
504.6870519999999
 20
1339.5
 30
0.0
 11
508.504974
 21
1339.5
 31
0.0
  0
LINE
  5
294
330
19B
100
AcDbEntity
  8
LC-001-002-----0
 62
     7
370
    35
100
AcDbLine
 10
504.7002169999999
 20
1339.6
 30
0.0
 11
508.491809
 21
1339.6
 31
0.0
  0
LINE
  5
295
330
19B
100
AcDbEntity
  8
LC-001-002-----0
 62
     7
370
    35
100
AcDbLine
 10
504.7133819999999
 20
1339.7
 30
0.0
 11
508.478644
 21
1339.7
 31
0.0
  0
LINE
  5
296
330
19B
100
AcDbEntity
  8
LC-001-002-----0
 62
     7
370
    35
100
AcDbLine
 10
504.726547
 20
1339.8
 30
0.0
 11
508.465478
 21
1339.8
 31
0.0
  0
LINE
  5
297
330
19B
100
AcDbEntity
  8
LC-001-002-----0
 62
     7
370
    35
100
AcDbLine
 10
504.739713
 20
1339.9
 30
0.0
 11
508.452313
 21
1339.9
 31
0.0
  0
LINE
  5
298
330
19B
100
AcDbEntity
  8
LC-001-002-----0
 62
     7
370
    35
100
AcDbLine
 10
504.752878
 20
1340.0
 30
0.0
 11
508.439148
 21
1340.0
 31
0.0
  0
LINE
  5
299
330
19B
100
AcDbEntity
  8
LC-001-002-----0
 62
     7
370
    35
100
AcDbLine
 10
504.7660429999999
 20
1340.1
 30
0.0
 11
508.425983
 21
1340.1
 31
0.0
  0
LINE
  5
29A
330
19B
100
AcDbEntity
  8
LC-001-002-----0
 62
     7
370
    35
100
AcDbLine
 10
504.7792079999999
 20
1340.2
 30
0.0
 11
508.412817
 21
1340.2
 31
0.0
  0
LINE
  5
29B
330
19B
100
AcDbEntity
  8
LC-001-002-----0
 62
     7
370
    35
100
AcDbLine
 10
504.7923739999999
 20
1340.3
 30
0.0
 11
508.3996519999999
 21
1340.3
 31
0.0
  0
LINE
  5
29C
330
19B
100
AcDbEntity
  8
LC-001-002-----0
 62
     7
370
    35
100
AcDbLine
 10
504.805539
 20
1340.4
 30
0.0
 11
508.386487
 21
1340.4
 31
0.0
  0
LINE
  5
29D
330
19B
100
AcDbEntity
  8
LC-001-002-----0
 62
     7
370
    35
100
AcDbLine
 10
504.818704
 20
1340.5
 30
0.0
 11
508.373322
 21
1340.5
 31
0.0
  0
LINE
  5
29E
330
19B
100
AcDbEntity
  8
LC-001-002-----0
 62
     7
370
    35
100
AcDbLine
 10
504.831869
 20
1340.6
 30
0.0
 11
508.3601559999999
 21
1340.6
 31
0.0
  0
LINE
  5
29F
330
19B
100
AcDbEntity
  8
LC-001-002-----0
 62
     7
370
    35
100
AcDbLine
 10
504.8450349999999
 20
1340.7
 30
0.0
 11
508.3469909999999
 21
1340.7
 31
0.0
  0
LINE
  5
2A0
330
19B
100
AcDbEntity
  8
LC-001-002-----0
 62
     7
370
    35
100
AcDbLine
 10
504.8582
 20
1340.8
 30
0.0
 11
508.3338259999999
 21
1340.8
 31
0.0
  0
LINE
  5
2A1
330
19B
100
AcDbEntity
  8
LC-001-002-----0
 62
     7
370
    35
100
AcDbLine
 10
504.871365
 20
1340.9
 30
0.0
 11
508.320661
 21
1340.9
 31
0.0
  0
LINE
  5
2A2
330
19B
100
AcDbEntity
  8
LC-001-002-----0
 62
     7
370
    35
100
AcDbLine
 10
504.8845299999999
 20
1341.0
 30
0.0
 11
508.307495
 21
1341.0
 31
0.0
  0
LINE
  5
2A3
330
19B
100
AcDbEntity
  8
LC-001-002-----0
 62
     7
370
    35
100
AcDbLine
 10
504.897696
 20
1341.1
 30
0.0
 11
508.29433
 21
1341.1
 31
0.0
  0
LINE
  5
2A4
330
19B
100
AcDbEntity
  8
LC-001-002-----0
 62
     7
370
    35
100
AcDbLine
 10
504.910861
 20
1341.2
 30
0.0
 11
508.281165
 21
1341.2
 31
0.0
  0
LINE
  5
2A5
330
19B
100
AcDbEntity
  8
LC-001-002-----0
 62
     7
370
    35
100
AcDbLine
 10
504.9240259999999
 20
1341.3
 30
0.0
 11
508.268
 21
1341.3
 31
0.0
  0
LINE
  5
2A6
330
19B
100
AcDbEntity
  8
LC-001-002-----0
 62
     7
370
    35
100
AcDbLine
 10
504.937191
 20
1341.4
 30
0.0
 11
508.2548339999999
 21
1341.4
 31
0.0
  0
LINE
  5
2A7
330
19B
100
AcDbEntity
  8
LC-001-002-----0
 62
     7
370
    35
100
AcDbLine
 10
504.950357
 20
1341.5
 30
0.0
 11
508.241669
 21
1341.5
 31
0.0
  0
LINE
  5
2A8
330
19B
100
AcDbEntity
  8
LC-001-002-----0
 62
     7
370
    35
100
AcDbLine
 10
504.9635219999999
 20
1341.6
 30
0.0
 11
508.228504
 21
1341.6
 31
0.0
  0
LINE
  5
2A9
330
19B
100
AcDbEntity
  8
LC-001-002-----0
 62
     7
370
    35
100
AcDbLine
 10
504.976687
 20
1341.7
 30
0.0
 11
508.215339
 21
1341.7
 31
0.0
  0
LINE
  5
2AA
330
19B
100
AcDbEntity
  8
LC-001-002-----0
 62
     7
370
    35
100
AcDbLine
 10
504.9898519999999
 20
1341.8
 30
0.0
 11
508.2021730000001
 21
1341.8
 31
0.0
  0
LINE
  5
2AB
330
19B
100
AcDbEntity
  8
LC-001-002-----0
 62
     7
370
    35
100
AcDbLine
 10
505.003018
 20
1341.9
 30
0.0
 11
508.1890079999999
 21
1341.9
 31
0.0
  0
LINE
  5
2AC
330
19B
100
AcDbEntity
  8
LC-001-002-----0
 62
     7
370
    35
100
AcDbLine
 10
505.016183
 20
1342.0
 30
0.0
 11
508.1758429999999
 21
1342.0
 31
0.0
  0
LINE
  5
2AD
330
19B
100
AcDbEntity
  8
LC-001-002-----0
 62
     7
370
    35
100
AcDbLine
 10
505.029348
 20
1342.1
 30
0.0
 11
508.162678
 21
1342.1
 31
0.0
  0
LINE
  5
2AE
330
19B
100
AcDbEntity
  8
LC-001-002-----0
 62
     7
370
    35
100
AcDbLine
 10
505.0425129999999
 20
1342.2
 30
0.0
 11
508.149512
 21
1342.2
 31
0.0
  0
LINE
  5
2AF
330
19B
100
AcDbEntity
  8
LC-001-002-----0
 62
     7
370
    35
100
AcDbLine
 10
505.0556789999999
 20
1342.3
 30
0.0
 11
508.136347
 21
1342.3
 31
0.0
  0
LINE
  5
2B0
330
19B
100
AcDbEntity
  8
LC-001-002-----0
 62
     7
370
    35
100
AcDbLine
 10
505.068844
 20
1342.4
 30
0.0
 11
508.123182
 21
1342.4
 31
0.0
  0
LINE
  5
2B1
330
19B
100
AcDbEntity
  8
LC-001-002-----0
 62
     7
370
    35
100
AcDbLine
 10
505.082009
 20
1342.5
 30
0.0
 11
508.110017
 21
1342.5
 31
0.0
  0
LINE
  5
2B2
330
19B
100
AcDbEntity
  8
LC-001-002-----0
 62
     7
370
    35
100
AcDbLine
 10
505.095174
 20
1342.6
 30
0.0
 11
508.0968509999999
 21
1342.6
 31
0.0
  0
LINE
  5
2B3
330
19B
100
AcDbEntity
  8
LC-001-002-----0
 62
     7
370
    35
100
AcDbLine
 10
505.10834
 20
1342.7
 30
0.0
 11
508.083686
 21
1342.7
 31
0.0
  0
LINE
  5
2B4
330
19B
100
AcDbEntity
  8
LC-001-002-----0
 62
     7
370
    35
100
AcDbLine
 10
505.1215049999999
 20
1342.8
 30
0.0
 11
508.0705209999999
 21
1342.8
 31
0.0
  0
LINE
  5
2B5
330
19B
100
AcDbEntity
  8
LC-001-002-----0
 62
     7
370
    35
100
AcDbLine
 10
505.13467
 20
1342.9
 30
0.0
 11
508.0573559999999
 21
1342.9
 31
0.0
  0
LINE
  5
2B6
330
19B
100
AcDbEntity
  8
LC-001-002-----0
 62
     7
370
    35
100
AcDbLine
 10
505.147835
 20
1343.0
 30
0.0
 11
508.04419
 21
1343.0
 31
0.0
  0
LINE
  5
2B7
330
19B
100
AcDbEntity
  8
LC-001-002-----0
 62
     7
370
    35
100
AcDbLine
 10
505.161001
 20
1343.1
 30
0.0
 11
508.031025
 21
1343.1
 31
0.0
  0
LINE
  5
2B8
330
19B
100
AcDbEntity
  8
LC-001-002-----0
 62
     7
370
    35
100
AcDbLine
 10
505.174166
 20
1343.2
 30
0.0
 11
508.0178599999999
 21
1343.2
 31
0.0
  0
LINE
  5
2B9
330
19B
100
AcDbEntity
  8
LC-001-002-----0
 62
     7
370
    35
100
AcDbLine
 10
505.1873309999999
 20
1343.3
 30
0.0
 11
508.004695
 21
1343.3
 31
0.0
  0
LINE
  5
2BA
330
19B
100
AcDbEntity
  8
LC-001-002-----0
 62
     7
370
    35
100
AcDbLine
 10
505.2004959999999
 20
1343.4
 30
0.0
 11
507.991529
 21
1343.4
 31
0.0
  0
LINE
  5
2BB
330
19B
100
AcDbEntity
  8
LC-001-002-----0
 62
     7
370
    35
100
AcDbLine
 10
505.2136619999999
 20
1343.5
 30
0.0
 11
507.9783639999999
 21
1343.5
 31
0.0
  0
LINE
  5
2BC
330
19B
100
AcDbEntity
  8
LC-001-002-----0
 62
     7
370
    35
100
AcDbLine
 10
505.2268269999999
 20
1343.6
 30
0.0
 11
507.965199
 21
1343.6
 31
0.0
  0
LINE
  5
2BD
330
19B
100
AcDbEntity
  8
LC-001-002-----0
 62
     7
370
    35
100
AcDbLine
 10
505.239992
 20
1343.7
 30
0.0
 11
507.952034
 21
1343.7
 31
0.0
  0
LINE
  5
2BE
330
19B
100
AcDbEntity
  8
LC-001-002-----0
 62
     7
370
    35
100
AcDbLine
 10
505.253157
 20
1343.8
 30
0.0
 11
507.938868
 21
1343.8
 31
0.0
  0
LINE
  5
2BF
330
19B
100
AcDbEntity
  8
LC-001-002-----0
 62
     7
370
    35
100
AcDbLine
 10
505.266323
 20
1343.9
 30
0.0
 11
507.9257029999999
 21
1343.9
 31
0.0
  0
LINE
  5
2C0
330
19B
100
AcDbEntity
  8
LC-001-002-----0
 62
     7
370
    35
100
AcDbLine
 10
505.279488
 20
1344.0
 30
0.0
 11
507.9125379999999
 21
1344.0
 31
0.0
  0
LINE
  5
2C1
330
19B
100
AcDbEntity
  8
LC-001-002-----0
 62
     7
370
    35
100
AcDbLine
 10
505.292653
 20
1344.1
 30
0.0
 11
507.899373
 21
1344.1
 31
0.0
  0
LINE
  5
2C2
330
19B
100
AcDbEntity
  8
LC-001-002-----0
 62
     7
370
    35
100
AcDbLine
 10
505.3058179999999
 20
1344.2
 30
0.0
 11
507.886207
 21
1344.2
 31
0.0
  0
LINE
  5
2C3
330
19B
100
AcDbEntity
  8
LC-001-002-----0
 62
     7
370
    35
100
AcDbLine
 10
505.3189839999999
 20
1344.3
 30
0.0
 11
507.873042
 21
1344.3
 31
0.0
  0
LINE
  5
2C4
330
19B
100
AcDbEntity
  8
LC-001-002-----0
 62
     7
370
    35
100
AcDbLine
 10
505.332149
 20
1344.4
 30
0.0
 11
507.859877
 21
1344.4
 31
0.0
  0
LINE
  5
2C5
330
19B
100
AcDbEntity
  8
LC-001-002-----0
 62
     7
370
    35
100
AcDbLine
 10
505.345314
 20
1344.5
 30
0.0
 11
507.846712
 21
1344.5
 31
0.0
  0
LINE
  5
2C6
330
19B
100
AcDbEntity
  8
LC-001-002-----0
 62
     7
370
    35
100
AcDbLine
 10
505.358479
 20
1344.6
 30
0.0
 11
507.8335459999999
 21
1344.6
 31
0.0
  0
LINE
  5
2C7
330
19B
100
AcDbEntity
  8
LC-001-002-----0
 62
     7
370
    35
100
AcDbLine
 10
505.371645
 20
1344.7
 30
0.0
 11
507.8203809999999
 21
1344.7
 31
0.0
  0
LINE
  5
2C8
330
19B
100
AcDbEntity
  8
LC-001-002-----0
 62
     7
370
    35
100
AcDbLine
 10
505.3848099999999
 20
1344.8
 30
0.0
 11
507.807216
 21
1344.8
 31
0.0
  0
LINE
  5
2C9
330
19B
100
AcDbEntity
  8
LC-001-002-----0
 62
     7
370
    35
100
AcDbLine
 10
505.3979749999999
 20
1344.9
 30
0.0
 11
507.7940509999999
 21
1344.9
 31
0.0
  0
LINE
  5
2CA
330
19B
100
AcDbEntity
  8
LC-001-002-----0
 62
     7
370
    35
100
AcDbLine
 10
505.41114
 20
1345.0
 30
0.0
 11
507.7808849999999
 21
1345.0
 31
0.0
  0
LINE
  5
2CB
330
19B
100
AcDbEntity
  8
LC-001-002-----0
 62
     7
370
    35
100
AcDbLine
 10
505.4243059999999
 20
1345.1
 30
0.0
 11
507.76772
 21
1345.1
 31
0.0
  0
LINE
  5
2CC
330
19B
100
AcDbEntity
  8
LC-001-002-----0
 62
     7
370
    35
100
AcDbLine
 10
505.437471
 20
1345.2
 30
0.0
 11
507.7545549999999
 21
1345.2
 31
0.0
  0
LINE
  5
2CD
330
19B
100
AcDbEntity
  8
LC-001-002-----0
 62
     7
370
    35
100
AcDbLine
 10
505.450636
 20
1345.3
 30
0.0
 11
507.74139
 21
1345.3
 31
0.0
  0
LINE
  5
2CE
330
19B
100
AcDbEntity
  8
LC-001-002-----0
 62
     7
370
    35
100
AcDbLine
 10
505.4638009999999
 20
1345.4
 30
0.0
 11
507.728224
 21
1345.4
 31
0.0
  0
LINE
  5
2CF
330
19B
100
AcDbEntity
  8
LC-001-002-----0
 62
     7
370
    35
100
AcDbLine
 10
505.4769669999999
 20
1345.5
 30
0.0
 11
507.715059
 21
1345.5
 31
0.0
  0
LINE
  5
2D0
330
19B
100
AcDbEntity
  8
LC-001-002-----0
 62
     7
370
    35
100
AcDbLine
 10
505.4901319999999
 20
1345.6
 30
0.0
 11
507.701894
 21
1345.6
 31
0.0
  0
LINE
  5
2D1
330
19B
100
AcDbEntity
  8
LC-001-002-----0
 62
     7
370
    35
100
AcDbLine
 10
505.503297
 20
1345.7
 30
0.0
 11
507.688729
 21
1345.7
 31
0.0
  0
LINE
  5
2D2
330
19B
100
AcDbEntity
  8
LC-001-002-----0
 62
     7
370
    35
100
AcDbLine
 10
505.516462
 20
1345.8
 30
0.0
 11
507.675563
 21
1345.8
 31
0.0
  0
LINE
  5
2D3
330
19B
100
AcDbEntity
  8
LC-001-002-----0
 62
     7
370
    35
100
AcDbLine
 10
505.529628
 20
1345.9
 30
0.0
 11
507.662398
 21
1345.9
 31
0.0
  0
LINE
  5
2D4
330
19B
100
AcDbEntity
  8
LC-001-002-----0
 62
     7
370
    35
100
AcDbLine
 10
505.5427929999999
 20
1346.0
 30
0.0
 11
507.6492329999999
 21
1346.0
 31
0.0
  0
LINE
  5
2D5
330
19B
100
AcDbEntity
  8
LC-001-002-----0
 62
     7
370
    35
100
AcDbLine
 10
505.555958
 20
1346.1
 30
0.0
 11
507.6360679999999
 21
1346.1
 31
0.0
  0
LINE
  5
2D6
330
19B
100
AcDbEntity
  8
LC-001-002-----0
 62
     7
370
    35
100
AcDbLine
 10
505.569123
 20
1346.2
 30
0.0
 11
507.6229019999999
 21
1346.2
 31
0.0
  0
LINE
  5
2D7
330
19B
100
AcDbEntity
  8
LC-001-002-----0
 62
     7
370
    35
100
AcDbLine
 10
505.5822889999999
 20
1346.3
 30
0.0
 11
507.609737
 21
1346.3
 31
0.0
  0
LINE
  5
2D8
330
19B
100
AcDbEntity
  8
LC-001-002-----0
 62
     7
370
    35
100
AcDbLine
 10
505.595454
 20
1346.4
 30
0.0
 11
507.596572
 21
1346.4
 31
0.0
  0
LINE
  5
2D9
330
19B
100
AcDbEntity
  8
LC-001-002-----0
 62
     7
370
    35
100
AcDbLine
 10
505.608619
 20
1346.5
 30
0.0
 11
507.5834069999999
 21
1346.5
 31
0.0
  0
LINE
  5
2DA
330
19B
100
AcDbEntity
  8
LC-001-002-----0
 62
     7
370
    35
100
AcDbLine
 10
505.621784
 20
1346.6
 30
0.0
 11
507.5702409999999
 21
1346.6
 31
0.0
  0
LINE
  5
2DB
330
19B
100
AcDbEntity
  8
LC-001-002-----0
 62
     7
370
    35
100
AcDbLine
 10
505.63495
 20
1346.7
 30
0.0
 11
507.5570759999999
 21
1346.7
 31
0.0
  0
LINE
  5
2DC
330
19B
100
AcDbEntity
  8
LC-001-002-----0
 62
     7
370
    35
100
AcDbLine
 10
505.648115
 20
1346.8
 30
0.0
 11
507.543911
 21
1346.8
 31
0.0
  0
LINE
  5
2DD
330
19B
100
AcDbEntity
  8
LC-001-002-----0
 62
     7
370
    35
100
AcDbLine
 10
505.6612799999999
 20
1346.9
 30
0.0
 11
507.530746
 21
1346.9
 31
0.0
  0
LINE
  5
2DE
330
19B
100
AcDbEntity
  8
LC-001-002-----0
 62
     7
370
    35
100
AcDbLine
 10
505.674445
 20
1347.0
 30
0.0
 11
507.51758
 21
1347.0
 31
0.0
  0
LINE
  5
2DF
330
19B
100
AcDbEntity
  8
LC-001-002-----0
 62
     7
370
    35
100
AcDbLine
 10
505.6876110000001
 20
1347.1
 30
0.0
 11
507.504415
 21
1347.1
 31
0.0
  0
LINE
  5
2E0
330
19B
100
AcDbEntity
  8
LC-001-002-----0
 62
     7
370
    35
100
AcDbLine
 10
505.7007759999999
 20
1347.2
 30
0.0
 11
507.4912499999999
 21
1347.2
 31
0.0
  0
LINE
  5
2E1
330
19B
100
AcDbEntity
  8
LC-001-002-----0
 62
     7
370
    35
100
AcDbLine
 10
505.713941
 20
1347.3
 30
0.0
 11
507.4780849999999
 21
1347.3
 31
0.0
  0
LINE
  5
2E2
330
19B
100
AcDbEntity
  8
LC-001-002-----0
 62
     7
370
    35
100
AcDbLine
 10
505.7271059999999
 20
1347.4
 30
0.0
 11
507.464919
 21
1347.4
 31
0.0
  0
LINE
  5
2E3
330
19B
100
AcDbEntity
  8
LC-001-002-----0
 62
     7
370
    35
100
AcDbLine
 10
505.7402719999999
 20
1347.5
 30
0.0
 11
507.451754
 21
1347.5
 31
0.0
  0
LINE
  5
2E4
330
19B
100
AcDbEntity
  8
LC-001-002-----0
 62
     7
370
    35
100
AcDbLine
 10
505.7534369999999
 20
1347.6
 30
0.0
 11
507.438589
 21
1347.6
 31
0.0
  0
LINE
  5
2E5
330
19B
100
AcDbEntity
  8
LC-001-002-----0
 62
     7
370
    35
100
AcDbLine
 10
505.766602
 20
1347.7
 30
0.0
 11
507.425424
 21
1347.7
 31
0.0
  0
LINE
  5
2E6
330
19B
100
AcDbEntity
  8
LC-001-002-----0
 62
     7
370
    35
100
AcDbLine
 10
505.779767
 20
1347.8
 30
0.0
 11
507.412258
 21
1347.8
 31
0.0
  0
LINE
  5
2E7
330
19B
100
AcDbEntity
  8
LC-001-002-----0
 62
     7
370
    35
100
AcDbLine
 10
505.792933
 20
1347.9
 30
0.0
 11
507.3990929999999
 21
1347.9
 31
0.0
  0
LINE
  5
2E8
330
19B
100
AcDbEntity
  8
LC-001-002-----0
 62
     7
370
    35
100
AcDbLine
 10
505.806098
 20
1348.0
 30
0.0
 11
507.385928
 21
1348.0
 31
0.0
  0
LINE
  5
2E9
330
19B
100
AcDbEntity
  8
LC-001-002-----0
 62
     7
370
    35
100
AcDbLine
 10
505.8192629999999
 20
1348.1
 30
0.0
 11
507.3727629999999
 21
1348.1
 31
0.0
  0
LINE
  5
2EA
330
19B
100
AcDbEntity
  8
LC-001-002-----0
 62
     7
370
    35
100
AcDbLine
 10
505.832428
 20
1348.2
 30
0.0
 11
507.3595969999999
 21
1348.2
 31
0.0
  0
LINE
  5
2EB
330
19B
100
AcDbEntity
  8
LC-001-002-----0
 62
     7
370
    35
100
AcDbLine
 10
505.845594
 20
1348.3
 30
0.0
 11
507.346432
 21
1348.3
 31
0.0
  0
LINE
  5
2EC
330
19B
100
AcDbEntity
  8
LC-001-002-----0
 62
     7
370
    35
100
AcDbLine
 10
505.858759
 20
1348.4
 30
0.0
 11
507.333267
 21
1348.4
 31
0.0
  0
LINE
  5
2ED
330
19B
100
AcDbEntity
  8
LC-001-002-----0
 62
     7
370
    35
100
AcDbLine
 10
505.871924
 20
1348.5
 30
0.0
 11
507.3201019999999
 21
1348.5
 31
0.0
  0
LINE
  5
2EE
330
19B
100
AcDbEntity
  8
LC-001-002-----0
 62
     7
370
    35
100
AcDbLine
 10
505.885089
 20
1348.6
 30
0.0
 11
507.3069359999999
 21
1348.6
 31
0.0
  0
LINE
  5
2EF
330
19B
100
AcDbEntity
  8
LC-001-002-----0
 62
     7
370
    35
100
AcDbLine
 10
505.898255
 20
1348.7
 30
0.0
 11
507.2937709999999
 21
1348.7
 31
0.0
  0
LINE
  5
2F0
330
19B
100
AcDbEntity
  8
LC-001-002-----0
 62
     7
370
    35
100
AcDbLine
 10
505.91142
 20
1348.8
 30
0.0
 11
507.2806059999999
 21
1348.8
 31
0.0
  0
LINE
  5
2F1
330
19B
100
AcDbEntity
  8
LC-001-002-----0
 62
     7
370
    35
100
AcDbLine
 10
505.9245849999999
 20
1348.9
 30
0.0
 11
507.267441
 21
1348.9
 31
0.0
  0
LINE
  5
2F2
330
19B
100
AcDbEntity
  8
LC-001-002-----0
 62
     7
370
    35
100
AcDbLine
 10
505.93775
 20
1349.0
 30
0.0
 11
507.254275
 21
1349.0
 31
0.0
  0
LINE
  5
2F3
330
19B
100
AcDbEntity
  8
LC-001-002-----0
 62
     7
370
    35
100
AcDbLine
 10
505.950916
 20
1349.1
 30
0.0
 11
507.2411099999999
 21
1349.1
 31
0.0
  0
LINE
  5
2F4
330
19B
100
AcDbEntity
  8
LC-001-002-----0
 62
     7
370
    35
100
AcDbLine
 10
505.9640809999999
 20
1349.2
 30
0.0
 11
507.227945
 21
1349.2
 31
0.0
  0
LINE
  5
2F5
330
19B
100
AcDbEntity
  8
LC-001-002-----0
 62
     7
370
    35
100
AcDbLine
 10
505.9772459999999
 20
1349.3
 30
0.0
 11
507.2147799999999
 21
1349.3
 31
0.0
  0
LINE
  5
2F6
330
19B
100
AcDbEntity
  8
LC-001-002-----0
 62
     7
370
    35
100
AcDbLine
 10
505.990411
 20
1349.4
 30
0.0
 11
507.2016139999999
 21
1349.4
 31
0.0
  0
LINE
  5
2F7
330
19B
100
AcDbEntity
  8
LC-001-002-----0
 62
     7
370
    35
100
AcDbLine
 10
506.0035769999999
 20
1349.5
 30
0.0
 11
507.188449
 21
1349.5
 31
0.0
  0
LINE
  5
2F8
330
19B
100
AcDbEntity
  8
LC-001-002-----0
 62
     7
370
    35
100
AcDbLine
 10
506.0167419999999
 20
1349.6
 30
0.0
 11
507.175284
 21
1349.6
 31
0.0
  0
LINE
  5
2F9
330
19B
100
AcDbEntity
  8
LC-001-002-----0
 62
     7
370
    35
100
AcDbLine
 10
506.029907
 20
1349.7
 30
0.0
 11
507.162119
 21
1349.7
 31
0.0
  0
LINE
  5
2FA
330
19B
100
AcDbEntity
  8
LC-001-002-----0
 62
     7
370
    35
100
AcDbLine
 10
506.043072
 20
1349.8
 30
0.0
 11
507.148953
 21
1349.8
 31
0.0
  0
LINE
  5
2FB
330
19B
100
AcDbEntity
  8
LC-001-002-----0
 62
     7
370
    35
100
AcDbLine
 10
506.056238
 20
1349.9
 30
0.0
 11
507.1357879999999
 21
1349.9
 31
0.0
  0
LINE
  5
2FC
330
19B
100
AcDbEntity
  8
LC-001-002-----0
 62
     7
370
    35
100
AcDbLine
 10
506.069403
 20
1350.0
 30
0.0
 11
507.122623
 21
1350.0
 31
0.0
  0
LINE
  5
2FD
330
19B
100
AcDbEntity
  8
LC-001-002-----0
 62
     7
370
    35
100
AcDbLine
 10
506.0825679999999
 20
1350.1
 30
0.0
 11
507.109458
 21
1350.1
 31
0.0
  0
LINE
  5
2FE
330
19B
100
AcDbEntity
  8
LC-001-002-----0
 62
     7
370
    35
100
AcDbLine
 10
506.0957329999999
 20
1350.2
 30
0.0
 11
507.096292
 21
1350.2
 31
0.0
  0
LINE
  5
2FF
330
19B
100
AcDbEntity
  8
LC-001-002-----0
 62
     7
370
    35
100
AcDbLine
 10
506.108899
 20
1350.3
 30
0.0
 11
507.0831269999999
 21
1350.3
 31
0.0
  0
LINE
  5
300
330
19B
100
AcDbEntity
  8
LC-001-002-----0
 62
     7
370
    35
100
AcDbLine
 10
506.122064
 20
1350.4
 30
0.0
 11
507.069962
 21
1350.4
 31
0.0
  0
LINE
  5
301
330
19B
100
AcDbEntity
  8
LC-001-002-----0
 62
     7
370
    35
100
AcDbLine
 10
506.135229
 20
1350.5
 30
0.0
 11
507.0567969999999
 21
1350.5
 31
0.0
  0
LINE
  5
302
330
19B
100
AcDbEntity
  8
LC-001-002-----0
 62
     7
370
    35
100
AcDbLine
 10
506.148394
 20
1350.6
 30
0.0
 11
507.0436309999999
 21
1350.6
 31
0.0
  0
LINE
  5
303
330
19B
100
AcDbEntity
  8
LC-001-002-----0
 62
     7
370
    35
100
AcDbLine
 10
506.1615599999999
 20
1350.7
 30
0.0
 11
507.0304659999999
 21
1350.7
 31
0.0
  0
LINE
  5
304
330
19B
100
AcDbEntity
  8
LC-001-002-----0
 62
     7
370
    35
100
AcDbLine
 10
506.174725
 20
1350.8
 30
0.0
 11
507.0173009999999
 21
1350.8
 31
0.0
  0
LINE
  5
305
330
19B
100
AcDbEntity
  8
LC-001-002-----0
 62
     7
370
    35
100
AcDbLine
 10
506.18789
 20
1350.9
 30
0.0
 11
507.004136
 21
1350.9
 31
0.0
  0
LINE
  5
306
330
19B
100
AcDbEntity
  8
LC-001-002-----0
 62
     7
370
    35
100
AcDbLine
 10
506.201055
 20
1351.0
 30
0.0
 11
506.99097
 21
1351.0
 31
0.0
  0
LINE
  5
307
330
19B
100
AcDbEntity
  8
LC-001-002-----0
 62
     7
370
    35
100
AcDbLine
 10
506.214221
 20
1351.1
 30
0.0
 11
506.977805
 21
1351.1
 31
0.0
  0
LINE
  5
308
330
19B
100
AcDbEntity
  8
LC-001-002-----0
 62
     7
370
    35
100
AcDbLine
 10
506.227386
 20
1351.2
 30
0.0
 11
506.96464
 21
1351.2
 31
0.0
  0
LINE
  5
309
330
19B
100
AcDbEntity
  8
LC-001-002-----0
 62
     7
370
    35
100
AcDbLine
 10
506.2405509999999
 20
1351.3
 30
0.0
 11
506.951475
 21
1351.3
 31
0.0
  0
LINE
  5
30A
330
19B
100
AcDbEntity
  8
LC-001-002-----0
 62
     7
370
    35
100
AcDbLine
 10
506.2537159999999
 20
1351.4
 30
0.0
 11
506.938309
 21
1351.4
 31
0.0
  0
LINE
  5
30B
330
19B
100
AcDbEntity
  8
LC-001-002-----0
 62
     7
370
    35
100
AcDbLine
 10
506.2668819999999
 20
1351.5
 30
0.0
 11
506.925144
 21
1351.5
 31
0.0
  0
LINE
  5
30C
330
19B
100
AcDbEntity
  8
LC-001-002-----0
 62
     7
370
    35
100
AcDbLine
 10
506.2800469999999
 20
1351.6
 30
0.0
 11
506.911979
 21
1351.6
 31
0.0
  0
LINE
  5
30D
330
19B
100
AcDbEntity
  8
LC-001-002-----0
 62
     7
370
    35
100
AcDbLine
 10
506.293212
 20
1351.7
 30
0.0
 11
506.898814
 21
1351.7
 31
0.0
  0
LINE
  5
30E
330
19B
100
AcDbEntity
  8
LC-001-002-----0
 62
     7
370
    35
100
AcDbLine
 10
506.3063769999999
 20
1351.8
 30
0.0
 11
506.885648
 21
1351.8
 31
0.0
  0
LINE
  5
30F
330
19B
100
AcDbEntity
  8
LC-001-002-----0
 62
     7
370
    35
100
AcDbLine
 10
506.3195429999999
 20
1351.9
 30
0.0
 11
506.8724829999999
 21
1351.9
 31
0.0
  0
LINE
  5
310
330
19B
100
AcDbEntity
  8
LC-001-002-----0
 62
     7
370
    35
100
AcDbLine
 10
506.332708
 20
1352.0
 30
0.0
 11
506.8593179999999
 21
1352.0
 31
0.0
  0
LINE
  5
311
330
19B
100
AcDbEntity
  8
LC-001-002-----0
 62
     7
370
    35
100
AcDbLine
 10
506.345873
 20
1352.1
 30
0.0
 11
506.846153
 21
1352.1
 31
0.0
  0
LINE
  5
312
330
19B
100
AcDbEntity
  8
LC-001-002-----0
 62
     7
370
    35
100
AcDbLine
 10
506.3590379999999
 20
1352.2
 30
0.0
 11
506.832987
 21
1352.2
 31
0.0
  0
LINE
  5
313
330
19B
100
AcDbEntity
  8
LC-001-002-----0
 62
     7
370
    35
100
AcDbLine
 10
506.372204
 20
1352.3
 30
0.0
 11
506.819822
 21
1352.3
 31
0.0
  0
LINE
  5
314
330
19B
100
AcDbEntity
  8
LC-001-002-----0
 62
     7
370
    35
100
AcDbLine
 10
506.385369
 20
1352.4
 30
0.0
 11
506.806657
 21
1352.4
 31
0.0
  0
LINE
  5
315
330
19B
100
AcDbEntity
  8
LC-001-002-----0
 62
     7
370
    35
100
AcDbLine
 10
506.398534
 20
1352.5
 30
0.0
 11
506.7934919999999
 21
1352.5
 31
0.0
  0
LINE
  5
316
330
19B
100
AcDbEntity
  8
LC-001-002-----0
 62
     7
370
    35
100
AcDbLine
 10
506.411699
 20
1352.6
 30
0.0
 11
506.7803259999999
 21
1352.6
 31
0.0
  0
LINE
  5
317
330
19B
100
AcDbEntity
  8
LC-001-002-----0
 62
     7
370
    35
100
AcDbLine
 10
506.424865
 20
1352.7
 30
0.0
 11
506.767161
 21
1352.7
 31
0.0
  0
LINE
  5
318
330
19B
100
AcDbEntity
  8
LC-001-002-----0
 62
     7
370
    35
100
AcDbLine
 10
506.4380299999999
 20
1352.8
 30
0.0
 11
506.7539959999999
 21
1352.8
 31
0.0
  0
LINE
  5
319
330
19B
100
AcDbEntity
  8
LC-001-002-----0
 62
     7
370
    35
100
AcDbLine
 10
506.451195
 20
1352.9
 30
0.0
 11
506.7408309999999
 21
1352.9
 31
0.0
  0
LINE
  5
31A
330
19B
100
AcDbEntity
  8
LC-001-002-----0
 62
     7
370
    35
100
AcDbLine
 10
506.4643599999999
 20
1353.0
 30
0.0
 11
506.7276650000001
 21
1353.0
 31
0.0
  0
LINE
  5
31B
330
19B
100
AcDbEntity
  8
LC-001-002-----0
 62
     7
370
    35
100
AcDbLine
 10
506.4775259999999
 20
1353.1
 30
0.0
 11
506.7145
 21
1353.1
 31
0.0
  0
LINE
  5
31C
330
19B
100
AcDbEntity
  8
LC-001-002-----0
 62
     7
370
    35
100
AcDbLine
 10
506.490691
 20
1353.2
 30
0.0
 11
506.7013349999999
 21
1353.2
 31
0.0
  0
LINE
  5
31D
330
19B
100
AcDbEntity
  8
LC-001-002-----0
 62
     7
370
    35
100
AcDbLine
 10
506.5038559999999
 20
1353.3
 30
0.0
 11
506.68817
 21
1353.3
 31
0.0
  0
LINE
  5
31E
330
19B
100
AcDbEntity
  8
LC-001-002-----0
 62
     7
370
    35
100
AcDbLine
 10
506.5170209999999
 20
1353.4
 30
0.0
 11
506.675004
 21
1353.4
 31
0.0
  0
LINE
  5
31F
330
19B
100
AcDbEntity
  8
LC-001-002-----0
 62
     7
370
    35
100
AcDbLine
 10
506.5301869999999
 20
1353.5
 30
0.0
 11
506.661839
 21
1353.5
 31
0.0
  0
LINE
  5
320
330
19B
100
AcDbEntity
  8
LC-001-002-----0
 62
     7
370
    35
100
AcDbLine
 10
506.543352
 20
1353.6
 30
0.0
 11
506.648674
 21
1353.6
 31
0.0
  0
LINE
  5
321
330
19B
100
AcDbEntity
  8
LC-001-002-----0
 62
     7
370
    35
100
AcDbLine
 10
506.556517
 20
1353.7
 30
0.0
 11
506.635509
 21
1353.7
 31
0.0
  0
LINE
  5
322
330
19B
100
AcDbEntity
  8
LC-001-002-----0
 62
     7
370
    35
100
AcDbLine
 10
506.569682
 20
1353.8
 30
0.0
 11
506.6223429999999
 21
1353.8
 31
0.0
  0
LINE
  5
323
330
19B
100
AcDbEntity
  8
LC-001-002-----0
 62
     7
370
    35
100
AcDbLine
 10
506.582848
 20
1353.9
 30
0.0
 11
506.609178
 21
1353.9
 31
0.0
  0
ENDBLK
  5
19D
330
19B
100
AcDbEntity
  8
0
100
AcDbBlockEnd
  0
BLOCK
  5
326
330
325
100
AcDbEntity
  8
0
100
AcDbBlockBegin
  2
*X13
 70
     1
 10
0.0
 20
0.0
 30
0.0
  3
*X13
  1

  4
*X6
  0
LINE
  5
328
330
325
100
AcDbEntity
  8
LC-001-002-----0
 62
     7
370
    35
100
AcDbLine
 10
566.5874579999999
 20
1249.9
 30
0.0
 11
566.857667
 21
1249.9
 31
0.0
  0
LINE
  5
329
330
325
100
AcDbEntity
  8
LC-001-002-----0
 62
     7
370
    35
100
AcDbLine
 10
566.5874579999999
 20
1250.0
 30
0.0
 11
567.617242
 21
1250.0
 31
0.0
  0
LINE
  5
32A
330
325
100
AcDbEntity
  8
LC-001-002-----0
 62
     7
370
    35
100
AcDbLine
 10
566.5874579999999
 20
1250.1
 30
0.0
 11
568.3768169999999
 21
1250.1
 31
0.0
  0
LINE
  5
32B
330
325
100
AcDbEntity
  8
LC-001-002-----0
 62
     7
370
    35
100
AcDbLine
 10
566.5874579999999
 20
1250.2
 30
0.0
 11
569.136393
 21
1250.2
 31
0.0
  0
LINE
  5
32C
330
325
100
AcDbEntity
  8
LC-001-002-----0
 62
     7
370
    35
100
AcDbLine
 10
566.5874579999999
 20
1250.3
 30
0.0
 11
569.8959679999999
 21
1250.3
 31
0.0
  0
LINE
  5
32D
330
325
100
AcDbEntity
  8
LC-001-002-----0
 62
     7
370
    35
100
AcDbLine
 10
566.5874579999999
 20
1250.4
 30
0.0
 11
570.655544
 21
1250.4
 31
0.0
  0
LINE
  5
32E
330
325
100
AcDbEntity
  8
LC-001-002-----0
 62
     7
370
    35
100
AcDbLine
 10
566.5874579999999
 20
1250.5
 30
0.0
 11
571.4151189999999
 21
1250.5
 31
0.0
  0
LINE
  5
32F
330
325
100
AcDbEntity
  8
LC-001-002-----0
 62
     7
370
    35
100
AcDbLine
 10
566.5874579999999
 20
1250.6
 30
0.0
 11
572.174694
 21
1250.6
 31
0.0
  0
LINE
  5
330
330
325
100
AcDbEntity
  8
LC-001-002-----0
 62
     7
370
    35
100
AcDbLine
 10
566.5874579999999
 20
1250.7
 30
0.0
 11
572.93427
 21
1250.7
 31
0.0
  0
LINE
  5
331
330
325
100
AcDbEntity
  8
LC-001-002-----0
 62
     7
370
    35
100
AcDbLine
 10
566.5874579999999
 20
1250.8
 30
0.0
 11
573.693845
 21
1250.8
 31
0.0
  0
LINE
  5
332
330
325
100
AcDbEntity
  8
LC-001-002-----0
 62
     7
370
    35
100
AcDbLine
 10
566.5874579999999
 20
1250.9
 30
0.0
 11
574.453421
 21
1250.9
 31
0.0
  0
LINE
  5
333
330
325
100
AcDbEntity
  8
LC-001-002-----0
 62
     7
370
    35
100
AcDbLine
 10
566.5874579999999
 20
1251.0
 30
0.0
 11
575.2129959999999
 21
1251.0
 31
0.0
  0
LINE
  5
334
330
325
100
AcDbEntity
  8
LC-001-002-----0
 62
     7
370
    35
100
AcDbLine
 10
566.5874579999999
 20
1251.1
 30
0.0
 11
575.972572
 21
1251.1
 31
0.0
  0
LINE
  5
335
330
325
100
AcDbEntity
  8
LC-001-002-----0
 62
     7
370
    35
100
AcDbLine
 10
566.5874579999999
 20
1251.2
 30
0.0
 11
576.7321469999999
 21
1251.2
 31
0.0
  0
LINE
  5
336
330
325
100
AcDbEntity
  8
LC-001-002-----0
 62
     7
370
    35
100
AcDbLine
 10
566.5874579999999
 20
1251.3
 30
0.0
 11
577.4917219999999
 21
1251.3
 31
0.0
  0
LINE
  5
337
330
325
100
AcDbEntity
  8
LC-001-002-----0
 62
     7
370
    35
100
AcDbLine
 10
566.5874579999999
 20
1251.4
 30
0.0
 11
578.2512979999999
 21
1251.4
 31
0.0
  0
LINE
  5
338
330
325
100
AcDbEntity
  8
LC-001-002-----0
 62
     7
370
    35
100
AcDbLine
 10
566.5874579999999
 20
1251.5
 30
0.0
 11
579.010873
 21
1251.5
 31
0.0
  0
LINE
  5
339
330
325
100
AcDbEntity
  8
LC-001-002-----0
 62
     7
370
    35
100
AcDbLine
 10
566.5874579999999
 20
1251.6
 30
0.0
 11
579.770449
 21
1251.6
 31
0.0
  0
LINE
  5
33A
330
325
100
AcDbEntity
  8
LC-001-002-----0
 62
     7
370
    35
100
AcDbLine
 10
566.5874579999999
 20
1251.7
 30
0.0
 11
580.530024
 21
1251.7
 31
0.0
  0
LINE
  5
33B
330
325
100
AcDbEntity
  8
LC-001-002-----0
 62
     7
370
    35
100
AcDbLine
 10
566.5874579999999
 20
1251.8
 30
0.0
 11
581.289599
 21
1251.8
 31
0.0
  0
LINE
  5
33C
330
325
100
AcDbEntity
  8
LC-001-002-----0
 62
     7
370
    35
100
AcDbLine
 10
566.5874579999999
 20
1251.9
 30
0.0
 11
582.049175
 21
1251.9
 31
0.0
  0
LINE
  5
33D
330
325
100
AcDbEntity
  8
LC-001-002-----0
 62
     7
370
    35
100
AcDbLine
 10
566.5874579999999
 20
1252.0
 30
0.0
 11
582.80875
 21
1252.0
 31
0.0
  0
LINE
  5
33E
330
325
100
AcDbEntity
  8
LC-001-002-----0
 62
     7
370
    35
100
AcDbLine
 10
566.5874579999999
 20
1252.1
 30
0.0
 11
583.5683259999999
 21
1252.1
 31
0.0
  0
LINE
  5
33F
330
325
100
AcDbEntity
  8
LC-001-002-----0
 62
     7
370
    35
100
AcDbLine
 10
566.5874579999999
 20
1252.2
 30
0.0
 11
584.3279009999999
 21
1252.2
 31
0.0
  0
LINE
  5
340
330
325
100
AcDbEntity
  8
LC-001-002-----0
 62
     7
370
    35
100
AcDbLine
 10
566.5874579999999
 20
1252.3
 30
0.0
 11
585.0874759999999
 21
1252.3
 31
0.0
  0
LINE
  5
341
330
325
100
AcDbEntity
  8
LC-001-002-----0
 62
     7
370
    35
100
AcDbLine
 10
566.5874579999999
 20
1252.4
 30
0.0
 11
585.847052
 21
1252.4
 31
0.0
  0
LINE
  5
342
330
325
100
AcDbEntity
  8
LC-001-002-----0
 62
     7
370
    35
100
AcDbLine
 10
566.5874579999999
 20
1252.5
 30
0.0
 11
586.606627
 21
1252.5
 31
0.0
  0
LINE
  5
343
330
325
100
AcDbEntity
  8
LC-001-002-----0
 62
     7
370
    35
100
AcDbLine
 10
566.5874579999999
 20
1252.6
 30
0.0
 11
587.366203
 21
1252.6
 31
0.0
  0
LINE
  5
344
330
325
100
AcDbEntity
  8
LC-001-002-----0
 62
     7
370
    35
100
AcDbLine
 10
566.5874579999999
 20
1252.7
 30
0.0
 11
588.1257780000001
 21
1252.7
 31
0.0
  0
LINE
  5
345
330
325
100
AcDbEntity
  8
LC-001-002-----0
 62
     7
370
    35
100
AcDbLine
 10
566.5874579999999
 20
1252.8
 30
0.0
 11
588.885354
 21
1252.8
 31
0.0
  0
LINE
  5
346
330
325
100
AcDbEntity
  8
LC-001-002-----0
 62
     7
370
    35
100
AcDbLine
 10
566.5874579999999
 20
1252.9
 30
0.0
 11
589.644929
 21
1252.9
 31
0.0
  0
LINE
  5
347
330
325
100
AcDbEntity
  8
LC-001-002-----0
 62
     7
370
    35
100
AcDbLine
 10
566.5874579999999
 20
1253.0
 30
0.0
 11
590.4045039999999
 21
1253.0
 31
0.0
  0
LINE
  5
348
330
325
100
AcDbEntity
  8
LC-001-002-----0
 62
     7
370
    35
100
AcDbLine
 10
566.5874579999999
 20
1253.1
 30
0.0
 11
591.1640799999999
 21
1253.1
 31
0.0
  0
LINE
  5
349
330
325
100
AcDbEntity
  8
LC-001-002-----0
 62
     7
370
    35
100
AcDbLine
 10
566.5874579999999
 20
1253.2
 30
0.0
 11
591.9236549999999
 21
1253.2
 31
0.0
  0
LINE
  5
34A
330
325
100
AcDbEntity
  8
LC-001-002-----0
 62
     7
370
    35
100
AcDbLine
 10
566.5874579999999
 20
1253.3
 30
0.0
 11
592.6832309999999
 21
1253.3
 31
0.0
  0
LINE
  5
34B
330
325
100
AcDbEntity
  8
LC-001-002-----0
 62
     7
370
    35
100
AcDbLine
 10
566.5874579999999
 20
1253.4
 30
0.0
 11
593.4428059999999
 21
1253.4
 31
0.0
  0
LINE
  5
34C
330
325
100
AcDbEntity
  8
LC-001-002-----0
 62
     7
370
    35
100
AcDbLine
 10
566.5874579999999
 20
1253.5
 30
0.0
 11
594.2023809999999
 21
1253.5
 31
0.0
  0
LINE
  5
34D
330
325
100
AcDbEntity
  8
LC-001-002-----0
 62
     7
370
    35
100
AcDbLine
 10
566.5874579999999
 20
1253.6
 30
0.0
 11
594.961957
 21
1253.6
 31
0.0
  0
LINE
  5
34E
330
325
100
AcDbEntity
  8
LC-001-002-----0
 62
     7
370
    35
100
AcDbLine
 10
566.5874579999999
 20
1253.7
 30
0.0
 11
595.721532
 21
1253.7
 31
0.0
  0
LINE
  5
34F
330
325
100
AcDbEntity
  8
LC-001-002-----0
 62
     7
370
    35
100
AcDbLine
 10
566.5874579999999
 20
1253.8
 30
0.0
 11
596.481108
 21
1253.8
 31
0.0
  0
LINE
  5
350
330
325
100
AcDbEntity
  8
LC-001-002-----0
 62
     7
370
    35
100
AcDbLine
 10
566.5874579999999
 20
1253.9
 30
0.0
 11
597.2406829999999
 21
1253.9
 31
0.0
  0
LINE
  5
351
330
325
100
AcDbEntity
  8
LC-001-002-----0
 62
     7
370
    35
100
AcDbLine
 10
566.5874579999999
 20
1254.0
 30
0.0
 11
598.000258
 21
1254.0
 31
0.0
  0
LINE
  5
352
330
325
100
AcDbEntity
  8
LC-001-002-----0
 62
     7
370
    35
100
AcDbLine
 10
566.5874579999999
 20
1254.1
 30
0.0
 11
598.7598339999999
 21
1254.1
 31
0.0
  0
LINE
  5
353
330
325
100
AcDbEntity
  8
LC-001-002-----0
 62
     7
370
    35
100
AcDbLine
 10
566.5874579999999
 20
1254.2
 30
0.0
 11
599.519409
 21
1254.2
 31
0.0
  0
LINE
  5
354
330
325
100
AcDbEntity
  8
LC-001-002-----0
 62
     7
370
    35
100
AcDbLine
 10
566.5874579999999
 20
1254.3
 30
0.0
 11
600.2789849999999
 21
1254.3
 31
0.0
  0
LINE
  5
355
330
325
100
AcDbEntity
  8
LC-001-002-----0
 62
     7
370
    35
100
AcDbLine
 10
566.5874579999999
 20
1254.4
 30
0.0
 11
601.0385599999999
 21
1254.4
 31
0.0
  0
LINE
  5
356
330
325
100
AcDbEntity
  8
LC-001-002-----0
 62
     7
370
    35
100
AcDbLine
 10
566.5874579999999
 20
1254.5
 30
0.0
 11
601.798136
 21
1254.5
 31
0.0
  0
LINE
  5
357
330
325
100
AcDbEntity
  8
LC-001-002-----0
 62
     7
370
    35
100
AcDbLine
 10
566.5874579999999
 20
1254.6
 30
0.0
 11
602.557711
 21
1254.6
 31
0.0
  0
LINE
  5
358
330
325
100
AcDbEntity
  8
LC-001-002-----0
 62
     7
370
    35
100
AcDbLine
 10
566.5874579999999
 20
1254.7
 30
0.0
 11
603.317286
 21
1254.7
 31
0.0
  0
LINE
  5
359
330
325
100
AcDbEntity
  8
LC-001-002-----0
 62
     7
370
    35
100
AcDbLine
 10
566.5874579999999
 20
1254.8
 30
0.0
 11
604.076862
 21
1254.8
 31
0.0
  0
LINE
  5
35A
330
325
100
AcDbEntity
  8
LC-001-002-----0
 62
     7
370
    35
100
AcDbLine
 10
566.5874579999999
 20
1254.9
 30
0.0
 11
604.836437
 21
1254.9
 31
0.0
  0
LINE
  5
35B
330
325
100
AcDbEntity
  8
LC-001-002-----0
 62
     7
370
    35
100
AcDbLine
 10
566.5874579999999
 20
1255.1
 30
0.0
 11
604.836438
 21
1255.1
 31
0.0
  0
LINE
  5
35C
330
325
100
AcDbEntity
  8
LC-001-002-----0
 62
     7
370
    35
100
AcDbLine
 10
566.5874579999999
 20
1255.2
 30
0.0
 11
604.076862
 21
1255.2
 31
0.0
  0
LINE
  5
35D
330
325
100
AcDbEntity
  8
LC-001-002-----0
 62
     7
370
    35
100
AcDbLine
 10
566.5874579999999
 20
1255.3
 30
0.0
 11
603.3172869999999
 21
1255.3
 31
0.0
  0
LINE
  5
35E
330
325
100
AcDbEntity
  8
LC-001-002-----0
 62
     7
370
    35
100
AcDbLine
 10
566.5874579999999
 20
1255.4
 30
0.0
 11
602.557711
 21
1255.4
 31
0.0
  0
LINE
  5
35F
330
325
100
AcDbEntity
  8
LC-001-002-----0
 62
     7
370
    35
100
AcDbLine
 10
566.5874579999999
 20
1255.5
 30
0.0
 11
601.798136
 21
1255.5
 31
0.0
  0
LINE
  5
360
330
325
100
AcDbEntity
  8
LC-001-002-----0
 62
     7
370
    35
100
AcDbLine
 10
566.5874579999999
 20
1255.6
 30
0.0
 11
601.0385610000001
 21
1255.6
 31
0.0
  0
LINE
  5
361
330
325
100
AcDbEntity
  8
LC-001-002-----0
 62
     7
370
    35
100
AcDbLine
 10
566.5874579999999
 20
1255.7
 30
0.0
 11
600.2789849999999
 21
1255.7
 31
0.0
  0
LINE
  5
362
330
325
100
AcDbEntity
  8
LC-001-002-----0
 62
     7
370
    35
100
AcDbLine
 10
566.5874579999999
 20
1255.8
 30
0.0
 11
599.5194099999999
 21
1255.8
 31
0.0
  0
LINE
  5
363
330
325
100
AcDbEntity
  8
LC-001-002-----0
 62
     7
370
    35
100
AcDbLine
 10
566.5874579999999
 20
1255.9
 30
0.0
 11
598.7598339999999
 21
1255.9
 31
0.0
  0
LINE
  5
364
330
325
100
AcDbEntity
  8
LC-001-002-----0
 62
     7
370
    35
100
AcDbLine
 10
566.5874579999999
 20
1256.0
 30
0.0
 11
598.000259
 21
1256.0
 31
0.0
  0
LINE
  5
365
330
325
100
AcDbEntity
  8
LC-001-002-----0
 62
     7
370
    35
100
AcDbLine
 10
566.5874579999999
 20
1256.1
 30
0.0
 11
597.2406839999999
 21
1256.1
 31
0.0
  0
LINE
  5
366
330
325
100
AcDbEntity
  8
LC-001-002-----0
 62
     7
370
    35
100
AcDbLine
 10
566.5874579999999
 20
1256.2
 30
0.0
 11
596.481108
 21
1256.2
 31
0.0
  0
LINE
  5
367
330
325
100
AcDbEntity
  8
LC-001-002-----0
 62
     7
370
    35
100
AcDbLine
 10
566.5874579999999
 20
1256.3
 30
0.0
 11
595.721533
 21
1256.3
 31
0.0
  0
LINE
  5
368
330
325
100
AcDbEntity
  8
LC-001-002-----0
 62
     7
370
    35
100
AcDbLine
 10
566.5874579999999
 20
1256.4
 30
0.0
 11
594.961957
 21
1256.4
 31
0.0
  0
LINE
  5
369
330
325
100
AcDbEntity
  8
LC-001-002-----0
 62
     7
370
    35
100
AcDbLine
 10
566.5874579999999
 20
1256.5
 30
0.0
 11
594.2023820000001
 21
1256.5
 31
0.0
  0
LINE
  5
36A
330
325
100
AcDbEntity
  8
LC-001-002-----0
 62
     7
370
    35
100
AcDbLine
 10
566.5874579999999
 20
1256.6
 30
0.0
 11
593.442807
 21
1256.6
 31
0.0
  0
LINE
  5
36B
330
325
100
AcDbEntity
  8
LC-001-002-----0
 62
     7
370
    35
100
AcDbLine
 10
566.5874579999999
 20
1256.7
 30
0.0
 11
592.6832309999999
 21
1256.7
 31
0.0
  0
LINE
  5
36C
330
325
100
AcDbEntity
  8
LC-001-002-----0
 62
     7
370
    35
100
AcDbLine
 10
566.5874579999999
 20
1256.8
 30
0.0
 11
591.9236559999999
 21
1256.8
 31
0.0
  0
LINE
  5
36D
330
325
100
AcDbEntity
  8
LC-001-002-----0
 62
     7
370
    35
100
AcDbLine
 10
566.5874579999999
 20
1256.9
 30
0.0
 11
591.1640799999999
 21
1256.9
 31
0.0
  0
LINE
  5
36E
330
325
100
AcDbEntity
  8
LC-001-002-----0
 62
     7
370
    35
100
AcDbLine
 10
566.5874579999999
 20
1257.0
 30
0.0
 11
590.4045049999999
 21
1257.0
 31
0.0
  0
LINE
  5
36F
330
325
100
AcDbEntity
  8
LC-001-002-----0
 62
     7
370
    35
100
AcDbLine
 10
566.5874579999999
 20
1257.1
 30
0.0
 11
589.644929
 21
1257.1
 31
0.0
  0
LINE
  5
370
330
325
100
AcDbEntity
  8
LC-001-002-----0
 62
     7
370
    35
100
AcDbLine
 10
566.5874579999999
 20
1257.2
 30
0.0
 11
588.885354
 21
1257.2
 31
0.0
  0
LINE
  5
371
330
325
100
AcDbEntity
  8
LC-001-002-----0
 62
     7
370
    35
100
AcDbLine
 10
566.5874579999999
 20
1257.3
 30
0.0
 11
588.1257789999999
 21
1257.3
 31
0.0
  0
LINE
  5
372
330
325
100
AcDbEntity
  8
LC-001-002-----0
 62
     7
370
    35
100
AcDbLine
 10
566.5874579999999
 20
1257.4
 30
0.0
 11
587.366203
 21
1257.4
 31
0.0
  0
LINE
  5
373
330
325
100
AcDbEntity
  8
LC-001-002-----0
 62
     7
370
    35
100
AcDbLine
 10
566.5874579999999
 20
1257.5
 30
0.0
 11
586.606628
 21
1257.5
 31
0.0
  0
LINE
  5
374
330
325
100
AcDbEntity
  8
LC-001-002-----0
 62
     7
370
    35
100
AcDbLine
 10
566.5874579999999
 20
1257.6
 30
0.0
 11
585.847052
 21
1257.6
 31
0.0
  0
LINE
  5
375
330
325
100
AcDbEntity
  8
LC-001-002-----0
 62
     7
370
    35
100
AcDbLine
 10
566.5874579999999
 20
1257.7
 30
0.0
 11
585.0874769999999
 21
1257.7
 31
0.0
  0
LINE
  5
376
330
325
100
AcDbEntity
  8
LC-001-002-----0
 62
     7
370
    35
100
AcDbLine
 10
566.5874579999999
 20
1257.8
 30
0.0
 11
584.3279019999999
 21
1257.8
 31
0.0
  0
LINE
  5
377
330
325
100
AcDbEntity
  8
LC-001-002-----0
 62
     7
370
    35
100
AcDbLine
 10
566.5874579999999
 20
1257.9
 30
0.0
 11
583.5683259999999
 21
1257.9
 31
0.0
  0
LINE
  5
378
330
325
100
AcDbEntity
  8
LC-001-002-----0
 62
     7
370
    35
100
AcDbLine
 10
566.5874579999999
 20
1258.0
 30
0.0
 11
582.808751
 21
1258.0
 31
0.0
  0
LINE
  5
379
330
325
100
AcDbEntity
  8
LC-001-002-----0
 62
     7
370
    35
100
AcDbLine
 10
566.5874579999999
 20
1258.1
 30
0.0
 11
582.049175
 21
1258.1
 31
0.0
  0
LINE
  5
37A
330
325
100
AcDbEntity
  8
LC-001-002-----0
 62
     7
370
    35
100
AcDbLine
 10
566.5874579999999
 20
1258.2
 30
0.0
 11
581.2895999999999
 21
1258.2
 31
0.0
  0
LINE
  5
37B
330
325
100
AcDbEntity
  8
LC-001-002-----0
 62
     7
370
    35
100
AcDbLine
 10
566.5874579999999
 20
1258.3
 30
0.0
 11
580.530025
 21
1258.3
 31
0.0
  0
LINE
  5
37C
330
325
100
AcDbEntity
  8
LC-001-002-----0
 62
     7
370
    35
100
AcDbLine
 10
566.5874579999999
 20
1258.4
 30
0.0
 11
579.770449
 21
1258.4
 31
0.0
  0
LINE
  5
37D
330
325
100
AcDbEntity
  8
LC-001-002-----0
 62
     7
370
    35
100
AcDbLine
 10
566.5874579999999
 20
1258.5
 30
0.0
 11
579.010874
 21
1258.5
 31
0.0
  0
LINE
  5
37E
330
325
100
AcDbEntity
  8
LC-001-002-----0
 62
     7
370
    35
100
AcDbLine
 10
566.5874579999999
 20
1258.6
 30
0.0
 11
578.2512979999999
 21
1258.6
 31
0.0
  0
LINE
  5
37F
330
325
100
AcDbEntity
  8
LC-001-002-----0
 62
     7
370
    35
100
AcDbLine
 10
566.5874579999999
 20
1258.7
 30
0.0
 11
577.491723
 21
1258.7
 31
0.0
  0
LINE
  5
380
330
325
100
AcDbEntity
  8
LC-001-002-----0
 62
     7
370
    35
100
AcDbLine
 10
566.5874579999999
 20
1258.8
 30
0.0
 11
576.7321469999999
 21
1258.8
 31
0.0
  0
LINE
  5
381
330
325
100
AcDbEntity
  8
LC-001-002-----0
 62
     7
370
    35
100
AcDbLine
 10
566.5874579999999
 20
1258.9
 30
0.0
 11
575.972572
 21
1258.9
 31
0.0
  0
LINE
  5
382
330
325
100
AcDbEntity
  8
LC-001-002-----0
 62
     7
370
    35
100
AcDbLine
 10
566.5874579999999
 20
1259.0
 30
0.0
 11
575.2129969999999
 21
1259.0
 31
0.0
  0
LINE
  5
383
330
325
100
AcDbEntity
  8
LC-001-002-----0
 62
     7
370
    35
100
AcDbLine
 10
566.5874579999999
 20
1259.1
 30
0.0
 11
574.453421
 21
1259.1
 31
0.0
  0
LINE
  5
384
330
325
100
AcDbEntity
  8
LC-001-002-----0
 62
     7
370
    35
100
AcDbLine
 10
566.5874579999999
 20
1259.2
 30
0.0
 11
573.693846
 21
1259.2
 31
0.0
  0
LINE
  5
385
330
325
100
AcDbEntity
  8
LC-001-002-----0
 62
     7
370
    35
100
AcDbLine
 10
566.5874579999999
 20
1259.3
 30
0.0
 11
572.93427
 21
1259.3
 31
0.0
  0
LINE
  5
386
330
325
100
AcDbEntity
  8
LC-001-002-----0
 62
     7
370
    35
100
AcDbLine
 10
566.5874579999999
 20
1259.4
 30
0.0
 11
572.174695
 21
1259.4
 31
0.0
  0
LINE
  5
387
330
325
100
AcDbEntity
  8
LC-001-002-----0
 62
     7
370
    35
100
AcDbLine
 10
566.5874579999999
 20
1259.5
 30
0.0
 11
571.4151199999999
 21
1259.5
 31
0.0
  0
LINE
  5
388
330
325
100
AcDbEntity
  8
LC-001-002-----0
 62
     7
370
    35
100
AcDbLine
 10
566.5874579999999
 20
1259.6
 30
0.0
 11
570.655544
 21
1259.6
 31
0.0
  0
LINE
  5
389
330
325
100
AcDbEntity
  8
LC-001-002-----0
 62
     7
370
    35
100
AcDbLine
 10
566.5874579999999
 20
1259.7
 30
0.0
 11
569.895969
 21
1259.7
 31
0.0
  0
LINE
  5
38A
330
325
100
AcDbEntity
  8
LC-001-002-----0
 62
     7
370
    35
100
AcDbLine
 10
566.5874579999999
 20
1259.8
 30
0.0
 11
569.136393
 21
1259.8
 31
0.0
  0
LINE
  5
38B
330
325
100
AcDbEntity
  8
LC-001-002-----0
 62
     7
370
    35
100
AcDbLine
 10
566.5874579999999
 20
1259.9
 30
0.0
 11
568.3768179999999
 21
1259.9
 31
0.0
  0
LINE
  5
38C
330
325
100
AcDbEntity
  8
LC-001-002-----0
 62
     7
370
    35
100
AcDbLine
 10
566.5874579999999
 20
1260.0
 30
0.0
 11
567.6172429999999
 21
1260.0
 31
0.0
  0
LINE
  5
38D
330
325
100
AcDbEntity
  8
LC-001-002-----0
 62
     7
370
    35
100
AcDbLine
 10
566.5874579999999
 20
1260.1
 30
0.0
 11
566.857667
 21
1260.1
 31
0.0
  0
ENDBLK
  5
327
330
325
100
AcDbEntity
  8
0
100
AcDbBlockEnd
  0
BLOCK
  5
393
330
392
100
AcDbEntity
  8
0
100
AcDbBlockBegin
  2
*X14
 70
     1
 10
0.0
 20
0.0
 30
0.0
  3
*X14
  1

  4
*X7
  0
LINE
  5
395
330
392
100
AcDbEntity
  8
LC-001-002-----0
 62
     7
370
    35
100
AcDbLine
 10
506.5960129999999
 20
1240.2
 30
0.0
 11
509.0373239999999
 21
1240.2
 31
0.0
  0
LINE
  5
396
330
392
100
AcDbEntity
  8
LC-001-002-----0
 62
     7
370
    35
100
AcDbLine
 10
506.5960129999999
 20
1240.4
 30
0.0
 11
510.0369429999999
 21
1240.4
 31
0.0
  0
LINE
  5
397
330
392
100
AcDbEntity
  8
LC-001-002-----0
 62
     7
370
    35
100
AcDbLine
 10
506.5960129999999
 20
1240.6
 30
0.0
 11
510.796013
 21
1240.6
 31
0.0
  0
LINE
  5
398
330
392
100
AcDbEntity
  8
LC-001-002-----0
 62
     7
370
    35
100
AcDbLine
 10
506.5960129999999
 20
1240.8
 30
0.0
 11
511.4292309999999
 21
1240.8
 31
0.0
  0
LINE
  5
399
330
392
100
AcDbEntity
  8
LC-001-002-----0
 62
     7
370
    35
100
AcDbLine
 10
506.5960129999999
 20
1241.0
 30
0.0
 11
511.981178
 21
1241.0
 31
0.0
  0
LINE
  5
39A
330
392
100
AcDbEntity
  8
LC-001-002-----0
 62
     7
370
    35
100
AcDbLine
 10
506.5960129999999
 20
1241.2
 30
0.0
 11
512.474788
 21
1241.2
 31
0.0
  0
LINE
  5
39B
330
392
100
AcDbEntity
  8
LC-001-002-----0
 62
     7
370
    35
100
AcDbLine
 10
506.5960129999999
 20
1241.4
 30
0.0
 11
512.9237299999999
 21
1241.4
 31
0.0
  0
LINE
  5
39C
330
392
100
AcDbEntity
  8
LC-001-002-----0
 62
     7
370
    35
100
AcDbLine
 10
506.5960129999999
 20
1241.6
 30
0.0
 11
513.336933
 21
1241.6
 31
0.0
  0
LINE
  5
39D
330
392
100
AcDbEntity
  8
LC-001-002-----0
 62
     7
370
    35
100
AcDbLine
 10
506.5960129999999
 20
1241.8
 30
0.0
 11
513.7206179999999
 21
1241.8
 31
0.0
  0
LINE
  5
39E
330
392
100
AcDbEntity
  8
LC-001-002-----0
 62
     7
370
    35
100
AcDbLine
 10
506.5960129999999
 20
1242.0
 30
0.0
 11
514.079328
 21
1242.0
 31
0.0
  0
LINE
  5
39F
330
392
100
AcDbEntity
  8
LC-001-002-----0
 62
     7
370
    35
100
AcDbLine
 10
506.5960129999999
 20
1242.2
 30
0.0
 11
514.416499
 21
1242.2
 31
0.0
  0
LINE
  5
3A0
330
392
100
AcDbEntity
  8
LC-001-002-----0
 62
     7
370
    35
100
AcDbLine
 10
506.5960129999999
 20
1242.4
 30
0.0
 11
514.734809
 21
1242.4
 31
0.0
  0
LINE
  5
3A1
330
392
100
AcDbEntity
  8
LC-001-002-----0
 62
     7
370
    35
100
AcDbLine
 10
506.5960129999999
 20
1242.6
 30
0.0
 11
515.036392
 21
1242.6
 31
0.0
  0
LINE
  5
3A2
330
392
100
AcDbEntity
  8
LC-001-002-----0
 62
     7
370
    35
100
AcDbLine
 10
506.5960129999999
 20
1242.8
 30
0.0
 11
515.3229819999999
 21
1242.8
 31
0.0
  0
LINE
  5
3A3
330
392
100
AcDbEntity
  8
LC-001-002-----0
 62
     7
370
    35
100
AcDbLine
 10
506.5960129999999
 20
1243.0
 30
0.0
 11
515.5960129999999
 21
1243.0
 31
0.0
  0
LINE
  5
3A4
330
392
100
AcDbEntity
  8
LC-001-002-----0
 62
     7
370
    35
100
AcDbLine
 10
506.5960129999999
 20
1243.2
 30
0.0
 11
515.8566819999999
 21
1243.2
 31
0.0
  0
LINE
  5
3A5
330
392
100
AcDbEntity
  8
LC-001-002-----0
 62
     7
370
    35
100
AcDbLine
 10
506.5960129999999
 20
1243.4
 30
0.0
 11
516.1060079999999
 21
1243.4
 31
0.0
  0
LINE
  5
3A6
330
392
100
AcDbEntity
  8
LC-001-002-----0
 62
     7
370
    35
100
AcDbLine
 10
506.5960129999999
 20
1243.6
 30
0.0
 11
516.3448589999999
 21
1243.6
 31
0.0
  0
LINE
  5
3A7
330
392
100
AcDbEntity
  8
LC-001-002-----0
 62
     7
370
    35
100
AcDbLine
 10
506.5960129999999
 20
1243.8
 30
0.0
 11
516.573989
 21
1243.8
 31
0.0
  0
LINE
  5
3A8
330
392
100
AcDbEntity
  8
LC-001-002-----0
 62
     7
370
    35
100
AcDbLine
 10
506.5960129999999
 20
1244.0
 30
0.0
 11
516.794052
 21
1244.0
 31
0.0
  0
LINE
  5
3A9
330
392
100
AcDbEntity
  8
LC-001-002-----0
 62
     7
370
    35
100
AcDbLine
 10
506.5960129999999
 20
1244.2
 30
0.0
 11
517.005624
 21
1244.2
 31
0.0
  0
LINE
  5
3AA
330
392
100
AcDbEntity
  8
LC-001-002-----0
 62
     7
370
    35
100
AcDbLine
 10
506.5960129999999
 20
1244.4
 30
0.0
 11
517.209212
 21
1244.4
 31
0.0
  0
LINE
  5
3AB
330
392
100
AcDbEntity
  8
LC-001-002-----0
 62
     7
370
    35
100
AcDbLine
 10
506.5960129999999
 20
1244.6
 30
0.0
 11
517.4052679999999
 21
1244.6
 31
0.0
  0
LINE
  5
3AC
330
392
100
AcDbEntity
  8
LC-001-002-----0
 62
     7
370
    35
100
AcDbLine
 10
506.5960129999999
 20
1244.8
 30
0.0
 11
517.594194
 21
1244.8
 31
0.0
  0
LINE
  5
3AD
330
392
100
AcDbEntity
  8
LC-001-002-----0
 62
     7
370
    35
100
AcDbLine
 10
506.5960129999999
 20
1245.0
 30
0.0
 11
517.776353
 21
1245.0
 31
0.0
  0
LINE
  5
3AE
330
392
100
AcDbEntity
  8
LC-001-002-----0
 62
     7
370
    35
100
AcDbLine
 10
506.5960129999999
 20
1245.2
 30
0.0
 11
517.9520679999999
 21
1245.2
 31
0.0
  0
LINE
  5
3AF
330
392
100
AcDbEntity
  8
LC-001-002-----0
 62
     7
370
    35
100
AcDbLine
 10
506.5960129999999
 20
1245.4
 30
0.0
 11
518.121636
 21
1245.4
 31
0.0
  0
LINE
  5
3B0
330
392
100
AcDbEntity
  8
LC-001-002-----0
 62
     7
370
    35
100
AcDbLine
 10
506.5960129999999
 20
1245.6
 30
0.0
 11
518.285324
 21
1245.6
 31
0.0
  0
LINE
  5
3B1
330
392
100
AcDbEntity
  8
LC-001-002-----0
 62
     7
370
    35
100
AcDbLine
 10
506.5960129999999
 20
1245.8
 30
0.0
 11
518.4433749999999
 21
1245.8
 31
0.0
  0
LINE
  5
3B2
330
392
100
AcDbEntity
  8
LC-001-002-----0
 62
     7
370
    35
100
AcDbLine
 10
506.5960129999999
 20
1246.0
 30
0.0
 11
518.5960129999999
 21
1246.0
 31
0.0
  0
LINE
  5
3B3
330
392
100
AcDbEntity
  8
LC-001-002-----0
 62
     7
370
    35
100
AcDbLine
 10
506.5960129999999
 20
1246.2
 30
0.0
 11
518.7434409999999
 21
1246.2
 31
0.0
  0
LINE
  5
3B4
330
392
100
AcDbEntity
  8
LC-001-002-----0
 62
     7
370
    35
100
AcDbLine
 10
506.5960129999999
 20
1246.4
 30
0.0
 11
518.885846
 21
1246.4
 31
0.0
  0
LINE
  5
3B5
330
392
100
AcDbEntity
  8
LC-001-002-----0
 62
     7
370
    35
100
AcDbLine
 10
506.5960129999999
 20
1246.6
 30
0.0
 11
519.0234019999999
 21
1246.6
 31
0.0
  0
LINE
  5
3B6
330
392
100
AcDbEntity
  8
LC-001-002-----0
 62
     7
370
    35
100
AcDbLine
 10
506.5960129999999
 20
1246.8
 30
0.0
 11
519.1562679999999
 21
1246.8
 31
0.0
  0
LINE
  5
3B7
330
392
100
AcDbEntity
  8
LC-001-002-----0
 62
     7
370
    35
100
AcDbLine
 10
506.5960129999999
 20
1247.0
 30
0.0
 11
519.28459
 21
1247.0
 31
0.0
  0
LINE
  5
3B8
330
392
100
AcDbEntity
  8
LC-001-002-----0
 62
     7
370
    35
100
AcDbLine
 10
506.5960129999999
 20
1247.2
 30
0.0
 11
519.4085069999999
 21
1247.2
 31
0.0
  0
LINE
  5
3B9
330
392
100
AcDbEntity
  8
LC-001-002-----0
 62
     7
370
    35
100
AcDbLine
 10
506.5960129999999
 20
1247.4
 30
0.0
 11
519.528143
 21
1247.4
 31
0.0
  0
LINE
  5
3BA
330
392
100
AcDbEntity
  8
LC-001-002-----0
 62
     7
370
    35
100
AcDbLine
 10
506.5960129999999
 20
1247.6
 30
0.0
 11
519.6436179999999
 21
1247.6
 31
0.0
  0
LINE
  5
3BB
330
392
100
AcDbEntity
  8
LC-001-002-----0
 62
     7
370
    35
100
AcDbLine
 10
506.5960129999999
 20
1247.8
 30
0.0
 11
519.7550399999999
 21
1247.8
 31
0.0
  0
LINE
  5
3BC
330
392
100
AcDbEntity
  8
LC-001-002-----0
 62
     7
370
    35
100
AcDbLine
 10
506.5960129999999
 20
1248.0
 30
0.0
 11
519.862512
 21
1248.0
 31
0.0
  0
LINE
  5
3BD
330
392
100
AcDbEntity
  8
LC-001-002-----0
 62
     7
370
    35
100
AcDbLine
 10
506.5960129999999
 20
1248.2
 30
0.0
 11
519.966129
 21
1248.2
 31
0.0
  0
LINE
  5
3BE
330
392
100
AcDbEntity
  8
LC-001-002-----0
 62
     7
370
    35
100
AcDbLine
 10
506.5960129999999
 20
1248.4
 30
0.0
 11
520.0659789999999
 21
1248.4
 31
0.0
  0
LINE
  5
3BF
330
392
100
AcDbEntity
  8
LC-001-002-----0
 62
     7
370
    35
100
AcDbLine
 10
506.5960129999999
 20
1248.6
 30
0.0
 11
520.162147
 21
1248.6
 31
0.0
  0
LINE
  5
3C0
330
392
100
AcDbEntity
  8
LC-001-002-----0
 62
     7
370
    35
100
AcDbLine
 10
506.5960129999999
 20
1248.8
 30
0.0
 11
520.2547099999999
 21
1248.8
 31
0.0
  0
LINE
  5
3C1
330
392
100
AcDbEntity
  8
LC-001-002-----0
 62
     7
370
    35
100
AcDbLine
 10
506.5960129999999
 20
1249.0
 30
0.0
 11
520.34374
 21
1249.0
 31
0.0
  0
LINE
  5
3C2
330
392
100
AcDbEntity
  8
LC-001-002-----0
 62
     7
370
    35
100
AcDbLine
 10
506.5960129999999
 20
1249.2
 30
0.0
 11
520.429306
 21
1249.2
 31
0.0
  0
LINE
  5
3C3
330
392
100
AcDbEntity
  8
LC-001-002-----0
 62
     7
370
    35
100
AcDbLine
 10
506.5960129999999
 20
1249.4
 30
0.0
 11
520.511472
 21
1249.4
 31
0.0
  0
LINE
  5
3C4
330
392
100
AcDbEntity
  8
LC-001-002-----0
 62
     7
370
    35
100
AcDbLine
 10
506.5960129999999
 20
1249.6
 30
0.0
 11
520.5902969999999
 21
1249.6
 31
0.0
  0
LINE
  5
3C5
330
392
100
AcDbEntity
  8
LC-001-002-----0
 62
     7
370
    35
100
AcDbLine
 10
506.5960129999999
 20
1249.8
 30
0.0
 11
520.665839
 21
1249.8
 31
0.0
  0
LINE
  5
3C6
330
392
100
AcDbEntity
  8
LC-001-002-----0
 62
     7
370
    35
100
AcDbLine
 10
506.5960129999999
 20
1250.0
 30
0.0
 11
520.738148
 21
1250.0
 31
0.0
  0
LINE
  5
3C7
330
392
100
AcDbEntity
  8
LC-001-002-----0
 62
     7
370
    35
100
AcDbLine
 10
506.5960129999999
 20
1250.2
 30
0.0
 11
520.807276
 21
1250.2
 31
0.0
  0
LINE
  5
3C8
330
392
100
AcDbEntity
  8
LC-001-002-----0
 62
     7
370
    35
100
AcDbLine
 10
506.5960129999999
 20
1250.4
 30
0.0
 11
520.8732669999999
 21
1250.4
 31
0.0
  0
LINE
  5
3C9
330
392
100
AcDbEntity
  8
LC-001-002-----0
 62
     7
370
    35
100
AcDbLine
 10
506.5960129999999
 20
1250.6
 30
0.0
 11
520.936166
 21
1250.6
 31
0.0
  0
LINE
  5
3CA
330
392
100
AcDbEntity
  8
LC-001-002-----0
 62
     7
370
    35
100
AcDbLine
 10
506.5960129999999
 20
1250.8
 30
0.0
 11
520.9960129999999
 21
1250.8
 31
0.0
  0
LINE
  5
3CB
330
392
100
AcDbEntity
  8
LC-001-002-----0
 62
     7
370
    35
100
AcDbLine
 10
506.5960129999999
 20
1251.0
 30
0.0
 11
521.052845
 21
1251.0
 31
0.0
  0
LINE
  5
3CC
330
392
100
AcDbEntity
  8
LC-001-002-----0
 62
     7
370
    35
100
AcDbLine
 10
506.5960129999999
 20
1251.2
 30
0.0
 11
521.106699
 21
1251.2
 31
0.0
  0
LINE
  5
3CD
330
392
100
AcDbEntity
  8
LC-001-002-----0
 62
     7
370
    35
100
AcDbLine
 10
506.5960129999999
 20
1251.4
 30
0.0
 11
521.1576059999999
 21
1251.4
 31
0.0
  0
LINE
  5
3CE
330
392
100
AcDbEntity
  8
LC-001-002-----0
 62
     7
370
    35
100
AcDbLine
 10
506.5960129999999
 20
1251.6
 30
0.0
 11
521.205599
 21
1251.6
 31
0.0
  0
LINE
  5
3CF
330
392
100
AcDbEntity
  8
LC-001-002-----0
 62
     7
370
    35
100
AcDbLine
 10
506.5960129999999
 20
1251.8
 30
0.0
 11
521.2507049999999
 21
1251.8
 31
0.0
  0
LINE
  5
3D0
330
392
100
AcDbEntity
  8
LC-001-002-----0
 62
     7
370
    35
100
AcDbLine
 10
506.5960129999999
 20
1252.0
 30
0.0
 11
521.292951
 21
1252.0
 31
0.0
  0
LINE
  5
3D1
330
392
100
AcDbEntity
  8
LC-001-002-----0
 62
     7
370
    35
100
AcDbLine
 10
506.5960129999999
 20
1252.2
 30
0.0
 11
521.3323619999999
 21
1252.2
 31
0.0
  0
LINE
  5
3D2
330
392
100
AcDbEntity
  8
LC-001-002-----0
 62
     7
370
    35
100
AcDbLine
 10
506.5960129999999
 20
1252.4
 30
0.0
 11
521.368961
 21
1252.4
 31
0.0
  0
LINE
  5
3D3
330
392
100
AcDbEntity
  8
LC-001-002-----0
 62
     7
370
    35
100
AcDbLine
 10
506.5960129999999
 20
1252.6
 30
0.0
 11
521.4027679999999
 21
1252.6
 31
0.0
  0
LINE
  5
3D4
330
392
100
AcDbEntity
  8
LC-001-002-----0
 62
     7
370
    35
100
AcDbLine
 10
506.5960129999999
 20
1252.8
 30
0.0
 11
521.4338019999998
 21
1252.8
 31
0.0
  0
LINE
  5
3D5
330
392
100
AcDbEntity
  8
LC-001-002-----0
 62
     7
370
    35
100
AcDbLine
 10
506.5960129999999
 20
1253.0
 30
0.0
 11
521.462082
 21
1253.0
 31
0.0
  0
LINE
  5
3D6
330
392
100
AcDbEntity
  8
LC-001-002-----0
 62
     7
370
    35
100
AcDbLine
 10
506.5960129999999
 20
1253.2
 30
0.0
 11
521.4876209999999
 21
1253.2
 31
0.0
  0
LINE
  5
3D7
330
392
100
AcDbEntity
  8
LC-001-002-----0
 62
     7
370
    35
100
AcDbLine
 10
506.5960129999999
 20
1253.4
 30
0.0
 11
521.5104349999998
 21
1253.4
 31
0.0
  0
LINE
  5
3D8
330
392
100
AcDbEntity
  8
LC-001-002-----0
 62
     7
370
    35
100
AcDbLine
 10
506.5960129999999
 20
1253.6
 30
0.0
 11
521.530537
 21
1253.6
 31
0.0
  0
LINE
  5
3D9
330
392
100
AcDbEntity
  8
LC-001-002-----0
 62
     7
370
    35
100
AcDbLine
 10
506.5960129999999
 20
1253.8
 30
0.0
 11
521.547936
 21
1253.8
 31
0.0
  0
LINE
  5
3DA
330
392
100
AcDbEntity
  8
LC-001-002-----0
 62
     7
370
    35
100
AcDbLine
 10
506.5960129999999
 20
1254.0
 30
0.0
 11
521.5626419999999
 21
1254.0
 31
0.0
  0
LINE
  5
3DB
330
392
100
AcDbEntity
  8
LC-001-002-----0
 62
     7
370
    35
100
AcDbLine
 10
506.5960129999999
 20
1254.2
 30
0.0
 11
521.5746639999999
 21
1254.2
 31
0.0
  0
LINE
  5
3DC
330
392
100
AcDbEntity
  8
LC-001-002-----0
 62
     7
370
    35
100
AcDbLine
 10
506.5960129999999
 20
1254.4
 30
0.0
 11
521.584008
 21
1254.4
 31
0.0
  0
LINE
  5
3DD
330
392
100
AcDbEntity
  8
LC-001-002-----0
 62
     7
370
    35
100
AcDbLine
 10
506.5960129999999
 20
1254.6
 30
0.0
 11
521.590679
 21
1254.6
 31
0.0
  0
LINE
  5
3DE
330
392
100
AcDbEntity
  8
LC-001-002-----0
 62
     7
370
    35
100
AcDbLine
 10
506.5960129999999
 20
1254.8
 30
0.0
 11
521.594679
 21
1254.8
 31
0.0
  0
LINE
  5
3DF
330
392
100
AcDbEntity
  8
LC-001-002-----0
 62
     7
370
    35
100
AcDbLine
 10
506.5960129999999
 20
1255.0
 30
0.0
 11
521.596013
 21
1255.0
 31
0.0
  0
ENDBLK
  5
394
330
392
100
AcDbEntity
  8
0
100
AcDbBlockEnd
  0
BLOCK
  5
40C
330
402
100
AcDbEntity
  8
0
100
AcDbBlockBegin
  2
*D15
 70
     1
 10
0.0
 20
0.0
 30
0.0
  3
*D15
  1

  0
LINE
  5
403
330
402
100
AcDbEntity
  8
LC-005-003-----0
 62
     2
370
    -2
100
AcDbLine
 10
607.946013
 20
1052.375
 30
0.0
 11
607.946013
 21
866.0
 31
0.0
  0
LINE
  5
404
330
402
100
AcDbEntity
  8
LC-005-003-----0
 62
     2
370
    -2
100
AcDbLine
 10
405.246013
 20
1052.375
 30
0.0
 11
405.246013
 21
866.0
 31
0.0
  0
LINE
  5
405
330
402
100
AcDbEntity
  8
LC-005-003-----0
 62
     2
370
    -2
100
AcDbLine
 10
595.446013
 20
875.0
 30
0.0
 11
417.746013
 21
875.0
 31
0.0
  0
SOLID
  5
406
330
402
100
AcDbEntity
  8
LC-005-003-----0
 62
     2
100
AcDbTrace
 10
595.446013
 20
872.9166669999999
 30
0.0
 11
595.446013
 21
877.083333
 31
0.0
 12
607.946013
 22
875.0
 32
0.0
 13
607.946013
 23
875.0
 33
0.0
  0
SOLID
  5
407
330
402
100
AcDbEntity
  8
LC-005-003-----0
 62
     2
100
AcDbTrace
 10
417.746013
 20
877.083333
 30
0.0
 11
417.746013
 21
872.9166669999999
 31
0.0
 12
405.246013
 22
875.0
 32
0.0
 13
405.246013
 23
875.0
 33
0.0
  0
MTEXT
  5
408
330
402
100
AcDbEntity
  8
LC-005-003-----0
 62
     2
100
AcDbMText
 10
506.5960129999999
 20
890.0
 30
0.0
 40
12.5
 41
0.0
 71
     5
 72
     1
  1
\A1;202,7
  7
LCTX0-400-0-0pDIN-Schrift
 73
     1
 44
1.0
1001
ACAD
1000
MTEXTBEGIN
1070
    73
1070
     1
1070
    44
1040
1.0
1070
    74
1070
     0
1000
MTEXTEND
  0
POINT
  5
409
330
402
100
AcDbEntity
  8
Defpoints
 62
     0
100
AcDbPoint
 10
607.946013
 20
1052.375
 30
0.0
  0
POINT
  5
40A
330
402
100
AcDbEntity
  8
Defpoints
 62
     0
100
AcDbPoint
 10
405.246013
 20
1052.375
 30
0.0
  0
POINT
  5
40B
330
402
100
AcDbEntity
  8
Defpoints
 62
     0
100
AcDbPoint
 10
405.246013
 20
875.0
 30
0.0
  0
ENDBLK
  5
40D
330
402
100
AcDbEntity
  8
0
100
AcDbBlockEnd
  0
BLOCK
  5
41A
330
410
100
AcDbEntity
  8
0
100
AcDbBlockBegin
  2
*D16
 70
     1
 10
0.0
 20
0.0
 30
0.0
  3
*D16
  1

  0
LINE
  5
411
330
410
100
AcDbEntity
  8
LC-005-003-----0
 62
     2
370
    -2
100
AcDbLine
 10
607.946013
 20
1052.375
 30
0.0
 11
607.946013
 21
941.0
 31
0.0
  0
LINE
  5
412
330
410
100
AcDbEntity
  8
LC-005-003-----0
 62
     2
370
    -2
100
AcDbLine
 10
506.5960129999999
 20
1052.375
 30
0.0
 11
506.5960129999999
 21
941.0
 31
0.0
  0
LINE
  5
413
330
410
100
AcDbEntity
  8
LC-005-003-----0
 62
     2
370
    -2
100
AcDbLine
 10
595.446013
 20
950.0
 30
0.0
 11
519.0960129999999
 21
950.0
 31
0.0
  0
SOLID
  5
414
330
410
100
AcDbEntity
  8
LC-005-003-----0
 62
     2
100
AcDbTrace
 10
595.446013
 20
947.9166669999999
 30
0.0
 11
595.446013
 21
952.083333
 31
0.0
 12
607.946013
 22
950.0
 32
0.0
 13
607.946013
 23
950.0
 33
0.0
  0
SOLID
  5
415
330
410
100
AcDbEntity
  8
LC-005-003-----0
 62
     2
100
AcDbTrace
 10
519.0960129999999
 20
952.083333
 30
0.0
 11
519.0960129999999
 21
947.9166669999999
 31
0.0
 12
506.5960129999999
 22
950.0
 32
0.0
 13
506.5960129999999
 23
950.0
 33
0.0
  0
MTEXT
  5
416
330
410
100
AcDbEntity
  8
LC-005-003-----0
 62
     2
100
AcDbMText
 10
557.271013
 20
965.0
 30
0.0
 40
12.5
 41
0.0
 71
     5
 72
     1
  1
(\A1;101,35)
  7
LCTX0-400-0-0pDIN-Schrift
 73
     1
 44
1.0
1001
ACAD
1000
MTEXTBEGIN
1070
    73
1070
     1
1070
    44
1040
1.0
1070
    74
1070
     0
1000
MTEXTEND
  0
POINT
  5
417
330
410
100
AcDbEntity
  8
Defpoints
 62
     0
100
AcDbPoint
 10
607.946013
 20
1052.375
 30
0.0
  0
POINT
  5
418
330
410
100
AcDbEntity
  8
Defpoints
 62
     0
100
AcDbPoint
 10
506.5960129999999
 20
1052.375
 30
0.0
  0
POINT
  5
419
330
410
100
AcDbEntity
  8
Defpoints
 62
     0
100
AcDbPoint
 10
506.5960129999999
 20
950.0
 30
0.0
  0
ENDBLK
  5
41B
330
410
100
AcDbEntity
  8
0
100
AcDbBlockEnd
  0
BLOCK
  5
427
330
41D
100
AcDbEntity
  8
0
100
AcDbBlockBegin
  2
*D17
 70
     1
 10
0.0
 20
0.0
 30
0.0
  3
*D17
  1

  0
LINE
  5
41E
330
41D
100
AcDbEntity
  8
LC-005-003-----0
 62
     2
370
    -2
100
AcDbLine
 10
506.5960129999999
 20
1052.375
 30
0.0
 11
506.5960129999999
 21
941.0
 31
0.0
  0
LINE
  5
41F
330
41D
100
AcDbEntity
  8
LC-005-003-----0
 62
     2
370
    -2
100
AcDbLine
 10
405.246013
 20
1052.375
 30
0.0
 11
405.246013
 21
941.0
 31
0.0
  0
LINE
  5
420
330
41D
100
AcDbEntity
  8
LC-005-003-----0
 62
     2
370
    -2
100
AcDbLine
 10
494.0960129999999
 20
950.0
 30
0.0
 11
417.746013
 21
950.0
 31
0.0
  0
SOLID
  5
421
330
41D
100
AcDbEntity
  8
LC-005-003-----0
 62
     2
100
AcDbTrace
 10
494.0960129999999
 20
947.9166669999999
 30
0.0
 11
494.0960129999999
 21
952.083333
 31
0.0
 12
506.5960129999999
 22
950.0
 32
0.0
 13
506.5960129999999
 23
950.0
 33
0.0
  0
SOLID
  5
422
330
41D
100
AcDbEntity
  8
LC-005-003-----0
 62
     2
100
AcDbTrace
 10
417.746013
 20
952.083333
 30
0.0
 11
417.746013
 21
947.9166669999999
 31
0.0
 12
405.246013
 22
950.0
 32
0.0
 13
405.246013
 23
950.0
 33
0.0
  0
MTEXT
  5
423
330
41D
100
AcDbEntity
  8
LC-005-003-----0
 62
     2
100
AcDbMText
 10
455.921013
 20
965.0
 30
0.0
 40
12.5
 41
0.0
 71
     5
 72
     1
  1
(\A1;101,35)
  7
LCTX0-400-0-0pDIN-Schrift
 73
     1
 44
1.0
1001
ACAD
1000
MTEXTBEGIN
1070
    73
1070
     1
1070
    44
1040
1.0
1070
    74
1070
     0
1000
MTEXTEND
  0
POINT
  5
424
330
41D
100
AcDbEntity
  8
Defpoints
 62
     0
100
AcDbPoint
 10
506.5960129999999
 20
1052.375
 30
0.0
  0
POINT
  5
425
330
41D
100
AcDbEntity
  8
Defpoints
 62
     0
100
AcDbPoint
 10
405.246013
 20
1052.375
 30
0.0
  0
POINT
  5
426
330
41D
100
AcDbEntity
  8
Defpoints
 62
     0
100
AcDbPoint
 10
405.246013
 20
950.0
 30
0.0
  0
ENDBLK
  5
428
330
41D
100
AcDbEntity
  8
0
100
AcDbBlockEnd
  0
BLOCK
  5
448
330
43E
100
AcDbEntity
  8
0
100
AcDbBlockBegin
  2
*D18
 70
     1
 10
0.0
 20
0.0
 30
0.0
  3
*D18
  1

  0
LINE
  5
43F
330
43E
100
AcDbEntity
  8
LC-005-003-----0
 62
     2
370
    -2
100
AcDbLine
 10
385.246013
 20
1437.625
 30
0.0
 11
216.0
 21
1437.625
 31
0.0
  0
LINE
  5
440
330
43E
100
AcDbEntity
  8
LC-005-003-----0
 62
     2
370
    -2
100
AcDbLine
 10
385.246013
 20
1072.375
 30
0.0
 11
216.0
 21
1072.375
 31
0.0
  0
LINE
  5
441
330
43E
100
AcDbEntity
  8
LC-005-003-----0
 62
     2
370
    -2
100
AcDbLine
 10
225.0
 20
1425.125
 30
0.0
 11
225.0
 21
1084.875
 31
0.0
  0
SOLID
  5
442
330
43E
100
AcDbEntity
  8
LC-005-003-----0
 62
     2
100
AcDbTrace
 10
227.083333
 20
1425.125
 30
0.0
 11
222.916667
 21
1425.125
 31
0.0
 12
225.0
 22
1437.625
 32
0.0
 13
225.0
 23
1437.625
 33
0.0
  0
SOLID
  5
443
330
43E
100
AcDbEntity
  8
LC-005-003-----0
 62
     2
100
AcDbTrace
 10
222.916667
 20
1084.875
 30
0.0
 11
227.083333
 21
1084.875
 31
0.0
 12
225.0
 22
1072.375
 32
0.0
 13
225.0
 23
1072.375
 33
0.0
  0
MTEXT
  5
444
330
43E
100
AcDbEntity
  8
LC-005-003-----0
 62
     2
100
AcDbMText
 10
210.0
 20
1255.0
 30
0.0
 40
12.5
 41
0.0
 71
     5
 72
     1
  1
\A1;365,25
  7
LCTX0-400-0-0pDIN-Schrift
 11
0.0000000000000001
 21
1.0
 31
0.0
 73
     1
 44
1.0
1001
ACAD
1000
MTEXTBEGIN
1070
    73
1070
     1
1070
    44
1040
1.0
1070
    74
1070
     0
1000
MTEXTEND
  0
POINT
  5
445
330
43E
100
AcDbEntity
  8
Defpoints
 62
     0
100
AcDbPoint
 10
385.246013
 20
1437.625
 30
0.0
  0
POINT
  5
446
330
43E
100
AcDbEntity
  8
Defpoints
 62
     0
100
AcDbPoint
 10
385.246013
 20
1072.375
 30
0.0
  0
POINT
  5
447
330
43E
100
AcDbEntity
  8
Defpoints
 62
     0
100
AcDbPoint
 10
225.0
 20
1072.375
 30
0.0
  0
ENDBLK
  5
449
330
43E
100
AcDbEntity
  8
0
100
AcDbBlockEnd
  0
BLOCK
  5
455
330
44B
100
AcDbEntity
  8
0
100
AcDbBlockBegin
  2
*D19
 70
     1
 10
0.0
 20
0.0
 30
0.0
  3
*D19
  1

  0
LINE
  5
44C
330
44B
100
AcDbEntity
  8
LC-005-003-----0
 62
     2
370
    -2
100
AcDbLine
 10
385.246013
 20
1437.625
 30
0.0
 11
291.0
 21
1437.625
 31
0.0
  0
LINE
  5
44D
330
44B
100
AcDbEntity
  8
LC-005-003-----0
 62
     2
370
    -2
100
AcDbLine
 10
385.246013
 20
1255.0
 30
0.0
 11
291.0
 21
1255.0
 31
0.0
  0
LINE
  5
44E
330
44B
100
AcDbEntity
  8
LC-005-003-----0
 62
     2
370
    -2
100
AcDbLine
 10
300.0
 20
1425.125
 30
0.0
 11
300.0
 21
1267.5
 31
0.0
  0
SOLID
  5
44F
330
44B
100
AcDbEntity
  8
LC-005-003-----0
 62
     2
100
AcDbTrace
 10
302.083333
 20
1425.125
 30
0.0
 11
297.916667
 21
1425.125
 31
0.0
 12
300.0
 22
1437.625
 32
0.0
 13
300.0
 23
1437.625
 33
0.0
  0
SOLID
  5
450
330
44B
100
AcDbEntity
  8
LC-005-003-----0
 62
     2
100
AcDbTrace
 10
297.916667
 20
1267.5
 30
0.0
 11
302.083333
 21
1267.5
 31
0.0
 12
300.0
 22
1255.0
 32
0.0
 13
300.0
 23
1255.0
 33
0.0
  0
MTEXT
  5
451
330
44B
100
AcDbEntity
  8
LC-005-003-----0
 62
     2
100
AcDbMText
 10
285.0
 20
1346.3125
 30
0.0
 40
12.5
 41
0.0
 71
     5
 72
     1
  1
(\A1;182,625)
  7
LCTX0-400-0-0pDIN-Schrift
 11
0.0000000000000001
 21
1.0
 31
0.0
 73
     1
 44
1.0
1001
ACAD
1000
MTEXTBEGIN
1070
    73
1070
     1
1070
    44
1040
1.0
1070
    74
1070
     0
1000
MTEXTEND
  0
POINT
  5
452
330
44B
100
AcDbEntity
  8
Defpoints
 62
     0
100
AcDbPoint
 10
385.246013
 20
1437.625
 30
0.0
  0
POINT
  5
453
330
44B
100
AcDbEntity
  8
Defpoints
 62
     0
100
AcDbPoint
 10
385.246013
 20
1255.0
 30
0.0
  0
POINT
  5
454
330
44B
100
AcDbEntity
  8
Defpoints
 62
     0
100
AcDbPoint
 10
300.0
 20
1255.0
 30
0.0
  0
ENDBLK
  5
456
330
44B
100
AcDbEntity
  8
0
100
AcDbBlockEnd
  0
BLOCK
  5
462
330
458
100
AcDbEntity
  8
0
100
AcDbBlockBegin
  2
*D20
 70
     1
 10
0.0
 20
0.0
 30
0.0
  3
*D20
  1

  0
LINE
  5
459
330
458
100
AcDbEntity
  8
LC-005-003-----0
 62
     2
370
    -2
100
AcDbLine
 10
385.246013
 20
1072.375
 30
0.0
 11
291.0
 21
1072.375
 31
0.0
  0
LINE
  5
45A
330
458
100
AcDbEntity
  8
LC-005-003-----0
 62
     2
370
    -2
100
AcDbLine
 10
385.246013
 20
1255.0
 30
0.0
 11
291.0
 21
1255.0
 31
0.0
  0
LINE
  5
45B
330
458
100
AcDbEntity
  8
LC-005-003-----0
 62
     2
370
    -2
100
AcDbLine
 10
300.0
 20
1084.875
 30
0.0
 11
300.0
 21
1242.5
 31
0.0
  0
SOLID
  5
45C
330
458
100
AcDbEntity
  8
LC-005-003-----0
 62
     2
100
AcDbTrace
 10
297.916667
 20
1084.875
 30
0.0
 11
302.083333
 21
1084.875
 31
0.0
 12
300.0
 22
1072.375
 32
0.0
 13
300.0
 23
1072.375
 33
0.0
  0
SOLID
  5
45D
330
458
100
AcDbEntity
  8
LC-005-003-----0
 62
     2
100
AcDbTrace
 10
302.083333
 20
1242.5
 30
0.0
 11
297.916667
 21
1242.5
 31
0.0
 12
300.0
 22
1255.0
 32
0.0
 13
300.0
 23
1255.0
 33
0.0
  0
MTEXT
  5
45E
330
458
100
AcDbEntity
  8
LC-005-003-----0
 62
     2
100
AcDbMText
 10
285.0
 20
1163.6875
 30
0.0
 40
12.5
 41
0.0
 71
     5
 72
     1
  1
(\A1;182,625)
  7
LCTX0-400-0-0pDIN-Schrift
 11
0.0000000000000001
 21
1.0
 31
0.0
 73
     1
 44
1.0
1001
ACAD
1000
MTEXTBEGIN
1070
    73
1070
     1
1070
    44
1040
1.0
1070
    74
1070
     0
1000
MTEXTEND
  0
POINT
  5
45F
330
458
100
AcDbEntity
  8
Defpoints
 62
     0
100
AcDbPoint
 10
385.246013
 20
1072.375
 30
0.0
  0
POINT
  5
460
330
458
100
AcDbEntity
  8
Defpoints
 62
     0
100
AcDbPoint
 10
385.246013
 20
1255.0
 30
0.0
  0
POINT
  5
461
330
458
100
AcDbEntity
  8
Defpoints
 62
     0
100
AcDbPoint
 10
300.0
 20
1255.0
 30
0.0
  0
ENDBLK
  5
463
330
458
100
AcDbEntity
  8
0
100
AcDbBlockEnd
  0
BLOCK
  5
498
330
497
100
AcDbEntity
  8
0
100
AcDbBlockBegin
  2
*X21
 70
     1
 10
0.0
 20
0.0
 30
0.0
  3
*X21
  1

  4
*X8
  0
LINE
  5
49A
330
497
100
AcDbEntity
  8
LC-001-002-----0
 62
     7
370
    35
100
AcDbLine
 10
501.461565
 20
290.0
 30
0.0
 11
511.7304599999999
 21
290.0
 31
0.0
  0
LINE
  5
49B
330
497
100
AcDbEntity
  8
LC-001-002-----0
 62
     7
370
    35
100
AcDbLine
 10
501.4747309999999
 20
290.1
 30
0.0
 11
511.717295
 21
290.1
 31
0.0
  0
LINE
  5
49C
330
497
100
AcDbEntity
  8
LC-001-002-----0
 62
     7
370
    35
100
AcDbLine
 10
501.4878959999999
 20
290.2
 30
0.0
 11
511.7041299999999
 21
290.2
 31
0.0
  0
LINE
  5
49D
330
497
100
AcDbEntity
  8
LC-001-002-----0
 62
     7
370
    35
100
AcDbLine
 10
501.501061
 20
290.3
 30
0.0
 11
511.6909639999999
 21
290.3
 31
0.0
  0
LINE
  5
49E
330
497
100
AcDbEntity
  8
LC-001-002-----0
 62
     7
370
    35
100
AcDbLine
 10
501.5142259999999
 20
290.4
 30
0.0
 11
511.677799
 21
290.4
 31
0.0
  0
LINE
  5
49F
330
497
100
AcDbEntity
  8
LC-001-002-----0
 62
     7
370
    35
100
AcDbLine
 10
501.527392
 20
290.5
 30
0.0
 11
511.6646339999999
 21
290.5
 31
0.0
  0
LINE
  5
4A0
330
497
100
AcDbEntity
  8
LC-001-002-----0
 62
     7
370
    35
100
AcDbLine
 10
501.540557
 20
290.6
 30
0.0
 11
511.651469
 21
290.6
 31
0.0
  0
LINE
  5
4A1
330
497
100
AcDbEntity
  8
LC-001-002-----0
 62
     7
370
    35
100
AcDbLine
 10
501.5537219999999
 20
290.7
 30
0.0
 11
511.638303
 21
290.7
 31
0.0
  0
LINE
  5
4A2
330
497
100
AcDbEntity
  8
LC-001-002-----0
 62
     7
370
    35
100
AcDbLine
 10
501.5668869999999
 20
290.8
 30
0.0
 11
511.625138
 21
290.8
 31
0.0
  0
LINE
  5
4A3
330
497
100
AcDbEntity
  8
LC-001-002-----0
 62
     7
370
    35
100
AcDbLine
 10
501.5800529999999
 20
290.9
 30
0.0
 11
511.611973
 21
290.9
 31
0.0
  0
LINE
  5
4A4
330
497
100
AcDbEntity
  8
LC-001-002-----0
 62
     7
370
    35
100
AcDbLine
 10
501.593218
 20
291.0
 30
0.0
 11
511.598808
 21
291.0
 31
0.0
  0
LINE
  5
4A5
330
497
100
AcDbEntity
  8
LC-001-002-----0
 62
     7
370
    35
100
AcDbLine
 10
501.606383
 20
291.1000000000001
 30
0.0
 11
511.585642
 21
291.1000000000001
 31
0.0
  0
LINE
  5
4A6
330
497
100
AcDbEntity
  8
LC-001-002-----0
 62
     7
370
    35
100
AcDbLine
 10
501.619548
 20
291.2
 30
0.0
 11
511.5724769999999
 21
291.2
 31
0.0
  0
LINE
  5
4A7
330
497
100
AcDbEntity
  8
LC-001-002-----0
 62
     7
370
    35
100
AcDbLine
 10
501.6327139999999
 20
291.3
 30
0.0
 11
511.559312
 21
291.3
 31
0.0
  0
LINE
  5
4A8
330
497
100
AcDbEntity
  8
LC-001-002-----0
 62
     7
370
    35
100
AcDbLine
 10
501.6458789999999
 20
291.4
 30
0.0
 11
511.5461469999999
 21
291.4
 31
0.0
  0
LINE
  5
4A9
330
497
100
AcDbEntity
  8
LC-001-002-----0
 62
     7
370
    35
100
AcDbLine
 10
501.659044
 20
291.5
 30
0.0
 11
511.5329809999999
 21
291.5
 31
0.0
  0
LINE
  5
4AA
330
497
100
AcDbEntity
  8
LC-001-002-----0
 62
     7
370
    35
100
AcDbLine
 10
501.672209
 20
291.6
 30
0.0
 11
511.519816
 21
291.6
 31
0.0
  0
LINE
  5
4AB
330
497
100
AcDbEntity
  8
LC-001-002-----0
 62
     7
370
    35
100
AcDbLine
 10
501.685375
 20
291.7
 30
0.0
 11
511.506651
 21
291.7
 31
0.0
  0
LINE
  5
4AC
330
497
100
AcDbEntity
  8
LC-001-002-----0
 62
     7
370
    35
100
AcDbLine
 10
501.69854
 20
291.8
 30
0.0
 11
511.4934859999999
 21
291.8
 31
0.0
  0
LINE
  5
4AD
330
497
100
AcDbEntity
  8
LC-001-002-----0
 62
     7
370
    35
100
AcDbLine
 10
501.711705
 20
291.9
 30
0.0
 11
511.4803199999999
 21
291.9
 31
0.0
  0
LINE
  5
4AE
330
497
100
AcDbEntity
  8
LC-001-002-----0
 62
     7
370
    35
100
AcDbLine
 10
501.72487
 20
292.0
 30
0.0
 11
511.4671549999999
 21
292.0
 31
0.0
  0
LINE
  5
4AF
330
497
100
AcDbEntity
  8
LC-001-002-----0
 62
     7
370
    35
100
AcDbLine
 10
501.738036
 20
292.1
 30
0.0
 11
511.45399
 21
292.1
 31
0.0
  0
LINE
  5
4B0
330
497
100
AcDbEntity
  8
LC-001-002-----0
 62
     7
370
    35
100
AcDbLine
 10
501.7512009999999
 20
292.2
 30
0.0
 11
511.440825
 21
292.2
 31
0.0
  0
LINE
  5
4B1
330
497
100
AcDbEntity
  8
LC-001-002-----0
 62
     7
370
    35
100
AcDbLine
 10
501.764366
 20
292.3
 30
0.0
 11
511.427659
 21
292.3
 31
0.0
  0
LINE
  5
4B2
330
497
100
AcDbEntity
  8
LC-001-002-----0
 62
     7
370
    35
100
AcDbLine
 10
501.7775309999999
 20
292.4
 30
0.0
 11
511.414494
 21
292.4
 31
0.0
  0
LINE
  5
4B3
330
497
100
AcDbEntity
  8
LC-001-002-----0
 62
     7
370
    35
100
AcDbLine
 10
501.7906969999999
 20
292.5
 30
0.0
 11
511.4013289999999
 21
292.5
 31
0.0
  0
LINE
  5
4B4
330
497
100
AcDbEntity
  8
LC-001-002-----0
 62
     7
370
    35
100
AcDbLine
 10
501.803862
 20
292.6
 30
0.0
 11
511.3881639999999
 21
292.6
 31
0.0
  0
LINE
  5
4B5
330
497
100
AcDbEntity
  8
LC-001-002-----0
 62
     7
370
    35
100
AcDbLine
 10
501.8170269999999
 20
292.7
 30
0.0
 11
511.374998
 21
292.7
 31
0.0
  0
LINE
  5
4B6
330
497
100
AcDbEntity
  8
LC-001-002-----0
 62
     7
370
    35
100
AcDbLine
 10
501.8301919999999
 20
292.8
 30
0.0
 11
511.361833
 21
292.8
 31
0.0
  0
LINE
  5
4B7
330
497
100
AcDbEntity
  8
LC-001-002-----0
 62
     7
370
    35
100
AcDbLine
 10
501.8433579999999
 20
292.9
 30
0.0
 11
511.348668
 21
292.9
 31
0.0
  0
LINE
  5
4B8
330
497
100
AcDbEntity
  8
LC-001-002-----0
 62
     7
370
    35
100
AcDbLine
 10
501.856523
 20
293.0
 30
0.0
 11
511.335503
 21
293.0
 31
0.0
  0
LINE
  5
4B9
330
497
100
AcDbEntity
  8
LC-001-002-----0
 62
     7
370
    35
100
AcDbLine
 10
501.869688
 20
293.1
 30
0.0
 11
511.322337
 21
293.1
 31
0.0
  0
LINE
  5
4BA
330
497
100
AcDbEntity
  8
LC-001-002-----0
 62
     7
370
    35
100
AcDbLine
 10
501.882853
 20
293.2
 30
0.0
 11
511.3091719999999
 21
293.2
 31
0.0
  0
LINE
  5
4BB
330
497
100
AcDbEntity
  8
LC-001-002-----0
 62
     7
370
    35
100
AcDbLine
 10
501.896019
 20
293.3
 30
0.0
 11
511.296007
 21
293.3
 31
0.0
  0
LINE
  5
4BC
330
497
100
AcDbEntity
  8
LC-001-002-----0
 62
     7
370
    35
100
AcDbLine
 10
501.9091839999999
 20
293.4
 30
0.0
 11
511.282842
 21
293.4
 31
0.0
  0
LINE
  5
4BD
330
497
100
AcDbEntity
  8
LC-001-002-----0
 62
     7
370
    35
100
AcDbLine
 10
501.9223489999999
 20
293.5
 30
0.0
 11
511.269676
 21
293.5
 31
0.0
  0
LINE
  5
4BE
330
497
100
AcDbEntity
  8
LC-001-002-----0
 62
     7
370
    35
100
AcDbLine
 10
501.935514
 20
293.6
 30
0.0
 11
511.256511
 21
293.6
 31
0.0
  0
LINE
  5
4BF
330
497
100
AcDbEntity
  8
LC-001-002-----0
 62
     7
370
    35
100
AcDbLine
 10
501.94868
 20
293.7
 30
0.0
 11
511.243346
 21
293.7
 31
0.0
  0
LINE
  5
4C0
330
497
100
AcDbEntity
  8
LC-001-002-----0
 62
     7
370
    35
100
AcDbLine
 10
501.961845
 20
293.8
 30
0.0
 11
511.2301809999999
 21
293.8
 31
0.0
  0
LINE
  5
4C1
330
497
100
AcDbEntity
  8
LC-001-002-----0
 62
     7
370
    35
100
AcDbLine
 10
501.9750099999999
 20
293.9
 30
0.0
 11
511.217015
 21
293.9
 31
0.0
  0
LINE
  5
4C2
330
497
100
AcDbEntity
  8
LC-001-002-----0
 62
     7
370
    35
100
AcDbLine
 10
501.988175
 20
294.0
 30
0.0
 11
511.2038499999999
 21
294.0
 31
0.0
  0
LINE
  5
4C3
330
497
100
AcDbEntity
  8
LC-001-002-----0
 62
     7
370
    35
100
AcDbLine
 10
502.001341
 20
294.1
 30
0.0
 11
511.1906849999999
 21
294.1
 31
0.0
  0
LINE
  5
4C4
330
497
100
AcDbEntity
  8
LC-001-002-----0
 62
     7
370
    35
100
AcDbLine
 10
502.0145059999999
 20
294.2
 30
0.0
 11
511.17752
 21
294.2
 31
0.0
  0
LINE
  5
4C5
330
497
100
AcDbEntity
  8
LC-001-002-----0
 62
     7
370
    35
100
AcDbLine
 10
502.027671
 20
294.3
 30
0.0
 11
511.164354
 21
294.3
 31
0.0
  0
LINE
  5
4C6
330
497
100
AcDbEntity
  8
LC-001-002-----0
 62
     7
370
    35
100
AcDbLine
 10
502.040836
 20
294.4
 30
0.0
 11
511.151189
 21
294.4
 31
0.0
  0
LINE
  5
4C7
330
497
100
AcDbEntity
  8
LC-001-002-----0
 62
     7
370
    35
100
AcDbLine
 10
502.0540019999999
 20
294.5
 30
0.0
 11
511.138024
 21
294.5
 31
0.0
  0
LINE
  5
4C8
330
497
100
AcDbEntity
  8
LC-001-002-----0
 62
     7
370
    35
100
AcDbLine
 10
502.0671669999999
 20
294.6
 30
0.0
 11
511.1248589999999
 21
294.6
 31
0.0
  0
LINE
  5
4C9
330
497
100
AcDbEntity
  8
LC-001-002-----0
 62
     7
370
    35
100
AcDbLine
 10
502.080332
 20
294.7
 30
0.0
 11
511.1116929999999
 21
294.7
 31
0.0
  0
LINE
  5
4CA
330
497
100
AcDbEntity
  8
LC-001-002-----0
 62
     7
370
    35
100
AcDbLine
 10
502.0934969999999
 20
294.8
 30
0.0
 11
511.098528
 21
294.8
 31
0.0
  0
LINE
  5
4CB
330
497
100
AcDbEntity
  8
LC-001-002-----0
 62
     7
370
    35
100
AcDbLine
 10
502.1066629999999
 20
294.9
 30
0.0
 11
511.085363
 21
294.9
 31
0.0
  0
LINE
  5
4CC
330
497
100
AcDbEntity
  8
LC-001-002-----0
 62
     7
370
    35
100
AcDbLine
 10
502.119828
 20
295.0
 30
0.0
 11
511.072198
 21
295.0
 31
0.0
  0
LINE
  5
4CD
330
497
100
AcDbEntity
  8
LC-001-002-----0
 62
     7
370
    35
100
AcDbLine
 10
502.1329929999999
 20
295.1
 30
0.0
 11
511.059032
 21
295.1
 31
0.0
  0
LINE
  5
4CE
330
497
100
AcDbEntity
  8
LC-001-002-----0
 62
     7
370
    35
100
AcDbLine
 10
502.146158
 20
295.2
 30
0.0
 11
511.0458669999999
 21
295.2
 31
0.0
  0
LINE
  5
4CF
330
497
100
AcDbEntity
  8
LC-001-002-----0
 62
     7
370
    35
100
AcDbLine
 10
502.159324
 20
295.3
 30
0.0
 11
511.0327019999999
 21
295.3
 31
0.0
  0
LINE
  5
4D0
330
497
100
AcDbEntity
  8
LC-001-002-----0
 62
     7
370
    35
100
AcDbLine
 10
502.1724889999999
 20
295.4
 30
0.0
 11
511.019537
 21
295.4
 31
0.0
  0
LINE
  5
4D1
330
497
100
AcDbEntity
  8
LC-001-002-----0
 62
     7
370
    35
100
AcDbLine
 10
502.1856539999999
 20
295.5
 30
0.0
 11
511.006371
 21
295.5
 31
0.0
  0
LINE
  5
4D2
330
497
100
AcDbEntity
  8
LC-001-002-----0
 62
     7
370
    35
100
AcDbLine
 10
502.198819
 20
295.6
 30
0.0
 11
510.993206
 21
295.6
 31
0.0
  0
LINE
  5
4D3
330
497
100
AcDbEntity
  8
LC-001-002-----0
 62
     7
370
    35
100
AcDbLine
 10
502.211985
 20
295.7
 30
0.0
 11
510.980041
 21
295.7
 31
0.0
  0
LINE
  5
4D4
330
497
100
AcDbEntity
  8
LC-001-002-----0
 62
     7
370
    35
100
AcDbLine
 10
502.22515
 20
295.8
 30
0.0
 11
510.9668759999999
 21
295.8
 31
0.0
  0
LINE
  5
4D5
330
497
100
AcDbEntity
  8
LC-001-002-----0
 62
     7
370
    35
100
AcDbLine
 10
502.238315
 20
295.8999999999999
 30
0.0
 11
510.9537099999999
 21
295.8999999999999
 31
0.0
  0
LINE
  5
4D6
330
497
100
AcDbEntity
  8
LC-001-002-----0
 62
     7
370
    35
100
AcDbLine
 10
502.2514799999999
 20
296.0
 30
0.0
 11
510.940545
 21
296.0
 31
0.0
  0
LINE
  5
4D7
330
497
100
AcDbEntity
  8
LC-001-002-----0
 62
     7
370
    35
100
AcDbLine
 10
502.2646459999999
 20
296.1
 30
0.0
 11
510.9273799999999
 21
296.1
 31
0.0
  0
LINE
  5
4D8
330
497
100
AcDbEntity
  8
LC-001-002-----0
 62
     7
370
    35
100
AcDbLine
 10
502.277811
 20
296.2
 30
0.0
 11
510.914215
 21
296.2
 31
0.0
  0
LINE
  5
4D9
330
497
100
AcDbEntity
  8
LC-001-002-----0
 62
     7
370
    35
100
AcDbLine
 10
502.290976
 20
296.3
 30
0.0
 11
510.901049
 21
296.3
 31
0.0
  0
LINE
  5
4DA
330
497
100
AcDbEntity
  8
LC-001-002-----0
 62
     7
370
    35
100
AcDbLine
 10
502.304141
 20
296.4
 30
0.0
 11
510.887884
 21
296.4
 31
0.0
  0
LINE
  5
4DB
330
497
100
AcDbEntity
  8
LC-001-002-----0
 62
     7
370
    35
100
AcDbLine
 10
502.317307
 20
296.5
 30
0.0
 11
510.874719
 21
296.5
 31
0.0
  0
LINE
  5
4DC
330
497
100
AcDbEntity
  8
LC-001-002-----0
 62
     7
370
    35
100
AcDbLine
 10
502.3304719999999
 20
296.6
 30
0.0
 11
510.861554
 21
296.6
 31
0.0
  0
LINE
  5
4DD
330
497
100
AcDbEntity
  8
LC-001-002-----0
 62
     7
370
    35
100
AcDbLine
 10
502.3436369999999
 20
296.7
 30
0.0
 11
510.848388
 21
296.7
 31
0.0
  0
LINE
  5
4DE
330
497
100
AcDbEntity
  8
LC-001-002-----0
 62
     7
370
    35
100
AcDbLine
 10
502.3568019999999
 20
296.8
 30
0.0
 11
510.835223
 21
296.8
 31
0.0
  0
LINE
  5
4DF
330
497
100
AcDbEntity
  8
LC-001-002-----0
 62
     7
370
    35
100
AcDbLine
 10
502.369968
 20
296.9
 30
0.0
 11
510.822058
 21
296.9
 31
0.0
  0
LINE
  5
4E0
330
497
100
AcDbEntity
  8
LC-001-002-----0
 62
     7
370
    35
100
AcDbLine
 10
502.383133
 20
297.0
 30
0.0
 11
510.808893
 21
297.0
 31
0.0
  0
LINE
  5
4E1
330
497
100
AcDbEntity
  8
LC-001-002-----0
 62
     7
370
    35
100
AcDbLine
 10
502.396298
 20
297.1
 30
0.0
 11
510.7957269999999
 21
297.1
 31
0.0
  0
LINE
  5
4E2
330
497
100
AcDbEntity
  8
LC-001-002-----0
 62
     7
370
    35
100
AcDbLine
 10
502.409463
 20
297.2
 30
0.0
 11
510.7825619999999
 21
297.2
 31
0.0
  0
LINE
  5
4E3
330
497
100
AcDbEntity
  8
LC-001-002-----0
 62
     7
370
    35
100
AcDbLine
 10
502.422629
 20
297.3
 30
0.0
 11
510.7693969999999
 21
297.3
 31
0.0
  0
LINE
  5
4E4
330
497
100
AcDbEntity
  8
LC-001-002-----0
 62
     7
370
    35
100
AcDbLine
 10
502.435794
 20
297.4
 30
0.0
 11
510.756232
 21
297.4
 31
0.0
  0
LINE
  5
4E5
330
497
100
AcDbEntity
  8
LC-001-002-----0
 62
     7
370
    35
100
AcDbLine
 10
502.4489589999999
 20
297.5
 30
0.0
 11
510.743066
 21
297.5
 31
0.0
  0
LINE
  5
4E6
330
497
100
AcDbEntity
  8
LC-001-002-----0
 62
     7
370
    35
100
AcDbLine
 10
502.462124
 20
297.6
 30
0.0
 11
510.729901
 21
297.6
 31
0.0
  0
LINE
  5
4E7
330
497
100
AcDbEntity
  8
LC-001-002-----0
 62
     7
370
    35
100
AcDbLine
 10
502.47529
 20
297.7
 30
0.0
 11
510.716736
 21
297.7
 31
0.0
  0
LINE
  5
4E8
330
497
100
AcDbEntity
  8
LC-001-002-----0
 62
     7
370
    35
100
AcDbLine
 10
502.488455
 20
297.8
 30
0.0
 11
510.7035709999999
 21
297.8
 31
0.0
  0
LINE
  5
4E9
330
497
100
AcDbEntity
  8
LC-001-002-----0
 62
     7
370
    35
100
AcDbLine
 10
502.50162
 20
297.9
 30
0.0
 11
510.6904049999999
 21
297.9
 31
0.0
  0
LINE
  5
4EA
330
497
100
AcDbEntity
  8
LC-001-002-----0
 62
     7
370
    35
100
AcDbLine
 10
502.5147849999999
 20
298.0
 30
0.0
 11
510.67724
 21
298.0
 31
0.0
  0
LINE
  5
4EB
330
497
100
AcDbEntity
  8
LC-001-002-----0
 62
     7
370
    35
100
AcDbLine
 10
502.5279509999999
 20
298.1
 30
0.0
 11
510.664075
 21
298.1
 31
0.0
  0
LINE
  5
4EC
330
497
100
AcDbEntity
  8
LC-001-002-----0
 62
     7
370
    35
100
AcDbLine
 10
502.5411159999999
 20
298.2
 30
0.0
 11
510.6509099999999
 21
298.2
 31
0.0
  0
LINE
  5
4ED
330
497
100
AcDbEntity
  8
LC-001-002-----0
 62
     7
370
    35
100
AcDbLine
 10
502.5542809999999
 20
298.3
 30
0.0
 11
510.6377440000001
 21
298.3
 31
0.0
  0
LINE
  5
4EE
330
497
100
AcDbEntity
  8
LC-001-002-----0
 62
     7
370
    35
100
AcDbLine
 10
502.567446
 20
298.4
 30
0.0
 11
510.624579
 21
298.4
 31
0.0
  0
LINE
  5
4EF
330
497
100
AcDbEntity
  8
LC-001-002-----0
 62
     7
370
    35
100
AcDbLine
 10
502.580612
 20
298.5
 30
0.0
 11
510.6114139999999
 21
298.5
 31
0.0
  0
LINE
  5
4F0
330
497
100
AcDbEntity
  8
LC-001-002-----0
 62
     7
370
    35
100
AcDbLine
 10
502.5937769999999
 20
298.6
 30
0.0
 11
510.598249
 21
298.6
 31
0.0
  0
LINE
  5
4F1
330
497
100
AcDbEntity
  8
LC-001-002-----0
 62
     7
370
    35
100
AcDbLine
 10
502.6069419999999
 20
298.7
 30
0.0
 11
510.585083
 21
298.7
 31
0.0
  0
LINE
  5
4F2
330
497
100
AcDbEntity
  8
LC-001-002-----0
 62
     7
370
    35
100
AcDbLine
 10
502.6201069999999
 20
298.8
 30
0.0
 11
510.571918
 21
298.8
 31
0.0
  0
LINE
  5
4F3
330
497
100
AcDbEntity
  8
LC-001-002-----0
 62
     7
370
    35
100
AcDbLine
 10
502.633273
 20
298.9
 30
0.0
 11
510.558753
 21
298.9
 31
0.0
  0
LINE
  5
4F4
330
497
100
AcDbEntity
  8
LC-001-002-----0
 62
     7
370
    35
100
AcDbLine
 10
502.646438
 20
299.0
 30
0.0
 11
510.545588
 21
299.0
 31
0.0
  0
LINE
  5
4F5
330
497
100
AcDbEntity
  8
LC-001-002-----0
 62
     7
370
    35
100
AcDbLine
 10
502.659603
 20
299.1
 30
0.0
 11
510.5324219999999
 21
299.1
 31
0.0
  0
LINE
  5
4F6
330
497
100
AcDbEntity
  8
LC-001-002-----0
 62
     7
370
    35
100
AcDbLine
 10
502.6727679999999
 20
299.2
 30
0.0
 11
510.519257
 21
299.2
 31
0.0
  0
LINE
  5
4F7
330
497
100
AcDbEntity
  8
LC-001-002-----0
 62
     7
370
    35
100
AcDbLine
 10
502.6859339999999
 20
299.3
 30
0.0
 11
510.5060919999999
 21
299.3
 31
0.0
  0
LINE
  5
4F8
330
497
100
AcDbEntity
  8
LC-001-002-----0
 62
     7
370
    35
100
AcDbLine
 10
502.699099
 20
299.4
 30
0.0
 11
510.4929269999999
 21
299.4
 31
0.0
  0
LINE
  5
4F9
330
497
100
AcDbEntity
  8
LC-001-002-----0
 62
     7
370
    35
100
AcDbLine
 10
502.7122639999999
 20
299.5
 30
0.0
 11
510.479761
 21
299.5
 31
0.0
  0
LINE
  5
4FA
330
497
100
AcDbEntity
  8
LC-001-002-----0
 62
     7
370
    35
100
AcDbLine
 10
502.725429
 20
299.6
 30
0.0
 11
510.466596
 21
299.6
 31
0.0
  0
LINE
  5
4FB
330
497
100
AcDbEntity
  8
LC-001-002-----0
 62
     7
370
    35
100
AcDbLine
 10
502.738595
 20
299.7
 30
0.0
 11
510.453431
 21
299.7
 31
0.0
  0
LINE
  5
4FC
330
497
100
AcDbEntity
  8
LC-001-002-----0
 62
     7
370
    35
100
AcDbLine
 10
502.75176
 20
299.8
 30
0.0
 11
510.4402659999999
 21
299.8
 31
0.0
  0
LINE
  5
4FD
330
497
100
AcDbEntity
  8
LC-001-002-----0
 62
     7
370
    35
100
AcDbLine
 10
502.764925
 20
299.9
 30
0.0
 11
510.4270999999999
 21
299.9
 31
0.0
  0
LINE
  5
4FE
330
497
100
AcDbEntity
  8
LC-001-002-----0
 62
     7
370
    35
100
AcDbLine
 10
502.77809
 20
300.0
 30
0.0
 11
510.4139349999999
 21
300.0
 31
0.0
  0
LINE
  5
4FF
330
497
100
AcDbEntity
  8
LC-001-002-----0
 62
     7
370
    35
100
AcDbLine
 10
502.7912559999999
 20
300.1
 30
0.0
 11
510.40077
 21
300.1
 31
0.0
  0
LINE
  5
500
330
497
100
AcDbEntity
  8
LC-001-002-----0
 62
     7
370
    35
100
AcDbLine
 10
502.804421
 20
300.2
 30
0.0
 11
510.387605
 21
300.2
 31
0.0
  0
LINE
  5
501
330
497
100
AcDbEntity
  8
LC-001-002-----0
 62
     7
370
    35
100
AcDbLine
 10
502.817586
 20
300.3
 30
0.0
 11
510.3744389999999
 21
300.3
 31
0.0
  0
LINE
  5
502
330
497
100
AcDbEntity
  8
LC-001-002-----0
 62
     7
370
    35
100
AcDbLine
 10
502.8307509999999
 20
300.4
 30
0.0
 11
510.361274
 21
300.4
 31
0.0
  0
LINE
  5
503
330
497
100
AcDbEntity
  8
LC-001-002-----0
 62
     7
370
    35
100
AcDbLine
 10
502.8439169999999
 20
300.5
 30
0.0
 11
510.3481089999999
 21
300.5
 31
0.0
  0
LINE
  5
504
330
497
100
AcDbEntity
  8
LC-001-002-----0
 62
     7
370
    35
100
AcDbLine
 10
502.857082
 20
300.6
 30
0.0
 11
510.334944
 21
300.6
 31
0.0
  0
LINE
  5
505
330
497
100
AcDbEntity
  8
LC-001-002-----0
 62
     7
370
    35
100
AcDbLine
 10
502.8702469999999
 20
300.7
 30
0.0
 11
510.321778
 21
300.7
 31
0.0
  0
LINE
  5
506
330
497
100
AcDbEntity
  8
LC-001-002-----0
 62
     7
370
    35
100
AcDbLine
 10
502.8834119999999
 20
300.8
 30
0.0
 11
510.308613
 21
300.8
 31
0.0
  0
LINE
  5
507
330
497
100
AcDbEntity
  8
LC-001-002-----0
 62
     7
370
    35
100
AcDbLine
 10
502.896578
 20
300.9
 30
0.0
 11
510.295448
 21
300.9
 31
0.0
  0
LINE
  5
508
330
497
100
AcDbEntity
  8
LC-001-002-----0
 62
     7
370
    35
100
AcDbLine
 10
502.909743
 20
301.0
 30
0.0
 11
510.282283
 21
301.0
 31
0.0
  0
LINE
  5
509
330
497
100
AcDbEntity
  8
LC-001-002-----0
 62
     7
370
    35
100
AcDbLine
 10
502.922908
 20
301.1
 30
0.0
 11
510.2691169999999
 21
301.1
 31
0.0
  0
LINE
  5
50A
330
497
100
AcDbEntity
  8
LC-001-002-----0
 62
     7
370
    35
100
AcDbLine
 10
502.936073
 20
301.2
 30
0.0
 11
510.2559519999999
 21
301.2
 31
0.0
  0
LINE
  5
50B
330
497
100
AcDbEntity
  8
LC-001-002-----0
 62
     7
370
    35
100
AcDbLine
 10
502.9492389999999
 20
301.3
 30
0.0
 11
510.242787
 21
301.3
 31
0.0
  0
LINE
  5
50C
330
497
100
AcDbEntity
  8
LC-001-002-----0
 62
     7
370
    35
100
AcDbLine
 10
502.9624039999999
 20
301.4
 30
0.0
 11
510.2296219999999
 21
301.4
 31
0.0
  0
LINE
  5
50D
330
497
100
AcDbEntity
  8
LC-001-002-----0
 62
     7
370
    35
100
AcDbLine
 10
502.975569
 20
301.5
 30
0.0
 11
510.2164559999999
 21
301.5
 31
0.0
  0
LINE
  5
50E
330
497
100
AcDbEntity
  8
LC-001-002-----0
 62
     7
370
    35
100
AcDbLine
 10
502.988734
 20
301.6
 30
0.0
 11
510.203291
 21
301.6
 31
0.0
  0
LINE
  5
50F
330
497
100
AcDbEntity
  8
LC-001-002-----0
 62
     7
370
    35
100
AcDbLine
 10
503.0019
 20
301.7
 30
0.0
 11
510.1901259999999
 21
301.7
 31
0.0
  0
LINE
  5
510
330
497
100
AcDbEntity
  8
LC-001-002-----0
 62
     7
370
    35
100
AcDbLine
 10
503.015065
 20
301.8
 30
0.0
 11
510.1769609999999
 21
301.8
 31
0.0
  0
LINE
  5
511
330
497
100
AcDbEntity
  8
LC-001-002-----0
 62
     7
370
    35
100
AcDbLine
 10
503.02823
 20
301.9
 30
0.0
 11
510.1637949999999
 21
301.9
 31
0.0
  0
LINE
  5
512
330
497
100
AcDbEntity
  8
LC-001-002-----0
 62
     7
370
    35
100
AcDbLine
 10
503.041395
 20
302.0
 30
0.0
 11
510.1506299999999
 21
302.0
 31
0.0
  0
LINE
  5
513
330
497
100
AcDbEntity
  8
LC-001-002-----0
 62
     7
370
    35
100
AcDbLine
 10
503.054561
 20
302.1
 30
0.0
 11
510.137465
 21
302.1
 31
0.0
  0
LINE
  5
514
330
497
100
AcDbEntity
  8
LC-001-002-----0
 62
     7
370
    35
100
AcDbLine
 10
503.067726
 20
302.2
 30
0.0
 11
510.1243
 21
302.2
 31
0.0
  0
LINE
  5
515
330
497
100
AcDbEntity
  8
LC-001-002-----0
 62
     7
370
    35
100
AcDbLine
 10
503.080891
 20
302.3
 30
0.0
 11
510.111134
 21
302.3
 31
0.0
  0
LINE
  5
516
330
497
100
AcDbEntity
  8
LC-001-002-----0
 62
     7
370
    35
100
AcDbLine
 10
503.0940559999999
 20
302.4
 30
0.0
 11
510.097969
 21
302.4
 31
0.0
  0
LINE
  5
517
330
497
100
AcDbEntity
  8
LC-001-002-----0
 62
     7
370
    35
100
AcDbLine
 10
503.1072219999999
 20
302.5
 30
0.0
 11
510.084804
 21
302.5
 31
0.0
  0
LINE
  5
518
330
497
100
AcDbEntity
  8
LC-001-002-----0
 62
     7
370
    35
100
AcDbLine
 10
503.1203869999999
 20
302.6
 30
0.0
 11
510.0716389999999
 21
302.6
 31
0.0
  0
LINE
  5
519
330
497
100
AcDbEntity
  8
LC-001-002-----0
 62
     7
370
    35
100
AcDbLine
 10
503.1335519999999
 20
302.7
 30
0.0
 11
510.058473
 21
302.7
 31
0.0
  0
LINE
  5
51A
330
497
100
AcDbEntity
  8
LC-001-002-----0
 62
     7
370
    35
100
AcDbLine
 10
503.1467169999999
 20
302.8
 30
0.0
 11
510.045308
 21
302.8
 31
0.0
  0
LINE
  5
51B
330
497
100
AcDbEntity
  8
LC-001-002-----0
 62
     7
370
    35
100
AcDbLine
 10
503.159883
 20
302.9
 30
0.0
 11
510.032143
 21
302.9
 31
0.0
  0
LINE
  5
51C
330
497
100
AcDbEntity
  8
LC-001-002-----0
 62
     7
370
    35
100
AcDbLine
 10
503.173048
 20
303.0
 30
0.0
 11
510.018978
 21
303.0
 31
0.0
  0
LINE
  5
51D
330
497
100
AcDbEntity
  8
LC-001-002-----0
 62
     7
370
    35
100
AcDbLine
 10
503.186213
 20
303.1
 30
0.0
 11
510.0058119999999
 21
303.1
 31
0.0
  0
LINE
  5
51E
330
497
100
AcDbEntity
  8
LC-001-002-----0
 62
     7
370
    35
100
AcDbLine
 10
503.199378
 20
303.2
 30
0.0
 11
509.9926469999999
 21
303.2
 31
0.0
  0
LINE
  5
51F
330
497
100
AcDbEntity
  8
LC-001-002-----0
 62
     7
370
    35
100
AcDbLine
 10
503.212544
 20
303.3
 30
0.0
 11
509.979482
 21
303.3
 31
0.0
  0
LINE
  5
520
330
497
100
AcDbEntity
  8
LC-001-002-----0
 62
     7
370
    35
100
AcDbLine
 10
503.2257089999999
 20
303.4
 30
0.0
 11
509.966317
 21
303.4
 31
0.0
  0
LINE
  5
521
330
497
100
AcDbEntity
  8
LC-001-002-----0
 62
     7
370
    35
100
AcDbLine
 10
503.238874
 20
303.5
 30
0.0
 11
509.953151
 21
303.5
 31
0.0
  0
LINE
  5
522
330
497
100
AcDbEntity
  8
LC-001-002-----0
 62
     7
370
    35
100
AcDbLine
 10
503.252039
 20
303.6
 30
0.0
 11
509.939986
 21
303.6
 31
0.0
  0
LINE
  5
523
330
497
100
AcDbEntity
  8
LC-001-002-----0
 62
     7
370
    35
100
AcDbLine
 10
503.265205
 20
303.7
 30
0.0
 11
509.9268209999999
 21
303.7
 31
0.0
  0
LINE
  5
524
330
497
100
AcDbEntity
  8
LC-001-002-----0
 62
     7
370
    35
100
AcDbLine
 10
503.27837
 20
303.8
 30
0.0
 11
509.9136559999999
 21
303.8
 31
0.0
  0
LINE
  5
525
330
497
100
AcDbEntity
  8
LC-001-002-----0
 62
     7
370
    35
100
AcDbLine
 10
503.2915349999999
 20
303.9
 30
0.0
 11
509.90049
 21
303.9
 31
0.0
  0
LINE
  5
526
330
497
100
AcDbEntity
  8
LC-001-002-----0
 62
     7
370
    35
100
AcDbLine
 10
503.3047
 20
304.0
 30
0.0
 11
509.8873249999999
 21
304.0
 31
0.0
  0
LINE
  5
527
330
497
100
AcDbEntity
  8
LC-001-002-----0
 62
     7
370
    35
100
AcDbLine
 10
503.317866
 20
304.1
 30
0.0
 11
509.8741599999999
 21
304.1
 31
0.0
  0
LINE
  5
528
330
497
100
AcDbEntity
  8
LC-001-002-----0
 62
     7
370
    35
100
AcDbLine
 10
503.3310309999999
 20
304.2
 30
0.0
 11
509.860995
 21
304.2
 31
0.0
  0
LINE
  5
529
330
497
100
AcDbEntity
  8
LC-001-002-----0
 62
     7
370
    35
100
AcDbLine
 10
503.344196
 20
304.3
 30
0.0
 11
509.847829
 21
304.3
 31
0.0
  0
LINE
  5
52A
330
497
100
AcDbEntity
  8
LC-001-002-----0
 62
     7
370
    35
100
AcDbLine
 10
503.357361
 20
304.4
 30
0.0
 11
509.8346639999999
 21
304.4
 31
0.0
  0
LINE
  5
52B
330
497
100
AcDbEntity
  8
LC-001-002-----0
 62
     7
370
    35
100
AcDbLine
 10
503.3705269999999
 20
304.5
 30
0.0
 11
509.821499
 21
304.5
 31
0.0
  0
LINE
  5
52C
330
497
100
AcDbEntity
  8
LC-001-002-----0
 62
     7
370
    35
100
AcDbLine
 10
503.3836919999999
 20
304.6
 30
0.0
 11
509.808334
 21
304.6
 31
0.0
  0
LINE
  5
52D
330
497
100
AcDbEntity
  8
LC-001-002-----0
 62
     7
370
    35
100
AcDbLine
 10
503.3968569999999
 20
304.7
 30
0.0
 11
509.795168
 21
304.7
 31
0.0
  0
LINE
  5
52E
330
497
100
AcDbEntity
  8
LC-001-002-----0
 62
     7
370
    35
100
AcDbLine
 10
503.410022
 20
304.8
 30
0.0
 11
509.782003
 21
304.8
 31
0.0
  0
LINE
  5
52F
330
497
100
AcDbEntity
  8
LC-001-002-----0
 62
     7
370
    35
100
AcDbLine
 10
503.423188
 20
304.9
 30
0.0
 11
509.768838
 21
304.9
 31
0.0
  0
LINE
  5
530
330
497
100
AcDbEntity
  8
LC-001-002-----0
 62
     7
370
    35
100
AcDbLine
 10
503.436353
 20
305.0
 30
0.0
 11
509.755673
 21
305.0
 31
0.0
  0
LINE
  5
531
330
497
100
AcDbEntity
  8
LC-001-002-----0
 62
     7
370
    35
100
AcDbLine
 10
503.4495179999999
 20
305.1
 30
0.0
 11
509.742507
 21
305.1
 31
0.0
  0
LINE
  5
532
330
497
100
AcDbEntity
  8
LC-001-002-----0
 62
     7
370
    35
100
AcDbLine
 10
503.462683
 20
305.2
 30
0.0
 11
509.7293419999999
 21
305.2
 31
0.0
  0
LINE
  5
533
330
497
100
AcDbEntity
  8
LC-001-002-----0
 62
     7
370
    35
100
AcDbLine
 10
503.475849
 20
305.3
 30
0.0
 11
509.7161769999999
 21
305.3
 31
0.0
  0
LINE
  5
534
330
497
100
AcDbEntity
  8
LC-001-002-----0
 62
     7
370
    35
100
AcDbLine
 10
503.4890139999999
 20
305.4
 30
0.0
 11
509.703012
 21
305.4
 31
0.0
  0
LINE
  5
535
330
497
100
AcDbEntity
  8
LC-001-002-----0
 62
     7
370
    35
100
AcDbLine
 10
503.502179
 20
305.5
 30
0.0
 11
509.689846
 21
305.5
 31
0.0
  0
LINE
  5
536
330
497
100
AcDbEntity
  8
LC-001-002-----0
 62
     7
370
    35
100
AcDbLine
 10
503.515344
 20
305.6
 30
0.0
 11
509.676681
 21
305.6
 31
0.0
  0
LINE
  5
537
330
497
100
AcDbEntity
  8
LC-001-002-----0
 62
     7
370
    35
100
AcDbLine
 10
503.52851
 20
305.7
 30
0.0
 11
509.6635159999999
 21
305.7
 31
0.0
  0
LINE
  5
538
330
497
100
AcDbEntity
  8
LC-001-002-----0
 62
     7
370
    35
100
AcDbLine
 10
503.541675
 20
305.8
 30
0.0
 11
509.6503509999999
 21
305.8
 31
0.0
  0
LINE
  5
539
330
497
100
AcDbEntity
  8
LC-001-002-----0
 62
     7
370
    35
100
AcDbLine
 10
503.55484
 20
305.9
 30
0.0
 11
509.6371849999999
 21
305.9
 31
0.0
  0
LINE
  5
53A
330
497
100
AcDbEntity
  8
LC-001-002-----0
 62
     7
370
    35
100
AcDbLine
 10
503.5680049999999
 20
306.0
 30
0.0
 11
509.62402
 21
306.0
 31
0.0
  0
LINE
  5
53B
330
497
100
AcDbEntity
  8
LC-001-002-----0
 62
     7
370
    35
100
AcDbLine
 10
503.5811709999999
 20
306.1
 30
0.0
 11
509.6108549999999
 21
306.1
 31
0.0
  0
LINE
  5
53C
330
497
100
AcDbEntity
  8
LC-001-002-----0
 62
     7
370
    35
100
AcDbLine
 10
503.594336
 20
306.2
 30
0.0
 11
509.5976900000001
 21
306.2
 31
0.0
  0
LINE
  5
53D
330
497
100
AcDbEntity
  8
LC-001-002-----0
 62
     7
370
    35
100
AcDbLine
 10
503.6075009999999
 20
306.3
 30
0.0
 11
509.584524
 21
306.3
 31
0.0
  0
LINE
  5
53E
330
497
100
AcDbEntity
  8
LC-001-002-----0
 62
     7
370
    35
100
AcDbLine
 10
503.620666
 20
306.4
 30
0.0
 11
509.5713589999999
 21
306.4
 31
0.0
  0
LINE
  5
53F
330
497
100
AcDbEntity
  8
LC-001-002-----0
 62
     7
370
    35
100
AcDbLine
 10
503.633832
 20
306.5
 30
0.0
 11
509.558194
 21
306.5
 31
0.0
  0
LINE
  5
540
330
497
100
AcDbEntity
  8
LC-001-002-----0
 62
     7
370
    35
100
AcDbLine
 10
503.6469969999999
 20
306.6
 30
0.0
 11
509.545029
 21
306.6
 31
0.0
  0
LINE
  5
541
330
497
100
AcDbEntity
  8
LC-001-002-----0
 62
     7
370
    35
100
AcDbLine
 10
503.6601619999999
 20
306.7
 30
0.0
 11
509.531863
 21
306.7
 31
0.0
  0
LINE
  5
542
330
497
100
AcDbEntity
  8
LC-001-002-----0
 62
     7
370
    35
100
AcDbLine
 10
503.673327
 20
306.8
 30
0.0
 11
509.518698
 21
306.8
 31
0.0
  0
LINE
  5
543
330
497
100
AcDbEntity
  8
LC-001-002-----0
 62
     7
370
    35
100
AcDbLine
 10
503.686493
 20
306.9
 30
0.0
 11
509.505533
 21
306.9
 31
0.0
  0
LINE
  5
544
330
497
100
AcDbEntity
  8
LC-001-002-----0
 62
     7
370
    35
100
AcDbLine
 10
503.699658
 20
307.0
 30
0.0
 11
509.4923679999999
 21
307.0
 31
0.0
  0
LINE
  5
545
330
497
100
AcDbEntity
  8
LC-001-002-----0
 62
     7
370
    35
100
AcDbLine
 10
503.712823
 20
307.1
 30
0.0
 11
509.4792019999998
 21
307.1
 31
0.0
  0
LINE
  5
546
330
497
100
AcDbEntity
  8
LC-001-002-----0
 62
     7
370
    35
100
AcDbLine
 10
503.7259879999999
 20
307.2
 30
0.0
 11
509.466037
 21
307.2
 31
0.0
  0
LINE
  5
547
330
497
100
AcDbEntity
  8
LC-001-002-----0
 62
     7
370
    35
100
AcDbLine
 10
503.7391539999999
 20
307.3
 30
0.0
 11
509.4528719999999
 21
307.3
 31
0.0
  0
LINE
  5
548
330
497
100
AcDbEntity
  8
LC-001-002-----0
 62
     7
370
    35
100
AcDbLine
 10
503.752319
 20
307.4
 30
0.0
 11
509.439707
 21
307.4
 31
0.0
  0
LINE
  5
549
330
497
100
AcDbEntity
  8
LC-001-002-----0
 62
     7
370
    35
100
AcDbLine
 10
503.765484
 20
307.5
 30
0.0
 11
509.426541
 21
307.5
 31
0.0
  0
LINE
  5
54A
330
497
100
AcDbEntity
  8
LC-001-002-----0
 62
     7
370
    35
100
AcDbLine
 10
503.778649
 20
307.6
 30
0.0
 11
509.413376
 21
307.6
 31
0.0
  0
LINE
  5
54B
330
497
100
AcDbEntity
  8
LC-001-002-----0
 62
     7
370
    35
100
AcDbLine
 10
503.791815
 20
307.7
 30
0.0
 11
509.4002109999999
 21
307.7
 31
0.0
  0
LINE
  5
54C
330
497
100
AcDbEntity
  8
LC-001-002-----0
 62
     7
370
    35
100
AcDbLine
 10
503.80498
 20
307.8
 30
0.0
 11
509.3870459999999
 21
307.8
 31
0.0
  0
LINE
  5
54D
330
497
100
AcDbEntity
  8
LC-001-002-----0
 62
     7
370
    35
100
AcDbLine
 10
503.818145
 20
307.9
 30
0.0
 11
509.3738799999999
 21
307.9
 31
0.0
  0
LINE
  5
54E
330
497
100
AcDbEntity
  8
LC-001-002-----0
 62
     7
370
    35
100
AcDbLine
 10
503.8313099999999
 20
308.0
 30
0.0
 11
509.360715
 21
308.0
 31
0.0
  0
LINE
  5
54F
330
497
100
AcDbEntity
  8
LC-001-002-----0
 62
     7
370
    35
100
AcDbLine
 10
503.8444759999999
 20
308.1
 30
0.0
 11
509.34755
 21
308.1
 31
0.0
  0
LINE
  5
550
330
497
100
AcDbEntity
  8
LC-001-002-----0
 62
     7
370
    35
100
AcDbLine
 10
503.857641
 20
308.2
 30
0.0
 11
509.3343849999999
 21
308.2
 31
0.0
  0
LINE
  5
551
330
497
100
AcDbEntity
  8
LC-001-002-----0
 62
     7
370
    35
100
AcDbLine
 10
503.8708059999999
 20
308.3
 30
0.0
 11
509.321219
 21
308.3
 31
0.0
  0
LINE
  5
552
330
497
100
AcDbEntity
  8
LC-001-002-----0
 62
     7
370
    35
100
AcDbLine
 10
503.8839709999999
 20
308.4
 30
0.0
 11
509.308054
 21
308.4
 31
0.0
  0
LINE
  5
553
330
497
100
AcDbEntity
  8
LC-001-002-----0
 62
     7
370
    35
100
AcDbLine
 10
503.8971369999999
 20
308.5
 30
0.0
 11
509.2948889999999
 21
308.5
 31
0.0
  0
LINE
  5
554
330
497
100
AcDbEntity
  8
LC-001-002-----0
 62
     7
370
    35
100
AcDbLine
 10
503.9103019999999
 20
308.6
 30
0.0
 11
509.281724
 21
308.6
 31
0.0
  0
LINE
  5
555
330
497
100
AcDbEntity
  8
LC-001-002-----0
 62
     7
370
    35
100
AcDbLine
 10
503.9234669999999
 20
308.7
 30
0.0
 11
509.268558
 21
308.7
 31
0.0
  0
LINE
  5
556
330
497
100
AcDbEntity
  8
LC-001-002-----0
 62
     7
370
    35
100
AcDbLine
 10
503.936632
 20
308.8
 30
0.0
 11
509.255393
 21
308.8
 31
0.0
  0
LINE
  5
557
330
497
100
AcDbEntity
  8
LC-001-002-----0
 62
     7
370
    35
100
AcDbLine
 10
503.949798
 20
308.9
 30
0.0
 11
509.242228
 21
308.9
 31
0.0
  0
LINE
  5
558
330
497
100
AcDbEntity
  8
LC-001-002-----0
 62
     7
370
    35
100
AcDbLine
 10
503.962963
 20
309.0
 30
0.0
 11
509.2290629999999
 21
309.0
 31
0.0
  0
LINE
  5
559
330
497
100
AcDbEntity
  8
LC-001-002-----0
 62
     7
370
    35
100
AcDbLine
 10
503.976128
 20
309.1
 30
0.0
 11
509.2158969999999
 21
309.1
 31
0.0
  0
LINE
  5
55A
330
497
100
AcDbEntity
  8
LC-001-002-----0
 62
     7
370
    35
100
AcDbLine
 10
503.9892929999999
 20
309.2
 30
0.0
 11
509.202732
 21
309.2
 31
0.0
  0
LINE
  5
55B
330
497
100
AcDbEntity
  8
LC-001-002-----0
 62
     7
370
    35
100
AcDbLine
 10
504.0024589999999
 20
309.3
 30
0.0
 11
509.189567
 21
309.3
 31
0.0
  0
LINE
  5
55C
330
497
100
AcDbEntity
  8
LC-001-002-----0
 62
     7
370
    35
100
AcDbLine
 10
504.0156239999999
 20
309.4
 30
0.0
 11
509.1764019999999
 21
309.4
 31
0.0
  0
LINE
  5
55D
330
497
100
AcDbEntity
  8
LC-001-002-----0
 62
     7
370
    35
100
AcDbLine
 10
504.028789
 20
309.5
 30
0.0
 11
509.163236
 21
309.5
 31
0.0
  0
LINE
  5
55E
330
497
100
AcDbEntity
  8
LC-001-002-----0
 62
     7
370
    35
100
AcDbLine
 10
504.041954
 20
309.6
 30
0.0
 11
509.150071
 21
309.6
 31
0.0
  0
LINE
  5
55F
330
497
100
AcDbEntity
  8
LC-001-002-----0
 62
     7
370
    35
100
AcDbLine
 10
504.05512
 20
309.7
 30
0.0
 11
509.1369059999999
 21
309.7
 31
0.0
  0
LINE
  5
560
330
497
100
AcDbEntity
  8
LC-001-002-----0
 62
     7
370
    35
100
AcDbLine
 10
504.0682849999999
 20
309.8
 30
0.0
 11
509.1237409999999
 21
309.8
 31
0.0
  0
LINE
  5
561
330
497
100
AcDbEntity
  8
LC-001-002-----0
 62
     7
370
    35
100
AcDbLine
 10
504.08145
 20
309.9
 30
0.0
 11
509.1105749999999
 21
309.9
 31
0.0
  0
LINE
  5
562
330
497
100
AcDbEntity
  8
LC-001-002-----0
 62
     7
370
    35
100
AcDbLine
 10
504.094615
 20
310.0
 30
0.0
 11
509.0974099999999
 21
310.0
 31
0.0
  0
LINE
  5
563
330
497
100
AcDbEntity
  8
LC-001-002-----0
 62
     7
370
    35
100
AcDbLine
 10
504.1077809999999
 20
310.1
 30
0.0
 11
509.084245
 21
310.1
 31
0.0
  0
LINE
  5
564
330
497
100
AcDbEntity
  8
LC-001-002-----0
 62
     7
370
    35
100
AcDbLine
 10
504.120946
 20
310.2
 30
0.0
 11
509.07108
 21
310.2
 31
0.0
  0
LINE
  5
565
330
497
100
AcDbEntity
  8
LC-001-002-----0
 62
     7
370
    35
100
AcDbLine
 10
504.134111
 20
310.3
 30
0.0
 11
509.057914
 21
310.3
 31
0.0
  0
LINE
  5
566
330
497
100
AcDbEntity
  8
LC-001-002-----0
 62
     7
370
    35
100
AcDbLine
 10
504.1472759999999
 20
310.4
 30
0.0
 11
509.044749
 21
310.4
 31
0.0
  0
LINE
  5
567
330
497
100
AcDbEntity
  8
LC-001-002-----0
 62
     7
370
    35
100
AcDbLine
 10
504.1604419999999
 20
310.5
 30
0.0
 11
509.031584
 21
310.5
 31
0.0
  0
LINE
  5
568
330
497
100
AcDbEntity
  8
LC-001-002-----0
 62
     7
370
    35
100
AcDbLine
 10
504.1736069999999
 20
310.6
 30
0.0
 11
509.018419
 21
310.6
 31
0.0
  0
LINE
  5
569
330
497
100
AcDbEntity
  8
LC-001-002-----0
 62
     7
370
    35
100
AcDbLine
 10
504.1867719999999
 20
310.7
 30
0.0
 11
509.005253
 21
310.7
 31
0.0
  0
LINE
  5
56A
330
497
100
AcDbEntity
  8
LC-001-002-----0
 62
     7
370
    35
100
AcDbLine
 10
504.199937
 20
310.8
 30
0.0
 11
508.992088
 21
310.8
 31
0.0
  0
LINE
  5
56B
330
497
100
AcDbEntity
  8
LC-001-002-----0
 62
     7
370
    35
100
AcDbLine
 10
504.213103
 20
310.9
 30
0.0
 11
508.978923
 21
310.9
 31
0.0
  0
LINE
  5
56C
330
497
100
AcDbEntity
  8
LC-001-002-----0
 62
     7
370
    35
100
AcDbLine
 10
504.2262679999999
 20
311.0
 30
0.0
 11
508.9657579999999
 21
311.0
 31
0.0
  0
LINE
  5
56D
330
497
100
AcDbEntity
  8
LC-001-002-----0
 62
     7
370
    35
100
AcDbLine
 10
504.239433
 20
311.1
 30
0.0
 11
508.9525919999999
 21
311.1
 31
0.0
  0
LINE
  5
56E
330
497
100
AcDbEntity
  8
LC-001-002-----0
 62
     7
370
    35
100
AcDbLine
 10
504.252598
 20
311.2
 30
0.0
 11
508.9394269999999
 21
311.2
 31
0.0
  0
LINE
  5
56F
330
497
100
AcDbEntity
  8
LC-001-002-----0
 62
     7
370
    35
100
AcDbLine
 10
504.2657639999999
 20
311.3
 30
0.0
 11
508.926262
 21
311.3
 31
0.0
  0
LINE
  5
570
330
497
100
AcDbEntity
  8
LC-001-002-----0
 62
     7
370
    35
100
AcDbLine
 10
504.2789289999999
 20
311.4
 30
0.0
 11
508.913097
 21
311.4
 31
0.0
  0
LINE
  5
571
330
497
100
AcDbEntity
  8
LC-001-002-----0
 62
     7
370
    35
100
AcDbLine
 10
504.292094
 20
311.5
 30
0.0
 11
508.899931
 21
311.5
 31
0.0
  0
LINE
  5
572
330
497
100
AcDbEntity
  8
LC-001-002-----0
 62
     7
370
    35
100
AcDbLine
 10
504.305259
 20
311.6
 30
0.0
 11
508.886766
 21
311.6
 31
0.0
  0
LINE
  5
573
330
497
100
AcDbEntity
  8
LC-001-002-----0
 62
     7
370
    35
100
AcDbLine
 10
504.318425
 20
311.7
 30
0.0
 11
508.8736009999999
 21
311.7
 31
0.0
  0
LINE
  5
574
330
497
100
AcDbEntity
  8
LC-001-002-----0
 62
     7
370
    35
100
AcDbLine
 10
504.33159
 20
311.8
 30
0.0
 11
508.860436
 21
311.8
 31
0.0
  0
LINE
  5
575
330
497
100
AcDbEntity
  8
LC-001-002-----0
 62
     7
370
    35
100
AcDbLine
 10
504.3447549999999
 20
311.9
 30
0.0
 11
508.8472709999999
 21
311.9
 31
0.0
  0
LINE
  5
576
330
497
100
AcDbEntity
  8
LC-001-002-----0
 62
     7
370
    35
100
AcDbLine
 10
504.35792
 20
312.0
 30
0.0
 11
508.8341049999999
 21
312.0
 31
0.0
  0
LINE
  5
577
330
497
100
AcDbEntity
  8
LC-001-002-----0
 62
     7
370
    35
100
AcDbLine
 10
504.371086
 20
312.1
 30
0.0
 11
508.8209400000001
 21
312.1
 31
0.0
  0
LINE
  5
578
330
497
100
AcDbEntity
  8
LC-001-002-----0
 62
     7
370
    35
100
AcDbLine
 10
504.3842509999999
 20
312.2
 30
0.0
 11
508.807775
 21
312.2
 31
0.0
  0
LINE
  5
579
330
497
100
AcDbEntity
  8
LC-001-002-----0
 62
     7
370
    35
100
AcDbLine
 10
504.397416
 20
312.3
 30
0.0
 11
508.7946099999999
 21
312.3
 31
0.0
  0
LINE
  5
57A
330
497
100
AcDbEntity
  8
LC-001-002-----0
 62
     7
370
    35
100
AcDbLine
 10
504.4105809999999
 20
312.4
 30
0.0
 11
508.781444
 21
312.4
 31
0.0
  0
LINE
  5
57B
330
497
100
AcDbEntity
  8
LC-001-002-----0
 62
     7
370
    35
100
AcDbLine
 10
504.4237469999999
 20
312.5
 30
0.0
 11
508.768279
 21
312.5
 31
0.0
  0
LINE
  5
57C
330
497
100
AcDbEntity
  8
LC-001-002-----0
 62
     7
370
    35
100
AcDbLine
 10
504.4369119999999
 20
312.6
 30
0.0
 11
508.755114
 21
312.6
 31
0.0
  0
LINE
  5
57D
330
497
100
AcDbEntity
  8
LC-001-002-----0
 62
     7
370
    35
100
AcDbLine
 10
504.4500769999999
 20
312.7
 30
0.0
 11
508.741949
 21
312.7
 31
0.0
  0
LINE
  5
57E
330
497
100
AcDbEntity
  8
LC-001-002-----0
 62
     7
370
    35
100
AcDbLine
 10
504.463242
 20
312.8
 30
0.0
 11
508.728783
 21
312.8
 31
0.0
  0
LINE
  5
57F
330
497
100
AcDbEntity
  8
LC-001-002-----0
 62
     7
370
    35
100
AcDbLine
 10
504.476408
 20
312.9
 30
0.0
 11
508.715618
 21
312.9
 31
0.0
  0
LINE
  5
580
330
497
100
AcDbEntity
  8
LC-001-002-----0
 62
     7
370
    35
100
AcDbLine
 10
504.489573
 20
313.0
 30
0.0
 11
508.702453
 21
313.0
 31
0.0
  0
LINE
  5
581
330
497
100
AcDbEntity
  8
LC-001-002-----0
 62
     7
370
    35
100
AcDbLine
 10
504.5027379999999
 20
313.1
 30
0.0
 11
508.6892879999999
 21
313.1
 31
0.0
  0
LINE
  5
582
330
497
100
AcDbEntity
  8
LC-001-002-----0
 62
     7
370
    35
100
AcDbLine
 10
504.515903
 20
313.2
 30
0.0
 11
508.6761219999999
 21
313.2
 31
0.0
  0
LINE
  5
583
330
497
100
AcDbEntity
  8
LC-001-002-----0
 62
     7
370
    35
100
AcDbLine
 10
504.529069
 20
313.3
 30
0.0
 11
508.662957
 21
313.3
 31
0.0
  0
LINE
  5
584
330
497
100
AcDbEntity
  8
LC-001-002-----0
 62
     7
370
    35
100
AcDbLine
 10
504.542234
 20
313.4
 30
0.0
 11
508.649792
 21
313.4
 31
0.0
  0
LINE
  5
585
330
497
100
AcDbEntity
  8
LC-001-002-----0
 62
     7
370
    35
100
AcDbLine
 10
504.555399
 20
313.5
 30
0.0
 11
508.636627
 21
313.5
 31
0.0
  0
LINE
  5
586
330
497
100
AcDbEntity
  8
LC-001-002-----0
 62
     7
370
    35
100
AcDbLine
 10
504.568564
 20
313.6
 30
0.0
 11
508.6234609999999
 21
313.6
 31
0.0
  0
LINE
  5
587
330
497
100
AcDbEntity
  8
LC-001-002-----0
 62
     7
370
    35
100
AcDbLine
 10
504.58173
 20
313.7
 30
0.0
 11
508.6102959999999
 21
313.7
 31
0.0
  0
LINE
  5
588
330
497
100
AcDbEntity
  8
LC-001-002-----0
 62
     7
370
    35
100
AcDbLine
 10
504.594895
 20
313.8
 30
0.0
 11
508.5971309999999
 21
313.8
 31
0.0
  0
LINE
  5
589
330
497
100
AcDbEntity
  8
LC-001-002-----0
 62
     7
370
    35
100
AcDbLine
 10
504.6080599999999
 20
313.9
 30
0.0
 11
508.583966
 21
313.9
 31
0.0
  0
LINE
  5
58A
330
497
100
AcDbEntity
  8
LC-001-002-----0
 62
     7
370
    35
100
AcDbLine
 10
504.6212249999999
 20
314.0
 30
0.0
 11
508.5708
 21
314.0
 31
0.0
  0
LINE
  5
58B
330
497
100
AcDbEntity
  8
LC-001-002-----0
 62
     7
370
    35
100
AcDbLine
 10
504.634391
 20
314.1
 30
0.0
 11
508.5576349999999
 21
314.1
 31
0.0
  0
LINE
  5
58C
330
497
100
AcDbEntity
  8
LC-001-002-----0
 62
     7
370
    35
100
AcDbLine
 10
504.6475559999999
 20
314.2
 30
0.0
 11
508.54447
 21
314.2
 31
0.0
  0
LINE
  5
58D
330
497
100
AcDbEntity
  8
LC-001-002-----0
 62
     7
370
    35
100
AcDbLine
 10
504.660721
 20
314.3
 30
0.0
 11
508.5313049999999
 21
314.3
 31
0.0
  0
LINE
  5
58E
330
497
100
AcDbEntity
  8
LC-001-002-----0
 62
     7
370
    35
100
AcDbLine
 10
504.673886
 20
314.4
 30
0.0
 11
508.5181389999999
 21
314.4
 31
0.0
  0
LINE
  5
58F
330
497
100
AcDbEntity
  8
LC-001-002-----0
 62
     7
370
    35
100
AcDbLine
 10
504.6870519999999
 20
314.5
 30
0.0
 11
508.504974
 21
314.5
 31
0.0
  0
LINE
  5
590
330
497
100
AcDbEntity
  8
LC-001-002-----0
 62
     7
370
    35
100
AcDbLine
 10
504.7002169999999
 20
314.6
 30
0.0
 11
508.491809
 21
314.6
 31
0.0
  0
LINE
  5
591
330
497
100
AcDbEntity
  8
LC-001-002-----0
 62
     7
370
    35
100
AcDbLine
 10
504.7133819999999
 20
314.7
 30
0.0
 11
508.478644
 21
314.7
 31
0.0
  0
LINE
  5
592
330
497
100
AcDbEntity
  8
LC-001-002-----0
 62
     7
370
    35
100
AcDbLine
 10
504.726547
 20
314.8
 30
0.0
 11
508.465478
 21
314.8
 31
0.0
  0
LINE
  5
593
330
497
100
AcDbEntity
  8
LC-001-002-----0
 62
     7
370
    35
100
AcDbLine
 10
504.739713
 20
314.9
 30
0.0
 11
508.452313
 21
314.9
 31
0.0
  0
LINE
  5
594
330
497
100
AcDbEntity
  8
LC-001-002-----0
 62
     7
370
    35
100
AcDbLine
 10
504.752878
 20
315.0
 30
0.0
 11
508.439148
 21
315.0
 31
0.0
  0
LINE
  5
595
330
497
100
AcDbEntity
  8
LC-001-002-----0
 62
     7
370
    35
100
AcDbLine
 10
504.7660429999999
 20
315.1
 30
0.0
 11
508.425983
 21
315.1
 31
0.0
  0
LINE
  5
596
330
497
100
AcDbEntity
  8
LC-001-002-----0
 62
     7
370
    35
100
AcDbLine
 10
504.7792079999999
 20
315.2
 30
0.0
 11
508.412817
 21
315.2
 31
0.0
  0
LINE
  5
597
330
497
100
AcDbEntity
  8
LC-001-002-----0
 62
     7
370
    35
100
AcDbLine
 10
504.7923739999999
 20
315.3
 30
0.0
 11
508.3996519999999
 21
315.3
 31
0.0
  0
LINE
  5
598
330
497
100
AcDbEntity
  8
LC-001-002-----0
 62
     7
370
    35
100
AcDbLine
 10
504.805539
 20
315.4
 30
0.0
 11
508.386487
 21
315.4
 31
0.0
  0
LINE
  5
599
330
497
100
AcDbEntity
  8
LC-001-002-----0
 62
     7
370
    35
100
AcDbLine
 10
504.818704
 20
315.5
 30
0.0
 11
508.373322
 21
315.5
 31
0.0
  0
LINE
  5
59A
330
497
100
AcDbEntity
  8
LC-001-002-----0
 62
     7
370
    35
100
AcDbLine
 10
504.831869
 20
315.6
 30
0.0
 11
508.3601559999999
 21
315.6
 31
0.0
  0
LINE
  5
59B
330
497
100
AcDbEntity
  8
LC-001-002-----0
 62
     7
370
    35
100
AcDbLine
 10
504.8450349999999
 20
315.7
 30
0.0
 11
508.3469909999999
 21
315.7
 31
0.0
  0
LINE
  5
59C
330
497
100
AcDbEntity
  8
LC-001-002-----0
 62
     7
370
    35
100
AcDbLine
 10
504.8582
 20
315.8
 30
0.0
 11
508.3338259999999
 21
315.8
 31
0.0
  0
LINE
  5
59D
330
497
100
AcDbEntity
  8
LC-001-002-----0
 62
     7
370
    35
100
AcDbLine
 10
504.871365
 20
315.9
 30
0.0
 11
508.320661
 21
315.9
 31
0.0
  0
LINE
  5
59E
330
497
100
AcDbEntity
  8
LC-001-002-----0
 62
     7
370
    35
100
AcDbLine
 10
504.8845299999999
 20
316.0
 30
0.0
 11
508.307495
 21
316.0
 31
0.0
  0
LINE
  5
59F
330
497
100
AcDbEntity
  8
LC-001-002-----0
 62
     7
370
    35
100
AcDbLine
 10
504.897696
 20
316.1
 30
0.0
 11
508.29433
 21
316.1
 31
0.0
  0
LINE
  5
5A0
330
497
100
AcDbEntity
  8
LC-001-002-----0
 62
     7
370
    35
100
AcDbLine
 10
504.910861
 20
316.2
 30
0.0
 11
508.281165
 21
316.2
 31
0.0
  0
LINE
  5
5A1
330
497
100
AcDbEntity
  8
LC-001-002-----0
 62
     7
370
    35
100
AcDbLine
 10
504.9240259999999
 20
316.3
 30
0.0
 11
508.268
 21
316.3
 31
0.0
  0
LINE
  5
5A2
330
497
100
AcDbEntity
  8
LC-001-002-----0
 62
     7
370
    35
100
AcDbLine
 10
504.937191
 20
316.4
 30
0.0
 11
508.2548339999999
 21
316.4
 31
0.0
  0
LINE
  5
5A3
330
497
100
AcDbEntity
  8
LC-001-002-----0
 62
     7
370
    35
100
AcDbLine
 10
504.950357
 20
316.5
 30
0.0
 11
508.241669
 21
316.5
 31
0.0
  0
LINE
  5
5A4
330
497
100
AcDbEntity
  8
LC-001-002-----0
 62
     7
370
    35
100
AcDbLine
 10
504.9635219999999
 20
316.6
 30
0.0
 11
508.228504
 21
316.6
 31
0.0
  0
LINE
  5
5A5
330
497
100
AcDbEntity
  8
LC-001-002-----0
 62
     7
370
    35
100
AcDbLine
 10
504.976687
 20
316.7
 30
0.0
 11
508.215339
 21
316.7
 31
0.0
  0
LINE
  5
5A6
330
497
100
AcDbEntity
  8
LC-001-002-----0
 62
     7
370
    35
100
AcDbLine
 10
504.9898519999999
 20
316.8
 30
0.0
 11
508.2021730000001
 21
316.8
 31
0.0
  0
LINE
  5
5A7
330
497
100
AcDbEntity
  8
LC-001-002-----0
 62
     7
370
    35
100
AcDbLine
 10
505.003018
 20
316.9
 30
0.0
 11
508.1890079999999
 21
316.9
 31
0.0
  0
LINE
  5
5A8
330
497
100
AcDbEntity
  8
LC-001-002-----0
 62
     7
370
    35
100
AcDbLine
 10
505.016183
 20
317.0
 30
0.0
 11
508.1758429999999
 21
317.0
 31
0.0
  0
LINE
  5
5A9
330
497
100
AcDbEntity
  8
LC-001-002-----0
 62
     7
370
    35
100
AcDbLine
 10
505.029348
 20
317.1
 30
0.0
 11
508.162678
 21
317.1
 31
0.0
  0
LINE
  5
5AA
330
497
100
AcDbEntity
  8
LC-001-002-----0
 62
     7
370
    35
100
AcDbLine
 10
505.0425129999999
 20
317.2
 30
0.0
 11
508.149512
 21
317.2
 31
0.0
  0
LINE
  5
5AB
330
497
100
AcDbEntity
  8
LC-001-002-----0
 62
     7
370
    35
100
AcDbLine
 10
505.0556789999999
 20
317.3
 30
0.0
 11
508.136347
 21
317.3
 31
0.0
  0
LINE
  5
5AC
330
497
100
AcDbEntity
  8
LC-001-002-----0
 62
     7
370
    35
100
AcDbLine
 10
505.068844
 20
317.4
 30
0.0
 11
508.123182
 21
317.4
 31
0.0
  0
LINE
  5
5AD
330
497
100
AcDbEntity
  8
LC-001-002-----0
 62
     7
370
    35
100
AcDbLine
 10
505.082009
 20
317.5
 30
0.0
 11
508.110017
 21
317.5
 31
0.0
  0
LINE
  5
5AE
330
497
100
AcDbEntity
  8
LC-001-002-----0
 62
     7
370
    35
100
AcDbLine
 10
505.095174
 20
317.6
 30
0.0
 11
508.0968509999999
 21
317.6
 31
0.0
  0
LINE
  5
5AF
330
497
100
AcDbEntity
  8
LC-001-002-----0
 62
     7
370
    35
100
AcDbLine
 10
505.10834
 20
317.7
 30
0.0
 11
508.083686
 21
317.7
 31
0.0
  0
LINE
  5
5B0
330
497
100
AcDbEntity
  8
LC-001-002-----0
 62
     7
370
    35
100
AcDbLine
 10
505.1215049999999
 20
317.8
 30
0.0
 11
508.0705209999999
 21
317.8
 31
0.0
  0
LINE
  5
5B1
330
497
100
AcDbEntity
  8
LC-001-002-----0
 62
     7
370
    35
100
AcDbLine
 10
505.13467
 20
317.9
 30
0.0
 11
508.0573559999999
 21
317.9
 31
0.0
  0
LINE
  5
5B2
330
497
100
AcDbEntity
  8
LC-001-002-----0
 62
     7
370
    35
100
AcDbLine
 10
505.147835
 20
318.0
 30
0.0
 11
508.04419
 21
318.0
 31
0.0
  0
LINE
  5
5B3
330
497
100
AcDbEntity
  8
LC-001-002-----0
 62
     7
370
    35
100
AcDbLine
 10
505.161001
 20
318.1
 30
0.0
 11
508.031025
 21
318.1
 31
0.0
  0
LINE
  5
5B4
330
497
100
AcDbEntity
  8
LC-001-002-----0
 62
     7
370
    35
100
AcDbLine
 10
505.174166
 20
318.2
 30
0.0
 11
508.0178599999999
 21
318.2
 31
0.0
  0
LINE
  5
5B5
330
497
100
AcDbEntity
  8
LC-001-002-----0
 62
     7
370
    35
100
AcDbLine
 10
505.1873309999999
 20
318.3
 30
0.0
 11
508.004695
 21
318.3
 31
0.0
  0
LINE
  5
5B6
330
497
100
AcDbEntity
  8
LC-001-002-----0
 62
     7
370
    35
100
AcDbLine
 10
505.2004959999999
 20
318.4
 30
0.0
 11
507.991529
 21
318.4
 31
0.0
  0
LINE
  5
5B7
330
497
100
AcDbEntity
  8
LC-001-002-----0
 62
     7
370
    35
100
AcDbLine
 10
505.2136619999999
 20
318.5
 30
0.0
 11
507.9783639999999
 21
318.5
 31
0.0
  0
LINE
  5
5B8
330
497
100
AcDbEntity
  8
LC-001-002-----0
 62
     7
370
    35
100
AcDbLine
 10
505.2268269999999
 20
318.6
 30
0.0
 11
507.965199
 21
318.6
 31
0.0
  0
LINE
  5
5B9
330
497
100
AcDbEntity
  8
LC-001-002-----0
 62
     7
370
    35
100
AcDbLine
 10
505.239992
 20
318.7
 30
0.0
 11
507.952034
 21
318.7
 31
0.0
  0
LINE
  5
5BA
330
497
100
AcDbEntity
  8
LC-001-002-----0
 62
     7
370
    35
100
AcDbLine
 10
505.253157
 20
318.8
 30
0.0
 11
507.938868
 21
318.8
 31
0.0
  0
LINE
  5
5BB
330
497
100
AcDbEntity
  8
LC-001-002-----0
 62
     7
370
    35
100
AcDbLine
 10
505.266323
 20
318.9
 30
0.0
 11
507.9257029999999
 21
318.9
 31
0.0
  0
LINE
  5
5BC
330
497
100
AcDbEntity
  8
LC-001-002-----0
 62
     7
370
    35
100
AcDbLine
 10
505.279488
 20
319.0
 30
0.0
 11
507.9125379999999
 21
319.0
 31
0.0
  0
LINE
  5
5BD
330
497
100
AcDbEntity
  8
LC-001-002-----0
 62
     7
370
    35
100
AcDbLine
 10
505.292653
 20
319.1
 30
0.0
 11
507.899373
 21
319.1
 31
0.0
  0
LINE
  5
5BE
330
497
100
AcDbEntity
  8
LC-001-002-----0
 62
     7
370
    35
100
AcDbLine
 10
505.3058179999999
 20
319.2
 30
0.0
 11
507.886207
 21
319.2
 31
0.0
  0
LINE
  5
5BF
330
497
100
AcDbEntity
  8
LC-001-002-----0
 62
     7
370
    35
100
AcDbLine
 10
505.3189839999999
 20
319.3
 30
0.0
 11
507.873042
 21
319.3
 31
0.0
  0
LINE
  5
5C0
330
497
100
AcDbEntity
  8
LC-001-002-----0
 62
     7
370
    35
100
AcDbLine
 10
505.332149
 20
319.4
 30
0.0
 11
507.859877
 21
319.4
 31
0.0
  0
LINE
  5
5C1
330
497
100
AcDbEntity
  8
LC-001-002-----0
 62
     7
370
    35
100
AcDbLine
 10
505.345314
 20
319.5
 30
0.0
 11
507.846712
 21
319.5
 31
0.0
  0
LINE
  5
5C2
330
497
100
AcDbEntity
  8
LC-001-002-----0
 62
     7
370
    35
100
AcDbLine
 10
505.358479
 20
319.6
 30
0.0
 11
507.8335459999999
 21
319.6
 31
0.0
  0
LINE
  5
5C3
330
497
100
AcDbEntity
  8
LC-001-002-----0
 62
     7
370
    35
100
AcDbLine
 10
505.371645
 20
319.7
 30
0.0
 11
507.8203809999999
 21
319.7
 31
0.0
  0
LINE
  5
5C4
330
497
100
AcDbEntity
  8
LC-001-002-----0
 62
     7
370
    35
100
AcDbLine
 10
505.3848099999999
 20
319.8
 30
0.0
 11
507.807216
 21
319.8
 31
0.0
  0
LINE
  5
5C5
330
497
100
AcDbEntity
  8
LC-001-002-----0
 62
     7
370
    35
100
AcDbLine
 10
505.3979749999999
 20
319.9
 30
0.0
 11
507.7940509999999
 21
319.9
 31
0.0
  0
LINE
  5
5C6
330
497
100
AcDbEntity
  8
LC-001-002-----0
 62
     7
370
    35
100
AcDbLine
 10
505.41114
 20
320.0
 30
0.0
 11
507.7808849999999
 21
320.0
 31
0.0
  0
LINE
  5
5C7
330
497
100
AcDbEntity
  8
LC-001-002-----0
 62
     7
370
    35
100
AcDbLine
 10
505.4243059999999
 20
320.1
 30
0.0
 11
507.76772
 21
320.1
 31
0.0
  0
LINE
  5
5C8
330
497
100
AcDbEntity
  8
LC-001-002-----0
 62
     7
370
    35
100
AcDbLine
 10
505.437471
 20
320.2
 30
0.0
 11
507.7545549999999
 21
320.2
 31
0.0
  0
LINE
  5
5C9
330
497
100
AcDbEntity
  8
LC-001-002-----0
 62
     7
370
    35
100
AcDbLine
 10
505.450636
 20
320.3
 30
0.0
 11
507.74139
 21
320.3
 31
0.0
  0
LINE
  5
5CA
330
497
100
AcDbEntity
  8
LC-001-002-----0
 62
     7
370
    35
100
AcDbLine
 10
505.4638009999999
 20
320.4
 30
0.0
 11
507.728224
 21
320.4
 31
0.0
  0
LINE
  5
5CB
330
497
100
AcDbEntity
  8
LC-001-002-----0
 62
     7
370
    35
100
AcDbLine
 10
505.4769669999999
 20
320.5
 30
0.0
 11
507.715059
 21
320.5
 31
0.0
  0
LINE
  5
5CC
330
497
100
AcDbEntity
  8
LC-001-002-----0
 62
     7
370
    35
100
AcDbLine
 10
505.4901319999999
 20
320.6
 30
0.0
 11
507.701894
 21
320.6
 31
0.0
  0
LINE
  5
5CD
330
497
100
AcDbEntity
  8
LC-001-002-----0
 62
     7
370
    35
100
AcDbLine
 10
505.503297
 20
320.7
 30
0.0
 11
507.688729
 21
320.7
 31
0.0
  0
LINE
  5
5CE
330
497
100
AcDbEntity
  8
LC-001-002-----0
 62
     7
370
    35
100
AcDbLine
 10
505.516462
 20
320.8
 30
0.0
 11
507.675563
 21
320.8
 31
0.0
  0
LINE
  5
5CF
330
497
100
AcDbEntity
  8
LC-001-002-----0
 62
     7
370
    35
100
AcDbLine
 10
505.529628
 20
320.9
 30
0.0
 11
507.662398
 21
320.9
 31
0.0
  0
LINE
  5
5D0
330
497
100
AcDbEntity
  8
LC-001-002-----0
 62
     7
370
    35
100
AcDbLine
 10
505.5427929999999
 20
321.0
 30
0.0
 11
507.6492329999999
 21
321.0
 31
0.0
  0
LINE
  5
5D1
330
497
100
AcDbEntity
  8
LC-001-002-----0
 62
     7
370
    35
100
AcDbLine
 10
505.555958
 20
321.1
 30
0.0
 11
507.6360679999999
 21
321.1
 31
0.0
  0
LINE
  5
5D2
330
497
100
AcDbEntity
  8
LC-001-002-----0
 62
     7
370
    35
100
AcDbLine
 10
505.569123
 20
321.2
 30
0.0
 11
507.6229019999999
 21
321.2
 31
0.0
  0
LINE
  5
5D3
330
497
100
AcDbEntity
  8
LC-001-002-----0
 62
     7
370
    35
100
AcDbLine
 10
505.5822889999999
 20
321.3
 30
0.0
 11
507.609737
 21
321.3
 31
0.0
  0
LINE
  5
5D4
330
497
100
AcDbEntity
  8
LC-001-002-----0
 62
     7
370
    35
100
AcDbLine
 10
505.595454
 20
321.4
 30
0.0
 11
507.596572
 21
321.4
 31
0.0
  0
LINE
  5
5D5
330
497
100
AcDbEntity
  8
LC-001-002-----0
 62
     7
370
    35
100
AcDbLine
 10
505.608619
 20
321.5
 30
0.0
 11
507.5834069999999
 21
321.5
 31
0.0
  0
LINE
  5
5D6
330
497
100
AcDbEntity
  8
LC-001-002-----0
 62
     7
370
    35
100
AcDbLine
 10
505.621784
 20
321.6
 30
0.0
 11
507.5702409999999
 21
321.6
 31
0.0
  0
LINE
  5
5D7
330
497
100
AcDbEntity
  8
LC-001-002-----0
 62
     7
370
    35
100
AcDbLine
 10
505.63495
 20
321.7
 30
0.0
 11
507.5570759999999
 21
321.7
 31
0.0
  0
LINE
  5
5D8
330
497
100
AcDbEntity
  8
LC-001-002-----0
 62
     7
370
    35
100
AcDbLine
 10
505.648115
 20
321.8
 30
0.0
 11
507.543911
 21
321.8
 31
0.0
  0
LINE
  5
5D9
330
497
100
AcDbEntity
  8
LC-001-002-----0
 62
     7
370
    35
100
AcDbLine
 10
505.6612799999999
 20
321.9
 30
0.0
 11
507.530746
 21
321.9
 31
0.0
  0
LINE
  5
5DA
330
497
100
AcDbEntity
  8
LC-001-002-----0
 62
     7
370
    35
100
AcDbLine
 10
505.674445
 20
322.0
 30
0.0
 11
507.51758
 21
322.0
 31
0.0
  0
LINE
  5
5DB
330
497
100
AcDbEntity
  8
LC-001-002-----0
 62
     7
370
    35
100
AcDbLine
 10
505.6876110000001
 20
322.1
 30
0.0
 11
507.504415
 21
322.1
 31
0.0
  0
LINE
  5
5DC
330
497
100
AcDbEntity
  8
LC-001-002-----0
 62
     7
370
    35
100
AcDbLine
 10
505.7007759999999
 20
322.2
 30
0.0
 11
507.4912499999999
 21
322.2
 31
0.0
  0
LINE
  5
5DD
330
497
100
AcDbEntity
  8
LC-001-002-----0
 62
     7
370
    35
100
AcDbLine
 10
505.713941
 20
322.3
 30
0.0
 11
507.4780849999999
 21
322.3
 31
0.0
  0
LINE
  5
5DE
330
497
100
AcDbEntity
  8
LC-001-002-----0
 62
     7
370
    35
100
AcDbLine
 10
505.7271059999999
 20
322.4
 30
0.0
 11
507.464919
 21
322.4
 31
0.0
  0
LINE
  5
5DF
330
497
100
AcDbEntity
  8
LC-001-002-----0
 62
     7
370
    35
100
AcDbLine
 10
505.7402719999999
 20
322.5
 30
0.0
 11
507.451754
 21
322.5
 31
0.0
  0
LINE
  5
5E0
330
497
100
AcDbEntity
  8
LC-001-002-----0
 62
     7
370
    35
100
AcDbLine
 10
505.7534369999999
 20
322.6
 30
0.0
 11
507.438589
 21
322.6
 31
0.0
  0
LINE
  5
5E1
330
497
100
AcDbEntity
  8
LC-001-002-----0
 62
     7
370
    35
100
AcDbLine
 10
505.766602
 20
322.7
 30
0.0
 11
507.425424
 21
322.7
 31
0.0
  0
LINE
  5
5E2
330
497
100
AcDbEntity
  8
LC-001-002-----0
 62
     7
370
    35
100
AcDbLine
 10
505.779767
 20
322.8
 30
0.0
 11
507.412258
 21
322.8
 31
0.0
  0
LINE
  5
5E3
330
497
100
AcDbEntity
  8
LC-001-002-----0
 62
     7
370
    35
100
AcDbLine
 10
505.792933
 20
322.9
 30
0.0
 11
507.3990929999999
 21
322.9
 31
0.0
  0
LINE
  5
5E4
330
497
100
AcDbEntity
  8
LC-001-002-----0
 62
     7
370
    35
100
AcDbLine
 10
505.806098
 20
323.0
 30
0.0
 11
507.385928
 21
323.0
 31
0.0
  0
LINE
  5
5E5
330
497
100
AcDbEntity
  8
LC-001-002-----0
 62
     7
370
    35
100
AcDbLine
 10
505.8192629999999
 20
323.1
 30
0.0
 11
507.3727629999999
 21
323.1
 31
0.0
  0
LINE
  5
5E6
330
497
100
AcDbEntity
  8
LC-001-002-----0
 62
     7
370
    35
100
AcDbLine
 10
505.832428
 20
323.2
 30
0.0
 11
507.3595969999999
 21
323.2
 31
0.0
  0
LINE
  5
5E7
330
497
100
AcDbEntity
  8
LC-001-002-----0
 62
     7
370
    35
100
AcDbLine
 10
505.845594
 20
323.3
 30
0.0
 11
507.346432
 21
323.3
 31
0.0
  0
LINE
  5
5E8
330
497
100
AcDbEntity
  8
LC-001-002-----0
 62
     7
370
    35
100
AcDbLine
 10
505.858759
 20
323.4
 30
0.0
 11
507.333267
 21
323.4
 31
0.0
  0
LINE
  5
5E9
330
497
100
AcDbEntity
  8
LC-001-002-----0
 62
     7
370
    35
100
AcDbLine
 10
505.871924
 20
323.5
 30
0.0
 11
507.3201019999999
 21
323.5
 31
0.0
  0
LINE
  5
5EA
330
497
100
AcDbEntity
  8
LC-001-002-----0
 62
     7
370
    35
100
AcDbLine
 10
505.885089
 20
323.6
 30
0.0
 11
507.3069359999999
 21
323.6
 31
0.0
  0
LINE
  5
5EB
330
497
100
AcDbEntity
  8
LC-001-002-----0
 62
     7
370
    35
100
AcDbLine
 10
505.898255
 20
323.7
 30
0.0
 11
507.2937709999999
 21
323.7
 31
0.0
  0
LINE
  5
5EC
330
497
100
AcDbEntity
  8
LC-001-002-----0
 62
     7
370
    35
100
AcDbLine
 10
505.91142
 20
323.8
 30
0.0
 11
507.2806059999999
 21
323.8
 31
0.0
  0
LINE
  5
5ED
330
497
100
AcDbEntity
  8
LC-001-002-----0
 62
     7
370
    35
100
AcDbLine
 10
505.9245849999999
 20
323.9
 30
0.0
 11
507.267441
 21
323.9
 31
0.0
  0
LINE
  5
5EE
330
497
100
AcDbEntity
  8
LC-001-002-----0
 62
     7
370
    35
100
AcDbLine
 10
505.93775
 20
324.0
 30
0.0
 11
507.254275
 21
324.0
 31
0.0
  0
LINE
  5
5EF
330
497
100
AcDbEntity
  8
LC-001-002-----0
 62
     7
370
    35
100
AcDbLine
 10
505.950916
 20
324.1
 30
0.0
 11
507.2411099999999
 21
324.1
 31
0.0
  0
LINE
  5
5F0
330
497
100
AcDbEntity
  8
LC-001-002-----0
 62
     7
370
    35
100
AcDbLine
 10
505.9640809999999
 20
324.2
 30
0.0
 11
507.227945
 21
324.2
 31
0.0
  0
LINE
  5
5F1
330
497
100
AcDbEntity
  8
LC-001-002-----0
 62
     7
370
    35
100
AcDbLine
 10
505.9772459999999
 20
324.3
 30
0.0
 11
507.2147799999999
 21
324.3
 31
0.0
  0
LINE
  5
5F2
330
497
100
AcDbEntity
  8
LC-001-002-----0
 62
     7
370
    35
100
AcDbLine
 10
505.990411
 20
324.4
 30
0.0
 11
507.2016139999999
 21
324.4
 31
0.0
  0
LINE
  5
5F3
330
497
100
AcDbEntity
  8
LC-001-002-----0
 62
     7
370
    35
100
AcDbLine
 10
506.0035769999999
 20
324.5
 30
0.0
 11
507.188449
 21
324.5
 31
0.0
  0
LINE
  5
5F4
330
497
100
AcDbEntity
  8
LC-001-002-----0
 62
     7
370
    35
100
AcDbLine
 10
506.0167419999999
 20
324.6
 30
0.0
 11
507.175284
 21
324.6
 31
0.0
  0
LINE
  5
5F5
330
497
100
AcDbEntity
  8
LC-001-002-----0
 62
     7
370
    35
100
AcDbLine
 10
506.029907
 20
324.7
 30
0.0
 11
507.162119
 21
324.7
 31
0.0
  0
LINE
  5
5F6
330
497
100
AcDbEntity
  8
LC-001-002-----0
 62
     7
370
    35
100
AcDbLine
 10
506.043072
 20
324.8
 30
0.0
 11
507.148953
 21
324.8
 31
0.0
  0
LINE
  5
5F7
330
497
100
AcDbEntity
  8
LC-001-002-----0
 62
     7
370
    35
100
AcDbLine
 10
506.056238
 20
324.9
 30
0.0
 11
507.1357879999999
 21
324.9
 31
0.0
  0
LINE
  5
5F8
330
497
100
AcDbEntity
  8
LC-001-002-----0
 62
     7
370
    35
100
AcDbLine
 10
506.069403
 20
325.0
 30
0.0
 11
507.122623
 21
325.0
 31
0.0
  0
LINE
  5
5F9
330
497
100
AcDbEntity
  8
LC-001-002-----0
 62
     7
370
    35
100
AcDbLine
 10
506.0825679999999
 20
325.1
 30
0.0
 11
507.109458
 21
325.1
 31
0.0
  0
LINE
  5
5FA
330
497
100
AcDbEntity
  8
LC-001-002-----0
 62
     7
370
    35
100
AcDbLine
 10
506.0957329999999
 20
325.2
 30
0.0
 11
507.096292
 21
325.2
 31
0.0
  0
LINE
  5
5FB
330
497
100
AcDbEntity
  8
LC-001-002-----0
 62
     7
370
    35
100
AcDbLine
 10
506.108899
 20
325.3
 30
0.0
 11
507.0831269999999
 21
325.3
 31
0.0
  0
LINE
  5
5FC
330
497
100
AcDbEntity
  8
LC-001-002-----0
 62
     7
370
    35
100
AcDbLine
 10
506.122064
 20
325.4
 30
0.0
 11
507.069962
 21
325.4
 31
0.0
  0
LINE
  5
5FD
330
497
100
AcDbEntity
  8
LC-001-002-----0
 62
     7
370
    35
100
AcDbLine
 10
506.135229
 20
325.5
 30
0.0
 11
507.0567969999999
 21
325.5
 31
0.0
  0
LINE
  5
5FE
330
497
100
AcDbEntity
  8
LC-001-002-----0
 62
     7
370
    35
100
AcDbLine
 10
506.148394
 20
325.6
 30
0.0
 11
507.0436309999999
 21
325.6
 31
0.0
  0
LINE
  5
5FF
330
497
100
AcDbEntity
  8
LC-001-002-----0
 62
     7
370
    35
100
AcDbLine
 10
506.1615599999999
 20
325.7
 30
0.0
 11
507.0304659999999
 21
325.7
 31
0.0
  0
LINE
  5
600
330
497
100
AcDbEntity
  8
LC-001-002-----0
 62
     7
370
    35
100
AcDbLine
 10
506.174725
 20
325.8
 30
0.0
 11
507.0173009999999
 21
325.8
 31
0.0
  0
LINE
  5
601
330
497
100
AcDbEntity
  8
LC-001-002-----0
 62
     7
370
    35
100
AcDbLine
 10
506.18789
 20
325.9
 30
0.0
 11
507.004136
 21
325.9
 31
0.0
  0
LINE
  5
602
330
497
100
AcDbEntity
  8
LC-001-002-----0
 62
     7
370
    35
100
AcDbLine
 10
506.201055
 20
326.0
 30
0.0
 11
506.99097
 21
326.0
 31
0.0
  0
LINE
  5
603
330
497
100
AcDbEntity
  8
LC-001-002-----0
 62
     7
370
    35
100
AcDbLine
 10
506.214221
 20
326.1
 30
0.0
 11
506.977805
 21
326.1
 31
0.0
  0
LINE
  5
604
330
497
100
AcDbEntity
  8
LC-001-002-----0
 62
     7
370
    35
100
AcDbLine
 10
506.227386
 20
326.2
 30
0.0
 11
506.96464
 21
326.2
 31
0.0
  0
LINE
  5
605
330
497
100
AcDbEntity
  8
LC-001-002-----0
 62
     7
370
    35
100
AcDbLine
 10
506.2405509999999
 20
326.3
 30
0.0
 11
506.951475
 21
326.3
 31
0.0
  0
LINE
  5
606
330
497
100
AcDbEntity
  8
LC-001-002-----0
 62
     7
370
    35
100
AcDbLine
 10
506.2537159999999
 20
326.4
 30
0.0
 11
506.938309
 21
326.4
 31
0.0
  0
LINE
  5
607
330
497
100
AcDbEntity
  8
LC-001-002-----0
 62
     7
370
    35
100
AcDbLine
 10
506.2668819999999
 20
326.5
 30
0.0
 11
506.925144
 21
326.5
 31
0.0
  0
LINE
  5
608
330
497
100
AcDbEntity
  8
LC-001-002-----0
 62
     7
370
    35
100
AcDbLine
 10
506.2800469999999
 20
326.6
 30
0.0
 11
506.911979
 21
326.6
 31
0.0
  0
LINE
  5
609
330
497
100
AcDbEntity
  8
LC-001-002-----0
 62
     7
370
    35
100
AcDbLine
 10
506.293212
 20
326.7
 30
0.0
 11
506.898814
 21
326.7
 31
0.0
  0
LINE
  5
60A
330
497
100
AcDbEntity
  8
LC-001-002-----0
 62
     7
370
    35
100
AcDbLine
 10
506.3063769999999
 20
326.8
 30
0.0
 11
506.885648
 21
326.8
 31
0.0
  0
LINE
  5
60B
330
497
100
AcDbEntity
  8
LC-001-002-----0
 62
     7
370
    35
100
AcDbLine
 10
506.3195429999999
 20
326.9
 30
0.0
 11
506.8724829999999
 21
326.9
 31
0.0
  0
LINE
  5
60C
330
497
100
AcDbEntity
  8
LC-001-002-----0
 62
     7
370
    35
100
AcDbLine
 10
506.332708
 20
327.0
 30
0.0
 11
506.8593179999999
 21
327.0
 31
0.0
  0
LINE
  5
60D
330
497
100
AcDbEntity
  8
LC-001-002-----0
 62
     7
370
    35
100
AcDbLine
 10
506.345873
 20
327.1
 30
0.0
 11
506.846153
 21
327.1
 31
0.0
  0
LINE
  5
60E
330
497
100
AcDbEntity
  8
LC-001-002-----0
 62
     7
370
    35
100
AcDbLine
 10
506.3590379999999
 20
327.2
 30
0.0
 11
506.832987
 21
327.2
 31
0.0
  0
LINE
  5
60F
330
497
100
AcDbEntity
  8
LC-001-002-----0
 62
     7
370
    35
100
AcDbLine
 10
506.372204
 20
327.3
 30
0.0
 11
506.819822
 21
327.3
 31
0.0
  0
LINE
  5
610
330
497
100
AcDbEntity
  8
LC-001-002-----0
 62
     7
370
    35
100
AcDbLine
 10
506.385369
 20
327.4
 30
0.0
 11
506.806657
 21
327.4
 31
0.0
  0
LINE
  5
611
330
497
100
AcDbEntity
  8
LC-001-002-----0
 62
     7
370
    35
100
AcDbLine
 10
506.398534
 20
327.5
 30
0.0
 11
506.7934919999999
 21
327.5
 31
0.0
  0
LINE
  5
612
330
497
100
AcDbEntity
  8
LC-001-002-----0
 62
     7
370
    35
100
AcDbLine
 10
506.411699
 20
327.6
 30
0.0
 11
506.7803259999999
 21
327.6
 31
0.0
  0
LINE
  5
613
330
497
100
AcDbEntity
  8
LC-001-002-----0
 62
     7
370
    35
100
AcDbLine
 10
506.424865
 20
327.7
 30
0.0
 11
506.767161
 21
327.7
 31
0.0
  0
LINE
  5
614
330
497
100
AcDbEntity
  8
LC-001-002-----0
 62
     7
370
    35
100
AcDbLine
 10
506.4380299999999
 20
327.8
 30
0.0
 11
506.7539959999999
 21
327.8
 31
0.0
  0
LINE
  5
615
330
497
100
AcDbEntity
  8
LC-001-002-----0
 62
     7
370
    35
100
AcDbLine
 10
506.451195
 20
327.9
 30
0.0
 11
506.7408309999999
 21
327.9
 31
0.0
  0
LINE
  5
616
330
497
100
AcDbEntity
  8
LC-001-002-----0
 62
     7
370
    35
100
AcDbLine
 10
506.4643599999999
 20
328.0
 30
0.0
 11
506.7276650000001
 21
328.0
 31
0.0
  0
LINE
  5
617
330
497
100
AcDbEntity
  8
LC-001-002-----0
 62
     7
370
    35
100
AcDbLine
 10
506.4775259999999
 20
328.1
 30
0.0
 11
506.7145
 21
328.1
 31
0.0
  0
LINE
  5
618
330
497
100
AcDbEntity
  8
LC-001-002-----0
 62
     7
370
    35
100
AcDbLine
 10
506.490691
 20
328.2
 30
0.0
 11
506.7013349999999
 21
328.2
 31
0.0
  0
LINE
  5
619
330
497
100
AcDbEntity
  8
LC-001-002-----0
 62
     7
370
    35
100
AcDbLine
 10
506.5038559999999
 20
328.3
 30
0.0
 11
506.68817
 21
328.3
 31
0.0
  0
LINE
  5
61A
330
497
100
AcDbEntity
  8
LC-001-002-----0
 62
     7
370
    35
100
AcDbLine
 10
506.5170209999999
 20
328.4
 30
0.0
 11
506.675004
 21
328.4
 31
0.0
  0
LINE
  5
61B
330
497
100
AcDbEntity
  8
LC-001-002-----0
 62
     7
370
    35
100
AcDbLine
 10
506.5301869999999
 20
328.5
 30
0.0
 11
506.661839
 21
328.5
 31
0.0
  0
LINE
  5
61C
330
497
100
AcDbEntity
  8
LC-001-002-----0
 62
     7
370
    35
100
AcDbLine
 10
506.543352
 20
328.6
 30
0.0
 11
506.648674
 21
328.6
 31
0.0
  0
LINE
  5
61D
330
497
100
AcDbEntity
  8
LC-001-002-----0
 62
     7
370
    35
100
AcDbLine
 10
506.556517
 20
328.7
 30
0.0
 11
506.635509
 21
328.7
 31
0.0
  0
LINE
  5
61E
330
497
100
AcDbEntity
  8
LC-001-002-----0
 62
     7
370
    35
100
AcDbLine
 10
506.569682
 20
328.8
 30
0.0
 11
506.6223429999999
 21
328.8
 31
0.0
  0
LINE
  5
61F
330
497
100
AcDbEntity
  8
LC-001-002-----0
 62
     7
370
    35
100
AcDbLine
 10
506.582848
 20
328.9
 30
0.0
 11
506.609178
 21
328.9
 31
0.0
  0
ENDBLK
  5
499
330
497
100
AcDbEntity
  8
0
100
AcDbBlockEnd
  0
BLOCK
  5
622
330
621
100
AcDbEntity
  8
0
100
AcDbBlockBegin
  2
*X22
 70
     1
 10
0.0
 20
0.0
 30
0.0
  3
*X22
  1

  4
*X9
  0
LINE
  5
624
330
621
100
AcDbEntity
  8
LC-001-002-----0
 62
     7
370
    35
100
AcDbLine
 10
566.5874579999999
 20
224.9
 30
0.0
 11
566.857667
 21
224.9
 31
0.0
  0
LINE
  5
625
330
621
100
AcDbEntity
  8
LC-001-002-----0
 62
     7
370
    35
100
AcDbLine
 10
566.5874579999999
 20
225.0
 30
0.0
 11
567.617242
 21
225.0
 31
0.0
  0
LINE
  5
626
330
621
100
AcDbEntity
  8
LC-001-002-----0
 62
     7
370
    35
100
AcDbLine
 10
566.5874579999999
 20
225.1
 30
0.0
 11
568.3768169999999
 21
225.1
 31
0.0
  0
LINE
  5
627
330
621
100
AcDbEntity
  8
LC-001-002-----0
 62
     7
370
    35
100
AcDbLine
 10
566.5874579999999
 20
225.2
 30
0.0
 11
569.136393
 21
225.2
 31
0.0
  0
LINE
  5
628
330
621
100
AcDbEntity
  8
LC-001-002-----0
 62
     7
370
    35
100
AcDbLine
 10
566.5874579999999
 20
225.3
 30
0.0
 11
569.8959679999999
 21
225.3
 31
0.0
  0
LINE
  5
629
330
621
100
AcDbEntity
  8
LC-001-002-----0
 62
     7
370
    35
100
AcDbLine
 10
566.5874579999999
 20
225.4
 30
0.0
 11
570.655544
 21
225.4
 31
0.0
  0
LINE
  5
62A
330
621
100
AcDbEntity
  8
LC-001-002-----0
 62
     7
370
    35
100
AcDbLine
 10
566.5874579999999
 20
225.5
 30
0.0
 11
571.4151189999999
 21
225.5
 31
0.0
  0
LINE
  5
62B
330
621
100
AcDbEntity
  8
LC-001-002-----0
 62
     7
370
    35
100
AcDbLine
 10
566.5874579999999
 20
225.6
 30
0.0
 11
572.174694
 21
225.6
 31
0.0
  0
LINE
  5
62C
330
621
100
AcDbEntity
  8
LC-001-002-----0
 62
     7
370
    35
100
AcDbLine
 10
566.5874579999999
 20
225.7
 30
0.0
 11
572.93427
 21
225.7
 31
0.0
  0
LINE
  5
62D
330
621
100
AcDbEntity
  8
LC-001-002-----0
 62
     7
370
    35
100
AcDbLine
 10
566.5874579999999
 20
225.8
 30
0.0
 11
573.693845
 21
225.8
 31
0.0
  0
LINE
  5
62E
330
621
100
AcDbEntity
  8
LC-001-002-----0
 62
     7
370
    35
100
AcDbLine
 10
566.5874579999999
 20
225.9
 30
0.0
 11
574.453421
 21
225.9
 31
0.0
  0
LINE
  5
62F
330
621
100
AcDbEntity
  8
LC-001-002-----0
 62
     7
370
    35
100
AcDbLine
 10
566.5874579999999
 20
226.0
 30
0.0
 11
575.2129959999999
 21
226.0
 31
0.0
  0
LINE
  5
630
330
621
100
AcDbEntity
  8
LC-001-002-----0
 62
     7
370
    35
100
AcDbLine
 10
566.5874579999999
 20
226.1
 30
0.0
 11
575.972572
 21
226.1
 31
0.0
  0
LINE
  5
631
330
621
100
AcDbEntity
  8
LC-001-002-----0
 62
     7
370
    35
100
AcDbLine
 10
566.5874579999999
 20
226.2
 30
0.0
 11
576.7321469999999
 21
226.2
 31
0.0
  0
LINE
  5
632
330
621
100
AcDbEntity
  8
LC-001-002-----0
 62
     7
370
    35
100
AcDbLine
 10
566.5874579999999
 20
226.3
 30
0.0
 11
577.4917219999999
 21
226.3
 31
0.0
  0
LINE
  5
633
330
621
100
AcDbEntity
  8
LC-001-002-----0
 62
     7
370
    35
100
AcDbLine
 10
566.5874579999999
 20
226.4
 30
0.0
 11
578.2512979999999
 21
226.4
 31
0.0
  0
LINE
  5
634
330
621
100
AcDbEntity
  8
LC-001-002-----0
 62
     7
370
    35
100
AcDbLine
 10
566.5874579999999
 20
226.5
 30
0.0
 11
579.010873
 21
226.5
 31
0.0
  0
LINE
  5
635
330
621
100
AcDbEntity
  8
LC-001-002-----0
 62
     7
370
    35
100
AcDbLine
 10
566.5874579999999
 20
226.6
 30
0.0
 11
579.770449
 21
226.6
 31
0.0
  0
LINE
  5
636
330
621
100
AcDbEntity
  8
LC-001-002-----0
 62
     7
370
    35
100
AcDbLine
 10
566.5874579999999
 20
226.7
 30
0.0
 11
580.530024
 21
226.7
 31
0.0
  0
LINE
  5
637
330
621
100
AcDbEntity
  8
LC-001-002-----0
 62
     7
370
    35
100
AcDbLine
 10
566.5874579999999
 20
226.8
 30
0.0
 11
581.289599
 21
226.8
 31
0.0
  0
LINE
  5
638
330
621
100
AcDbEntity
  8
LC-001-002-----0
 62
     7
370
    35
100
AcDbLine
 10
566.5874579999999
 20
226.9
 30
0.0
 11
582.049175
 21
226.9
 31
0.0
  0
LINE
  5
639
330
621
100
AcDbEntity
  8
LC-001-002-----0
 62
     7
370
    35
100
AcDbLine
 10
566.5874579999999
 20
227.0
 30
0.0
 11
582.80875
 21
227.0
 31
0.0
  0
LINE
  5
63A
330
621
100
AcDbEntity
  8
LC-001-002-----0
 62
     7
370
    35
100
AcDbLine
 10
566.5874579999999
 20
227.1
 30
0.0
 11
583.5683259999999
 21
227.1
 31
0.0
  0
LINE
  5
63B
330
621
100
AcDbEntity
  8
LC-001-002-----0
 62
     7
370
    35
100
AcDbLine
 10
566.5874579999999
 20
227.2
 30
0.0
 11
584.3279009999999
 21
227.2
 31
0.0
  0
LINE
  5
63C
330
621
100
AcDbEntity
  8
LC-001-002-----0
 62
     7
370
    35
100
AcDbLine
 10
566.5874579999999
 20
227.3
 30
0.0
 11
585.0874759999999
 21
227.3
 31
0.0
  0
LINE
  5
63D
330
621
100
AcDbEntity
  8
LC-001-002-----0
 62
     7
370
    35
100
AcDbLine
 10
566.5874579999999
 20
227.4
 30
0.0
 11
585.847052
 21
227.4
 31
0.0
  0
LINE
  5
63E
330
621
100
AcDbEntity
  8
LC-001-002-----0
 62
     7
370
    35
100
AcDbLine
 10
566.5874579999999
 20
227.5
 30
0.0
 11
586.606627
 21
227.5
 31
0.0
  0
LINE
  5
63F
330
621
100
AcDbEntity
  8
LC-001-002-----0
 62
     7
370
    35
100
AcDbLine
 10
566.5874579999999
 20
227.6
 30
0.0
 11
587.366203
 21
227.6
 31
0.0
  0
LINE
  5
640
330
621
100
AcDbEntity
  8
LC-001-002-----0
 62
     7
370
    35
100
AcDbLine
 10
566.5874579999999
 20
227.7
 30
0.0
 11
588.1257780000001
 21
227.7
 31
0.0
  0
LINE
  5
641
330
621
100
AcDbEntity
  8
LC-001-002-----0
 62
     7
370
    35
100
AcDbLine
 10
566.5874579999999
 20
227.8
 30
0.0
 11
588.885354
 21
227.8
 31
0.0
  0
LINE
  5
642
330
621
100
AcDbEntity
  8
LC-001-002-----0
 62
     7
370
    35
100
AcDbLine
 10
566.5874579999999
 20
227.9
 30
0.0
 11
589.644929
 21
227.9
 31
0.0
  0
LINE
  5
643
330
621
100
AcDbEntity
  8
LC-001-002-----0
 62
     7
370
    35
100
AcDbLine
 10
566.5874579999999
 20
228.0
 30
0.0
 11
590.4045039999999
 21
228.0
 31
0.0
  0
LINE
  5
644
330
621
100
AcDbEntity
  8
LC-001-002-----0
 62
     7
370
    35
100
AcDbLine
 10
566.5874579999999
 20
228.1
 30
0.0
 11
591.1640799999999
 21
228.1
 31
0.0
  0
LINE
  5
645
330
621
100
AcDbEntity
  8
LC-001-002-----0
 62
     7
370
    35
100
AcDbLine
 10
566.5874579999999
 20
228.2
 30
0.0
 11
591.9236549999999
 21
228.2
 31
0.0
  0
LINE
  5
646
330
621
100
AcDbEntity
  8
LC-001-002-----0
 62
     7
370
    35
100
AcDbLine
 10
566.5874579999999
 20
228.3
 30
0.0
 11
592.6832309999999
 21
228.3
 31
0.0
  0
LINE
  5
647
330
621
100
AcDbEntity
  8
LC-001-002-----0
 62
     7
370
    35
100
AcDbLine
 10
566.5874579999999
 20
228.4
 30
0.0
 11
593.4428059999999
 21
228.4
 31
0.0
  0
LINE
  5
648
330
621
100
AcDbEntity
  8
LC-001-002-----0
 62
     7
370
    35
100
AcDbLine
 10
566.5874579999999
 20
228.5
 30
0.0
 11
594.2023809999999
 21
228.5
 31
0.0
  0
LINE
  5
649
330
621
100
AcDbEntity
  8
LC-001-002-----0
 62
     7
370
    35
100
AcDbLine
 10
566.5874579999999
 20
228.6
 30
0.0
 11
594.961957
 21
228.6
 31
0.0
  0
LINE
  5
64A
330
621
100
AcDbEntity
  8
LC-001-002-----0
 62
     7
370
    35
100
AcDbLine
 10
566.5874579999999
 20
228.7
 30
0.0
 11
595.721532
 21
228.7
 31
0.0
  0
LINE
  5
64B
330
621
100
AcDbEntity
  8
LC-001-002-----0
 62
     7
370
    35
100
AcDbLine
 10
566.5874579999999
 20
228.8
 30
0.0
 11
596.481108
 21
228.8
 31
0.0
  0
LINE
  5
64C
330
621
100
AcDbEntity
  8
LC-001-002-----0
 62
     7
370
    35
100
AcDbLine
 10
566.5874579999999
 20
228.9
 30
0.0
 11
597.2406829999999
 21
228.9
 31
0.0
  0
LINE
  5
64D
330
621
100
AcDbEntity
  8
LC-001-002-----0
 62
     7
370
    35
100
AcDbLine
 10
566.5874579999999
 20
229.0
 30
0.0
 11
598.000258
 21
229.0
 31
0.0
  0
LINE
  5
64E
330
621
100
AcDbEntity
  8
LC-001-002-----0
 62
     7
370
    35
100
AcDbLine
 10
566.5874579999999
 20
229.1
 30
0.0
 11
598.7598339999999
 21
229.1
 31
0.0
  0
LINE
  5
64F
330
621
100
AcDbEntity
  8
LC-001-002-----0
 62
     7
370
    35
100
AcDbLine
 10
566.5874579999999
 20
229.2
 30
0.0
 11
599.519409
 21
229.2
 31
0.0
  0
LINE
  5
650
330
621
100
AcDbEntity
  8
LC-001-002-----0
 62
     7
370
    35
100
AcDbLine
 10
566.5874579999999
 20
229.3
 30
0.0
 11
600.2789849999999
 21
229.3
 31
0.0
  0
LINE
  5
651
330
621
100
AcDbEntity
  8
LC-001-002-----0
 62
     7
370
    35
100
AcDbLine
 10
566.5874579999999
 20
229.4
 30
0.0
 11
601.0385599999999
 21
229.4
 31
0.0
  0
LINE
  5
652
330
621
100
AcDbEntity
  8
LC-001-002-----0
 62
     7
370
    35
100
AcDbLine
 10
566.5874579999999
 20
229.5
 30
0.0
 11
601.798136
 21
229.5
 31
0.0
  0
LINE
  5
653
330
621
100
AcDbEntity
  8
LC-001-002-----0
 62
     7
370
    35
100
AcDbLine
 10
566.5874579999999
 20
229.6
 30
0.0
 11
602.557711
 21
229.6
 31
0.0
  0
LINE
  5
654
330
621
100
AcDbEntity
  8
LC-001-002-----0
 62
     7
370
    35
100
AcDbLine
 10
566.5874579999999
 20
229.7
 30
0.0
 11
603.317286
 21
229.7
 31
0.0
  0
LINE
  5
655
330
621
100
AcDbEntity
  8
LC-001-002-----0
 62
     7
370
    35
100
AcDbLine
 10
566.5874579999999
 20
229.8
 30
0.0
 11
604.076862
 21
229.8
 31
0.0
  0
LINE
  5
656
330
621
100
AcDbEntity
  8
LC-001-002-----0
 62
     7
370
    35
100
AcDbLine
 10
566.5874579999999
 20
229.9
 30
0.0
 11
604.836437
 21
229.9
 31
0.0
  0
LINE
  5
657
330
621
100
AcDbEntity
  8
LC-001-002-----0
 62
     7
370
    35
100
AcDbLine
 10
566.5874579999999
 20
230.1
 30
0.0
 11
604.836438
 21
230.1
 31
0.0
  0
LINE
  5
658
330
621
100
AcDbEntity
  8
LC-001-002-----0
 62
     7
370
    35
100
AcDbLine
 10
566.5874579999999
 20
230.2
 30
0.0
 11
604.076862
 21
230.2
 31
0.0
  0
LINE
  5
659
330
621
100
AcDbEntity
  8
LC-001-002-----0
 62
     7
370
    35
100
AcDbLine
 10
566.5874579999999
 20
230.3
 30
0.0
 11
603.3172869999999
 21
230.3
 31
0.0
  0
LINE
  5
65A
330
621
100
AcDbEntity
  8
LC-001-002-----0
 62
     7
370
    35
100
AcDbLine
 10
566.5874579999999
 20
230.4
 30
0.0
 11
602.557711
 21
230.4
 31
0.0
  0
LINE
  5
65B
330
621
100
AcDbEntity
  8
LC-001-002-----0
 62
     7
370
    35
100
AcDbLine
 10
566.5874579999999
 20
230.5
 30
0.0
 11
601.798136
 21
230.5
 31
0.0
  0
LINE
  5
65C
330
621
100
AcDbEntity
  8
LC-001-002-----0
 62
     7
370
    35
100
AcDbLine
 10
566.5874579999999
 20
230.6
 30
0.0
 11
601.0385610000001
 21
230.6
 31
0.0
  0
LINE
  5
65D
330
621
100
AcDbEntity
  8
LC-001-002-----0
 62
     7
370
    35
100
AcDbLine
 10
566.5874579999999
 20
230.7
 30
0.0
 11
600.2789849999999
 21
230.7
 31
0.0
  0
LINE
  5
65E
330
621
100
AcDbEntity
  8
LC-001-002-----0
 62
     7
370
    35
100
AcDbLine
 10
566.5874579999999
 20
230.8
 30
0.0
 11
599.5194099999999
 21
230.8
 31
0.0
  0
LINE
  5
65F
330
621
100
AcDbEntity
  8
LC-001-002-----0
 62
     7
370
    35
100
AcDbLine
 10
566.5874579999999
 20
230.9
 30
0.0
 11
598.7598339999999
 21
230.9
 31
0.0
  0
LINE
  5
660
330
621
100
AcDbEntity
  8
LC-001-002-----0
 62
     7
370
    35
100
AcDbLine
 10
566.5874579999999
 20
231.0
 30
0.0
 11
598.000259
 21
231.0
 31
0.0
  0
LINE
  5
661
330
621
100
AcDbEntity
  8
LC-001-002-----0
 62
     7
370
    35
100
AcDbLine
 10
566.5874579999999
 20
231.1
 30
0.0
 11
597.2406839999999
 21
231.1
 31
0.0
  0
LINE
  5
662
330
621
100
AcDbEntity
  8
LC-001-002-----0
 62
     7
370
    35
100
AcDbLine
 10
566.5874579999999
 20
231.2
 30
0.0
 11
596.481108
 21
231.2
 31
0.0
  0
LINE
  5
663
330
621
100
AcDbEntity
  8
LC-001-002-----0
 62
     7
370
    35
100
AcDbLine
 10
566.5874579999999
 20
231.3
 30
0.0
 11
595.721533
 21
231.3
 31
0.0
  0
LINE
  5
664
330
621
100
AcDbEntity
  8
LC-001-002-----0
 62
     7
370
    35
100
AcDbLine
 10
566.5874579999999
 20
231.4
 30
0.0
 11
594.961957
 21
231.4
 31
0.0
  0
LINE
  5
665
330
621
100
AcDbEntity
  8
LC-001-002-----0
 62
     7
370
    35
100
AcDbLine
 10
566.5874579999999
 20
231.5
 30
0.0
 11
594.2023820000001
 21
231.5
 31
0.0
  0
LINE
  5
666
330
621
100
AcDbEntity
  8
LC-001-002-----0
 62
     7
370
    35
100
AcDbLine
 10
566.5874579999999
 20
231.6
 30
0.0
 11
593.442807
 21
231.6
 31
0.0
  0
LINE
  5
667
330
621
100
AcDbEntity
  8
LC-001-002-----0
 62
     7
370
    35
100
AcDbLine
 10
566.5874579999999
 20
231.7
 30
0.0
 11
592.6832309999999
 21
231.7
 31
0.0
  0
LINE
  5
668
330
621
100
AcDbEntity
  8
LC-001-002-----0
 62
     7
370
    35
100
AcDbLine
 10
566.5874579999999
 20
231.8
 30
0.0
 11
591.9236559999999
 21
231.8
 31
0.0
  0
LINE
  5
669
330
621
100
AcDbEntity
  8
LC-001-002-----0
 62
     7
370
    35
100
AcDbLine
 10
566.5874579999999
 20
231.9
 30
0.0
 11
591.1640799999999
 21
231.9
 31
0.0
  0
LINE
  5
66A
330
621
100
AcDbEntity
  8
LC-001-002-----0
 62
     7
370
    35
100
AcDbLine
 10
566.5874579999999
 20
232.0
 30
0.0
 11
590.4045049999999
 21
232.0
 31
0.0
  0
LINE
  5
66B
330
621
100
AcDbEntity
  8
LC-001-002-----0
 62
     7
370
    35
100
AcDbLine
 10
566.5874579999999
 20
232.1
 30
0.0
 11
589.644929
 21
232.1
 31
0.0
  0
LINE
  5
66C
330
621
100
AcDbEntity
  8
LC-001-002-----0
 62
     7
370
    35
100
AcDbLine
 10
566.5874579999999
 20
232.2
 30
0.0
 11
588.885354
 21
232.2
 31
0.0
  0
LINE
  5
66D
330
621
100
AcDbEntity
  8
LC-001-002-----0
 62
     7
370
    35
100
AcDbLine
 10
566.5874579999999
 20
232.3
 30
0.0
 11
588.1257789999999
 21
232.3
 31
0.0
  0
LINE
  5
66E
330
621
100
AcDbEntity
  8
LC-001-002-----0
 62
     7
370
    35
100
AcDbLine
 10
566.5874579999999
 20
232.4
 30
0.0
 11
587.366203
 21
232.4
 31
0.0
  0
LINE
  5
66F
330
621
100
AcDbEntity
  8
LC-001-002-----0
 62
     7
370
    35
100
AcDbLine
 10
566.5874579999999
 20
232.5
 30
0.0
 11
586.606628
 21
232.5
 31
0.0
  0
LINE
  5
670
330
621
100
AcDbEntity
  8
LC-001-002-----0
 62
     7
370
    35
100
AcDbLine
 10
566.5874579999999
 20
232.6
 30
0.0
 11
585.847052
 21
232.6
 31
0.0
  0
LINE
  5
671
330
621
100
AcDbEntity
  8
LC-001-002-----0
 62
     7
370
    35
100
AcDbLine
 10
566.5874579999999
 20
232.7
 30
0.0
 11
585.0874769999999
 21
232.7
 31
0.0
  0
LINE
  5
672
330
621
100
AcDbEntity
  8
LC-001-002-----0
 62
     7
370
    35
100
AcDbLine
 10
566.5874579999999
 20
232.8
 30
0.0
 11
584.3279019999999
 21
232.8
 31
0.0
  0
LINE
  5
673
330
621
100
AcDbEntity
  8
LC-001-002-----0
 62
     7
370
    35
100
AcDbLine
 10
566.5874579999999
 20
232.9
 30
0.0
 11
583.5683259999999
 21
232.9
 31
0.0
  0
LINE
  5
674
330
621
100
AcDbEntity
  8
LC-001-002-----0
 62
     7
370
    35
100
AcDbLine
 10
566.5874579999999
 20
233.0
 30
0.0
 11
582.808751
 21
233.0
 31
0.0
  0
LINE
  5
675
330
621
100
AcDbEntity
  8
LC-001-002-----0
 62
     7
370
    35
100
AcDbLine
 10
566.5874579999999
 20
233.1
 30
0.0
 11
582.049175
 21
233.1
 31
0.0
  0
LINE
  5
676
330
621
100
AcDbEntity
  8
LC-001-002-----0
 62
     7
370
    35
100
AcDbLine
 10
566.5874579999999
 20
233.2
 30
0.0
 11
581.2895999999999
 21
233.2
 31
0.0
  0
LINE
  5
677
330
621
100
AcDbEntity
  8
LC-001-002-----0
 62
     7
370
    35
100
AcDbLine
 10
566.5874579999999
 20
233.3
 30
0.0
 11
580.530025
 21
233.3
 31
0.0
  0
LINE
  5
678
330
621
100
AcDbEntity
  8
LC-001-002-----0
 62
     7
370
    35
100
AcDbLine
 10
566.5874579999999
 20
233.4
 30
0.0
 11
579.770449
 21
233.4
 31
0.0
  0
LINE
  5
679
330
621
100
AcDbEntity
  8
LC-001-002-----0
 62
     7
370
    35
100
AcDbLine
 10
566.5874579999999
 20
233.5
 30
0.0
 11
579.010874
 21
233.5
 31
0.0
  0
LINE
  5
67A
330
621
100
AcDbEntity
  8
LC-001-002-----0
 62
     7
370
    35
100
AcDbLine
 10
566.5874579999999
 20
233.6
 30
0.0
 11
578.2512979999999
 21
233.6
 31
0.0
  0
LINE
  5
67B
330
621
100
AcDbEntity
  8
LC-001-002-----0
 62
     7
370
    35
100
AcDbLine
 10
566.5874579999999
 20
233.7
 30
0.0
 11
577.491723
 21
233.7
 31
0.0
  0
LINE
  5
67C
330
621
100
AcDbEntity
  8
LC-001-002-----0
 62
     7
370
    35
100
AcDbLine
 10
566.5874579999999
 20
233.8
 30
0.0
 11
576.7321469999999
 21
233.8
 31
0.0
  0
LINE
  5
67D
330
621
100
AcDbEntity
  8
LC-001-002-----0
 62
     7
370
    35
100
AcDbLine
 10
566.5874579999999
 20
233.9
 30
0.0
 11
575.972572
 21
233.9
 31
0.0
  0
LINE
  5
67E
330
621
100
AcDbEntity
  8
LC-001-002-----0
 62
     7
370
    35
100
AcDbLine
 10
566.5874579999999
 20
234.0
 30
0.0
 11
575.2129969999999
 21
234.0
 31
0.0
  0
LINE
  5
67F
330
621
100
AcDbEntity
  8
LC-001-002-----0
 62
     7
370
    35
100
AcDbLine
 10
566.5874579999999
 20
234.1
 30
0.0
 11
574.453421
 21
234.1
 31
0.0
  0
LINE
  5
680
330
621
100
AcDbEntity
  8
LC-001-002-----0
 62
     7
370
    35
100
AcDbLine
 10
566.5874579999999
 20
234.2
 30
0.0
 11
573.693846
 21
234.2
 31
0.0
  0
LINE
  5
681
330
621
100
AcDbEntity
  8
LC-001-002-----0
 62
     7
370
    35
100
AcDbLine
 10
566.5874579999999
 20
234.3
 30
0.0
 11
572.93427
 21
234.3
 31
0.0
  0
LINE
  5
682
330
621
100
AcDbEntity
  8
LC-001-002-----0
 62
     7
370
    35
100
AcDbLine
 10
566.5874579999999
 20
234.4
 30
0.0
 11
572.174695
 21
234.4
 31
0.0
  0
LINE
  5
683
330
621
100
AcDbEntity
  8
LC-001-002-----0
 62
     7
370
    35
100
AcDbLine
 10
566.5874579999999
 20
234.5
 30
0.0
 11
571.4151199999999
 21
234.5
 31
0.0
  0
LINE
  5
684
330
621
100
AcDbEntity
  8
LC-001-002-----0
 62
     7
370
    35
100
AcDbLine
 10
566.5874579999999
 20
234.6
 30
0.0
 11
570.655544
 21
234.6
 31
0.0
  0
LINE
  5
685
330
621
100
AcDbEntity
  8
LC-001-002-----0
 62
     7
370
    35
100
AcDbLine
 10
566.5874579999999
 20
234.7
 30
0.0
 11
569.895969
 21
234.7
 31
0.0
  0
LINE
  5
686
330
621
100
AcDbEntity
  8
LC-001-002-----0
 62
     7
370
    35
100
AcDbLine
 10
566.5874579999999
 20
234.8
 30
0.0
 11
569.136393
 21
234.8
 31
0.0
  0
LINE
  5
687
330
621
100
AcDbEntity
  8
LC-001-002-----0
 62
     7
370
    35
100
AcDbLine
 10
566.5874579999999
 20
234.9
 30
0.0
 11
568.3768179999999
 21
234.9
 31
0.0
  0
LINE
  5
688
330
621
100
AcDbEntity
  8
LC-001-002-----0
 62
     7
370
    35
100
AcDbLine
 10
566.5874579999999
 20
235.0
 30
0.0
 11
567.6172429999999
 21
235.0
 31
0.0
  0
LINE
  5
689
330
621
100
AcDbEntity
  8
LC-001-002-----0
 62
     7
370
    35
100
AcDbLine
 10
566.5874579999999
 20
235.1
 30
0.0
 11
566.857667
 21
235.1
 31
0.0
  0
ENDBLK
  5
623
330
621
100
AcDbEntity
  8
0
100
AcDbBlockEnd
  0
BLOCK
  5
68F
330
68E
100
AcDbEntity
  8
0
100
AcDbBlockBegin
  2
*X23
 70
     1
 10
0.0
 20
0.0
 30
0.0
  3
*X23
  1

  4
*X10
  0
LINE
  5
691
330
68E
100
AcDbEntity
  8
LC-001-002-----0
 62
     7
370
    35
100
AcDbLine
 10
506.5960129999999
 20
215.2
 30
0.0
 11
509.0373239999999
 21
215.2
 31
0.0
  0
LINE
  5
692
330
68E
100
AcDbEntity
  8
LC-001-002-----0
 62
     7
370
    35
100
AcDbLine
 10
506.5960129999999
 20
215.4
 30
0.0
 11
510.0369429999999
 21
215.4
 31
0.0
  0
LINE
  5
693
330
68E
100
AcDbEntity
  8
LC-001-002-----0
 62
     7
370
    35
100
AcDbLine
 10
506.5960129999999
 20
215.6
 30
0.0
 11
510.796013
 21
215.6
 31
0.0
  0
LINE
  5
694
330
68E
100
AcDbEntity
  8
LC-001-002-----0
 62
     7
370
    35
100
AcDbLine
 10
506.5960129999999
 20
215.8
 30
0.0
 11
511.4292309999999
 21
215.8
 31
0.0
  0
LINE
  5
695
330
68E
100
AcDbEntity
  8
LC-001-002-----0
 62
     7
370
    35
100
AcDbLine
 10
506.5960129999999
 20
216.0
 30
0.0
 11
511.981178
 21
216.0
 31
0.0
  0
LINE
  5
696
330
68E
100
AcDbEntity
  8
LC-001-002-----0
 62
     7
370
    35
100
AcDbLine
 10
506.5960129999999
 20
216.2
 30
0.0
 11
512.474788
 21
216.2
 31
0.0
  0
LINE
  5
697
330
68E
100
AcDbEntity
  8
LC-001-002-----0
 62
     7
370
    35
100
AcDbLine
 10
506.5960129999999
 20
216.4
 30
0.0
 11
512.9237299999999
 21
216.4
 31
0.0
  0
LINE
  5
698
330
68E
100
AcDbEntity
  8
LC-001-002-----0
 62
     7
370
    35
100
AcDbLine
 10
506.5960129999999
 20
216.6
 30
0.0
 11
513.336933
 21
216.6
 31
0.0
  0
LINE
  5
699
330
68E
100
AcDbEntity
  8
LC-001-002-----0
 62
     7
370
    35
100
AcDbLine
 10
506.5960129999999
 20
216.8
 30
0.0
 11
513.7206179999999
 21
216.8
 31
0.0
  0
LINE
  5
69A
330
68E
100
AcDbEntity
  8
LC-001-002-----0
 62
     7
370
    35
100
AcDbLine
 10
506.5960129999999
 20
217.0
 30
0.0
 11
514.079328
 21
217.0
 31
0.0
  0
LINE
  5
69B
330
68E
100
AcDbEntity
  8
LC-001-002-----0
 62
     7
370
    35
100
AcDbLine
 10
506.5960129999999
 20
217.2
 30
0.0
 11
514.416499
 21
217.2
 31
0.0
  0
LINE
  5
69C
330
68E
100
AcDbEntity
  8
LC-001-002-----0
 62
     7
370
    35
100
AcDbLine
 10
506.5960129999999
 20
217.4
 30
0.0
 11
514.734809
 21
217.4
 31
0.0
  0
LINE
  5
69D
330
68E
100
AcDbEntity
  8
LC-001-002-----0
 62
     7
370
    35
100
AcDbLine
 10
506.5960129999999
 20
217.6
 30
0.0
 11
515.036392
 21
217.6
 31
0.0
  0
LINE
  5
69E
330
68E
100
AcDbEntity
  8
LC-001-002-----0
 62
     7
370
    35
100
AcDbLine
 10
506.5960129999999
 20
217.8
 30
0.0
 11
515.3229819999999
 21
217.8
 31
0.0
  0
LINE
  5
69F
330
68E
100
AcDbEntity
  8
LC-001-002-----0
 62
     7
370
    35
100
AcDbLine
 10
506.5960129999999
 20
218.0
 30
0.0
 11
515.5960129999999
 21
218.0
 31
0.0
  0
LINE
  5
6A0
330
68E
100
AcDbEntity
  8
LC-001-002-----0
 62
     7
370
    35
100
AcDbLine
 10
506.5960129999999
 20
218.2
 30
0.0
 11
515.8566819999999
 21
218.2
 31
0.0
  0
LINE
  5
6A1
330
68E
100
AcDbEntity
  8
LC-001-002-----0
 62
     7
370
    35
100
AcDbLine
 10
506.5960129999999
 20
218.4
 30
0.0
 11
516.1060079999999
 21
218.4
 31
0.0
  0
LINE
  5
6A2
330
68E
100
AcDbEntity
  8
LC-001-002-----0
 62
     7
370
    35
100
AcDbLine
 10
506.5960129999999
 20
218.6
 30
0.0
 11
516.3448589999999
 21
218.6
 31
0.0
  0
LINE
  5
6A3
330
68E
100
AcDbEntity
  8
LC-001-002-----0
 62
     7
370
    35
100
AcDbLine
 10
506.5960129999999
 20
218.8
 30
0.0
 11
516.573989
 21
218.8
 31
0.0
  0
LINE
  5
6A4
330
68E
100
AcDbEntity
  8
LC-001-002-----0
 62
     7
370
    35
100
AcDbLine
 10
506.5960129999999
 20
219.0
 30
0.0
 11
516.794052
 21
219.0
 31
0.0
  0
LINE
  5
6A5
330
68E
100
AcDbEntity
  8
LC-001-002-----0
 62
     7
370
    35
100
AcDbLine
 10
506.5960129999999
 20
219.2
 30
0.0
 11
517.005624
 21
219.2
 31
0.0
  0
LINE
  5
6A6
330
68E
100
AcDbEntity
  8
LC-001-002-----0
 62
     7
370
    35
100
AcDbLine
 10
506.5960129999999
 20
219.4
 30
0.0
 11
517.209212
 21
219.4
 31
0.0
  0
LINE
  5
6A7
330
68E
100
AcDbEntity
  8
LC-001-002-----0
 62
     7
370
    35
100
AcDbLine
 10
506.5960129999999
 20
219.6
 30
0.0
 11
517.4052679999999
 21
219.6
 31
0.0
  0
LINE
  5
6A8
330
68E
100
AcDbEntity
  8
LC-001-002-----0
 62
     7
370
    35
100
AcDbLine
 10
506.5960129999999
 20
219.8
 30
0.0
 11
517.594194
 21
219.8
 31
0.0
  0
LINE
  5
6A9
330
68E
100
AcDbEntity
  8
LC-001-002-----0
 62
     7
370
    35
100
AcDbLine
 10
506.5960129999999
 20
220.0
 30
0.0
 11
517.776353
 21
220.0
 31
0.0
  0
LINE
  5
6AA
330
68E
100
AcDbEntity
  8
LC-001-002-----0
 62
     7
370
    35
100
AcDbLine
 10
506.5960129999999
 20
220.2
 30
0.0
 11
517.9520679999999
 21
220.2
 31
0.0
  0
LINE
  5
6AB
330
68E
100
AcDbEntity
  8
LC-001-002-----0
 62
     7
370
    35
100
AcDbLine
 10
506.5960129999999
 20
220.4
 30
0.0
 11
518.121636
 21
220.4
 31
0.0
  0
LINE
  5
6AC
330
68E
100
AcDbEntity
  8
LC-001-002-----0
 62
     7
370
    35
100
AcDbLine
 10
506.5960129999999
 20
220.6
 30
0.0
 11
518.285324
 21
220.6
 31
0.0
  0
LINE
  5
6AD
330
68E
100
AcDbEntity
  8
LC-001-002-----0
 62
     7
370
    35
100
AcDbLine
 10
506.5960129999999
 20
220.8
 30
0.0
 11
518.4433749999999
 21
220.8
 31
0.0
  0
LINE
  5
6AE
330
68E
100
AcDbEntity
  8
LC-001-002-----0
 62
     7
370
    35
100
AcDbLine
 10
506.5960129999999
 20
221.0
 30
0.0
 11
518.5960129999999
 21
221.0
 31
0.0
  0
LINE
  5
6AF
330
68E
100
AcDbEntity
  8
LC-001-002-----0
 62
     7
370
    35
100
AcDbLine
 10
506.5960129999999
 20
221.2
 30
0.0
 11
518.7434409999999
 21
221.2
 31
0.0
  0
LINE
  5
6B0
330
68E
100
AcDbEntity
  8
LC-001-002-----0
 62
     7
370
    35
100
AcDbLine
 10
506.5960129999999
 20
221.4
 30
0.0
 11
518.885846
 21
221.4
 31
0.0
  0
LINE
  5
6B1
330
68E
100
AcDbEntity
  8
LC-001-002-----0
 62
     7
370
    35
100
AcDbLine
 10
506.5960129999999
 20
221.6
 30
0.0
 11
519.0234019999999
 21
221.6
 31
0.0
  0
LINE
  5
6B2
330
68E
100
AcDbEntity
  8
LC-001-002-----0
 62
     7
370
    35
100
AcDbLine
 10
506.5960129999999
 20
221.8
 30
0.0
 11
519.1562679999999
 21
221.8
 31
0.0
  0
LINE
  5
6B3
330
68E
100
AcDbEntity
  8
LC-001-002-----0
 62
     7
370
    35
100
AcDbLine
 10
506.5960129999999
 20
222.0
 30
0.0
 11
519.28459
 21
222.0
 31
0.0
  0
LINE
  5
6B4
330
68E
100
AcDbEntity
  8
LC-001-002-----0
 62
     7
370
    35
100
AcDbLine
 10
506.5960129999999
 20
222.2
 30
0.0
 11
519.4085069999999
 21
222.2
 31
0.0
  0
LINE
  5
6B5
330
68E
100
AcDbEntity
  8
LC-001-002-----0
 62
     7
370
    35
100
AcDbLine
 10
506.5960129999999
 20
222.4
 30
0.0
 11
519.528143
 21
222.4
 31
0.0
  0
LINE
  5
6B6
330
68E
100
AcDbEntity
  8
LC-001-002-----0
 62
     7
370
    35
100
AcDbLine
 10
506.5960129999999
 20
222.6
 30
0.0
 11
519.6436179999999
 21
222.6
 31
0.0
  0
LINE
  5
6B7
330
68E
100
AcDbEntity
  8
LC-001-002-----0
 62
     7
370
    35
100
AcDbLine
 10
506.5960129999999
 20
222.8
 30
0.0
 11
519.7550399999999
 21
222.8
 31
0.0
  0
LINE
  5
6B8
330
68E
100
AcDbEntity
  8
LC-001-002-----0
 62
     7
370
    35
100
AcDbLine
 10
506.5960129999999
 20
223.0
 30
0.0
 11
519.862512
 21
223.0
 31
0.0
  0
LINE
  5
6B9
330
68E
100
AcDbEntity
  8
LC-001-002-----0
 62
     7
370
    35
100
AcDbLine
 10
506.5960129999999
 20
223.2
 30
0.0
 11
519.966129
 21
223.2
 31
0.0
  0
LINE
  5
6BA
330
68E
100
AcDbEntity
  8
LC-001-002-----0
 62
     7
370
    35
100
AcDbLine
 10
506.5960129999999
 20
223.4
 30
0.0
 11
520.0659789999999
 21
223.4
 31
0.0
  0
LINE
  5
6BB
330
68E
100
AcDbEntity
  8
LC-001-002-----0
 62
     7
370
    35
100
AcDbLine
 10
506.5960129999999
 20
223.6
 30
0.0
 11
520.162147
 21
223.6
 31
0.0
  0
LINE
  5
6BC
330
68E
100
AcDbEntity
  8
LC-001-002-----0
 62
     7
370
    35
100
AcDbLine
 10
506.5960129999999
 20
223.8
 30
0.0
 11
520.2547099999999
 21
223.8
 31
0.0
  0
LINE
  5
6BD
330
68E
100
AcDbEntity
  8
LC-001-002-----0
 62
     7
370
    35
100
AcDbLine
 10
506.5960129999999
 20
224.0
 30
0.0
 11
520.34374
 21
224.0
 31
0.0
  0
LINE
  5
6BE
330
68E
100
AcDbEntity
  8
LC-001-002-----0
 62
     7
370
    35
100
AcDbLine
 10
506.5960129999999
 20
224.2
 30
0.0
 11
520.429306
 21
224.2
 31
0.0
  0
LINE
  5
6BF
330
68E
100
AcDbEntity
  8
LC-001-002-----0
 62
     7
370
    35
100
AcDbLine
 10
506.5960129999999
 20
224.4
 30
0.0
 11
520.511472
 21
224.4
 31
0.0
  0
LINE
  5
6C0
330
68E
100
AcDbEntity
  8
LC-001-002-----0
 62
     7
370
    35
100
AcDbLine
 10
506.5960129999999
 20
224.6
 30
0.0
 11
520.5902969999999
 21
224.6
 31
0.0
  0
LINE
  5
6C1
330
68E
100
AcDbEntity
  8
LC-001-002-----0
 62
     7
370
    35
100
AcDbLine
 10
506.5960129999999
 20
224.8
 30
0.0
 11
520.665839
 21
224.8
 31
0.0
  0
LINE
  5
6C2
330
68E
100
AcDbEntity
  8
LC-001-002-----0
 62
     7
370
    35
100
AcDbLine
 10
506.5960129999999
 20
225.0
 30
0.0
 11
520.738148
 21
225.0
 31
0.0
  0
LINE
  5
6C3
330
68E
100
AcDbEntity
  8
LC-001-002-----0
 62
     7
370
    35
100
AcDbLine
 10
506.5960129999999
 20
225.2
 30
0.0
 11
520.807276
 21
225.2
 31
0.0
  0
LINE
  5
6C4
330
68E
100
AcDbEntity
  8
LC-001-002-----0
 62
     7
370
    35
100
AcDbLine
 10
506.5960129999999
 20
225.4
 30
0.0
 11
520.8732669999999
 21
225.4
 31
0.0
  0
LINE
  5
6C5
330
68E
100
AcDbEntity
  8
LC-001-002-----0
 62
     7
370
    35
100
AcDbLine
 10
506.5960129999999
 20
225.6
 30
0.0
 11
520.936166
 21
225.6
 31
0.0
  0
LINE
  5
6C6
330
68E
100
AcDbEntity
  8
LC-001-002-----0
 62
     7
370
    35
100
AcDbLine
 10
506.5960129999999
 20
225.8
 30
0.0
 11
520.9960129999999
 21
225.8
 31
0.0
  0
LINE
  5
6C7
330
68E
100
AcDbEntity
  8
LC-001-002-----0
 62
     7
370
    35
100
AcDbLine
 10
506.5960129999999
 20
226.0
 30
0.0
 11
521.052845
 21
226.0
 31
0.0
  0
LINE
  5
6C8
330
68E
100
AcDbEntity
  8
LC-001-002-----0
 62
     7
370
    35
100
AcDbLine
 10
506.5960129999999
 20
226.2
 30
0.0
 11
521.106699
 21
226.2
 31
0.0
  0
LINE
  5
6C9
330
68E
100
AcDbEntity
  8
LC-001-002-----0
 62
     7
370
    35
100
AcDbLine
 10
506.5960129999999
 20
226.4
 30
0.0
 11
521.1576059999999
 21
226.4
 31
0.0
  0
LINE
  5
6CA
330
68E
100
AcDbEntity
  8
LC-001-002-----0
 62
     7
370
    35
100
AcDbLine
 10
506.5960129999999
 20
226.6
 30
0.0
 11
521.205599
 21
226.6
 31
0.0
  0
LINE
  5
6CB
330
68E
100
AcDbEntity
  8
LC-001-002-----0
 62
     7
370
    35
100
AcDbLine
 10
506.5960129999999
 20
226.8
 30
0.0
 11
521.2507049999999
 21
226.8
 31
0.0
  0
LINE
  5
6CC
330
68E
100
AcDbEntity
  8
LC-001-002-----0
 62
     7
370
    35
100
AcDbLine
 10
506.5960129999999
 20
227.0
 30
0.0
 11
521.292951
 21
227.0
 31
0.0
  0
LINE
  5
6CD
330
68E
100
AcDbEntity
  8
LC-001-002-----0
 62
     7
370
    35
100
AcDbLine
 10
506.5960129999999
 20
227.2
 30
0.0
 11
521.3323619999999
 21
227.2
 31
0.0
  0
LINE
  5
6CE
330
68E
100
AcDbEntity
  8
LC-001-002-----0
 62
     7
370
    35
100
AcDbLine
 10
506.5960129999999
 20
227.4
 30
0.0
 11
521.368961
 21
227.4
 31
0.0
  0
LINE
  5
6CF
330
68E
100
AcDbEntity
  8
LC-001-002-----0
 62
     7
370
    35
100
AcDbLine
 10
506.5960129999999
 20
227.6
 30
0.0
 11
521.4027679999999
 21
227.6
 31
0.0
  0
LINE
  5
6D0
330
68E
100
AcDbEntity
  8
LC-001-002-----0
 62
     7
370
    35
100
AcDbLine
 10
506.5960129999999
 20
227.8
 30
0.0
 11
521.4338019999998
 21
227.8
 31
0.0
  0
LINE
  5
6D1
330
68E
100
AcDbEntity
  8
LC-001-002-----0
 62
     7
370
    35
100
AcDbLine
 10
506.5960129999999
 20
228.0
 30
0.0
 11
521.462082
 21
228.0
 31
0.0
  0
LINE
  5
6D2
330
68E
100
AcDbEntity
  8
LC-001-002-----0
 62
     7
370
    35
100
AcDbLine
 10
506.5960129999999
 20
228.2
 30
0.0
 11
521.4876209999999
 21
228.2
 31
0.0
  0
LINE
  5
6D3
330
68E
100
AcDbEntity
  8
LC-001-002-----0
 62
     7
370
    35
100
AcDbLine
 10
506.5960129999999
 20
228.4
 30
0.0
 11
521.5104349999998
 21
228.4
 31
0.0
  0
LINE
  5
6D4
330
68E
100
AcDbEntity
  8
LC-001-002-----0
 62
     7
370
    35
100
AcDbLine
 10
506.5960129999999
 20
228.6
 30
0.0
 11
521.530537
 21
228.6
 31
0.0
  0
LINE
  5
6D5
330
68E
100
AcDbEntity
  8
LC-001-002-----0
 62
     7
370
    35
100
AcDbLine
 10
506.5960129999999
 20
228.8
 30
0.0
 11
521.547936
 21
228.8
 31
0.0
  0
LINE
  5
6D6
330
68E
100
AcDbEntity
  8
LC-001-002-----0
 62
     7
370
    35
100
AcDbLine
 10
506.5960129999999
 20
229.0
 30
0.0
 11
521.5626419999999
 21
229.0
 31
0.0
  0
LINE
  5
6D7
330
68E
100
AcDbEntity
  8
LC-001-002-----0
 62
     7
370
    35
100
AcDbLine
 10
506.5960129999999
 20
229.2
 30
0.0
 11
521.5746639999999
 21
229.2
 31
0.0
  0
LINE
  5
6D8
330
68E
100
AcDbEntity
  8
LC-001-002-----0
 62
     7
370
    35
100
AcDbLine
 10
506.5960129999999
 20
229.4
 30
0.0
 11
521.584008
 21
229.4
 31
0.0
  0
LINE
  5
6D9
330
68E
100
AcDbEntity
  8
LC-001-002-----0
 62
     7
370
    35
100
AcDbLine
 10
506.5960129999999
 20
229.6
 30
0.0
 11
521.590679
 21
229.6
 31
0.0
  0
LINE
  5
6DA
330
68E
100
AcDbEntity
  8
LC-001-002-----0
 62
     7
370
    35
100
AcDbLine
 10
506.5960129999999
 20
229.8
 30
0.0
 11
521.594679
 21
229.8
 31
0.0
  0
LINE
  5
6DB
330
68E
100
AcDbEntity
  8
LC-001-002-----0
 62
     7
370
    35
100
AcDbLine
 10
506.5960129999999
 20
230.0
 30
0.0
 11
521.596013
 21
230.0
 31
0.0
  0
ENDBLK
  5
690
330
68E
100
AcDbEntity
  8
0
100
AcDbBlockEnd
  0
BLOCK
  5
705
330
6FB
100
AcDbEntity
  8
0
100
AcDbBlockBegin
  2
*D24
 70
     1
 10
0.0
 20
0.0
 30
0.0
  3
*D24
  1

  0
LINE
  5
6FC
330
6FB
100
AcDbEntity
  8
LC-005-003-----0
 62
     2
370
    -2
100
AcDbLine
 10
587.946013
 20
27.375
 30
0.0
 11
587.946013
 21
-134.0
 31
0.0
  0
LINE
  5
6FD
330
6FB
100
AcDbEntity
  8
LC-005-003-----0
 62
     2
370
    -2
100
AcDbLine
 10
425.246013
 20
27.375
 30
0.0
 11
425.246013
 21
-134.0
 31
0.0
  0
LINE
  5
6FE
330
6FB
100
AcDbEntity
  8
LC-005-003-----0
 62
     2
370
    -2
100
AcDbLine
 10
575.446013
 20
-125.0
 30
0.0
 11
437.746013
 21
-125.0
 31
0.0
  0
SOLID
  5
6FF
330
6FB
100
AcDbEntity
  8
LC-005-003-----0
 62
     2
100
AcDbTrace
 10
575.446013
 20
-127.083333
 30
0.0
 11
575.446013
 21
-122.916667
 31
0.0
 12
587.946013
 22
-125.0
 32
0.0
 13
587.946013
 23
-125.0
 33
0.0
  0
SOLID
  5
700
330
6FB
100
AcDbEntity
  8
LC-005-003-----0
 62
     2
100
AcDbTrace
 10
437.746013
 20
-122.916667
 30
0.0
 11
437.746013
 21
-127.083333
 31
0.0
 12
425.246013
 22
-125.0
 32
0.0
 13
425.246013
 23
-125.0
 33
0.0
  0
MTEXT
  5
701
330
6FB
100
AcDbEntity
  8
LC-005-003-----0
 62
     2
100
AcDbMText
 10
506.5960129999999
 20
-110.0
 30
0.0
 40
12.5
 41
0.0
 71
     5
 72
     1
  1
\A1;162,7
  7
LCTX0-400-0-0pDIN-Schrift
 73
     1
 44
1.0
1001
ACAD
1000
MTEXTBEGIN
1070
    73
1070
     1
1070
    44
1040
1.0
1070
    74
1070
     0
1000
MTEXTEND
  0
POINT
  5
702
330
6FB
100
AcDbEntity
  8
Defpoints
 62
     0
100
AcDbPoint
 10
587.946013
 20
27.375
 30
0.0
  0
POINT
  5
703
330
6FB
100
AcDbEntity
  8
Defpoints
 62
     0
100
AcDbPoint
 10
425.246013
 20
27.375
 30
0.0
  0
POINT
  5
704
330
6FB
100
AcDbEntity
  8
Defpoints
 62
     0
100
AcDbPoint
 10
425.246013
 20
-125.0
 30
0.0
  0
ENDBLK
  5
706
330
6FB
100
AcDbEntity
  8
0
100
AcDbBlockEnd
  0
BLOCK
  5
713
330
709
100
AcDbEntity
  8
0
100
AcDbBlockBegin
  2
*D25
 70
     1
 10
0.0
 20
0.0
 30
0.0
  3
*D25
  1

  0
LINE
  5
70A
330
709
100
AcDbEntity
  8
LC-005-003-----0
 62
     2
370
    -2
100
AcDbLine
 10
587.946013
 20
27.375
 30
0.0
 11
587.946013
 21
-59.0
 31
0.0
  0
LINE
  5
70B
330
709
100
AcDbEntity
  8
LC-005-003-----0
 62
     2
370
    -2
100
AcDbLine
 10
506.5960129999999
 20
27.375
 30
0.0
 11
506.5960129999999
 21
-59.0
 31
0.0
  0
LINE
  5
70C
330
709
100
AcDbEntity
  8
LC-005-003-----0
 62
     2
370
    -2
100
AcDbLine
 10
575.446013
 20
-50.0
 30
0.0
 11
519.0960129999999
 21
-50.0
 31
0.0
  0
SOLID
  5
70D
330
709
100
AcDbEntity
  8
LC-005-003-----0
 62
     2
100
AcDbTrace
 10
575.446013
 20
-52.083333
 30
0.0
 11
575.446013
 21
-47.91666699999999
 31
0.0
 12
587.946013
 22
-50.0
 32
0.0
 13
587.946013
 23
-50.0
 33
0.0
  0
SOLID
  5
70E
330
709
100
AcDbEntity
  8
LC-005-003-----0
 62
     2
100
AcDbTrace
 10
519.0960129999999
 20
-47.91666699999999
 30
0.0
 11
519.0960129999999
 21
-52.083333
 31
0.0
 12
506.5960129999999
 22
-50.0
 32
0.0
 13
506.5960129999999
 23
-50.0
 33
0.0
  0
MTEXT
  5
70F
330
709
100
AcDbEntity
  8
LC-005-003-----0
 62
     2
100
AcDbMText
 10
547.271013
 20
-35.0
 30
0.0
 40
12.5
 41
0.0
 71
     5
 72
     1
  1
(\A1;81,35)
  7
LCTX0-400-0-0pDIN-Schrift
 73
     1
 44
1.0
1001
ACAD
1000
MTEXTBEGIN
1070
    73
1070
     1
1070
    44
1040
1.0
1070
    74
1070
     0
1000
MTEXTEND
  0
POINT
  5
710
330
709
100
AcDbEntity
  8
Defpoints
 62
     0
100
AcDbPoint
 10
587.946013
 20
27.375
 30
0.0
  0
POINT
  5
711
330
709
100
AcDbEntity
  8
Defpoints
 62
     0
100
AcDbPoint
 10
506.5960129999999
 20
27.375
 30
0.0
  0
POINT
  5
712
330
709
100
AcDbEntity
  8
Defpoints
 62
     0
100
AcDbPoint
 10
506.5960129999999
 20
-50.0
 30
0.0
  0
ENDBLK
  5
714
330
709
100
AcDbEntity
  8
0
100
AcDbBlockEnd
  0
BLOCK
  5
720
330
716
100
AcDbEntity
  8
0
100
AcDbBlockBegin
  2
*D26
 70
     1
 10
0.0
 20
0.0
 30
0.0
  3
*D26
  1

  0
LINE
  5
717
330
716
100
AcDbEntity
  8
LC-005-003-----0
 62
     2
370
    -2
100
AcDbLine
 10
506.5960129999999
 20
27.375
 30
0.0
 11
506.5960129999999
 21
-59.0
 31
0.0
  0
LINE
  5
718
330
716
100
AcDbEntity
  8
LC-005-003-----0
 62
     2
370
    -2
100
AcDbLine
 10
425.246013
 20
27.375
 30
0.0
 11
425.246013
 21
-59.0
 31
0.0
  0
LINE
  5
719
330
716
100
AcDbEntity
  8
LC-005-003-----0
 62
     2
370
    -2
100
AcDbLine
 10
494.0960129999999
 20
-50.0
 30
0.0
 11
437.746013
 21
-50.0
 31
0.0
  0
SOLID
  5
71A
330
716
100
AcDbEntity
  8
LC-005-003-----0
 62
     2
100
AcDbTrace
 10
494.0960129999999
 20
-52.083333
 30
0.0
 11
494.0960129999999
 21
-47.91666699999999
 31
0.0
 12
506.5960129999999
 22
-50.0
 32
0.0
 13
506.5960129999999
 23
-50.0
 33
0.0
  0
SOLID
  5
71B
330
716
100
AcDbEntity
  8
LC-005-003-----0
 62
     2
100
AcDbTrace
 10
437.746013
 20
-47.91666699999999
 30
0.0
 11
437.746013
 21
-52.083333
 31
0.0
 12
425.246013
 22
-50.0
 32
0.0
 13
425.246013
 23
-50.0
 33
0.0
  0
MTEXT
  5
71C
330
716
100
AcDbEntity
  8
LC-005-003-----0
 62
     2
100
AcDbMText
 10
465.9210129999999
 20
-35.0
 30
0.0
 40
12.5
 41
0.0
 71
     5
 72
     1
  1
(\A1;81,35)
  7
LCTX0-400-0-0pDIN-Schrift
 73
     1
 44
1.0
1001
ACAD
1000
MTEXTBEGIN
1070
    73
1070
     1
1070
    44
1040
1.0
1070
    74
1070
     0
1000
MTEXTEND
  0
POINT
  5
71D
330
716
100
AcDbEntity
  8
Defpoints
 62
     0
100
AcDbPoint
 10
506.5960129999999
 20
27.375
 30
0.0
  0
POINT
  5
71E
330
716
100
AcDbEntity
  8
Defpoints
 62
     0
100
AcDbPoint
 10
425.246013
 20
27.375
 30
0.0
  0
POINT
  5
71F
330
716
100
AcDbEntity
  8
Defpoints
 62
     0
100
AcDbPoint
 10
425.246013
 20
-50.0
 30
0.0
  0
ENDBLK
  5
721
330
716
100
AcDbEntity
  8
0
100
AcDbBlockEnd
  0
BLOCK
  5
741
330
737
100
AcDbEntity
  8
0
100
AcDbBlockBegin
  2
*D27
 70
     1
 10
0.0
 20
0.0
 30
0.0
  3
*D27
  1

  0
LINE
  5
738
330
737
100
AcDbEntity
  8
LC-005-003-----0
 62
     2
370
    -2
100
AcDbLine
 10
385.246013
 20
392.625
 30
0.0
 11
216.0
 21
392.625
 31
0.0
  0
LINE
  5
739
330
737
100
AcDbEntity
  8
LC-005-003-----0
 62
     2
370
    -2
100
AcDbLine
 10
385.246013
 20
67.375
 30
0.0
 11
216.0
 21
67.375
 31
0.0
  0
LINE
  5
73A
330
737
100
AcDbEntity
  8
LC-005-003-----0
 62
     2
370
    -2
100
AcDbLine
 10
225.0
 20
380.125
 30
0.0
 11
225.0
 21
79.875
 31
0.0
  0
SOLID
  5
73B
330
737
100
AcDbEntity
  8
LC-005-003-----0
 62
     2
100
AcDbTrace
 10
227.083333
 20
380.125
 30
0.0
 11
222.916667
 21
380.125
 31
0.0
 12
225.0
 22
392.625
 32
0.0
 13
225.0
 23
392.625
 33
0.0
  0
SOLID
  5
73C
330
737
100
AcDbEntity
  8
LC-005-003-----0
 62
     2
100
AcDbTrace
 10
222.916667
 20
79.875
 30
0.0
 11
227.083333
 21
79.875
 31
0.0
 12
225.0
 22
67.375
 32
0.0
 13
225.0
 23
67.375
 33
0.0
  0
MTEXT
  5
73D
330
737
100
AcDbEntity
  8
LC-005-003-----0
 62
     2
100
AcDbMText
 10
210.0
 20
230.0
 30
0.0
 40
12.5
 41
0.0
 71
     5
 72
     1
  1
\A1;325,25
  7
LCTX0-400-0-0pDIN-Schrift
 11
0.0000000000000001
 21
1.0
 31
0.0
 73
     1
 44
1.0
1001
ACAD
1000
MTEXTBEGIN
1070
    73
1070
     1
1070
    44
1040
1.0
1070
    74
1070
     0
1000
MTEXTEND
  0
POINT
  5
73E
330
737
100
AcDbEntity
  8
Defpoints
 62
     0
100
AcDbPoint
 10
385.246013
 20
392.625
 30
0.0
  0
POINT
  5
73F
330
737
100
AcDbEntity
  8
Defpoints
 62
     0
100
AcDbPoint
 10
385.246013
 20
67.375
 30
0.0
  0
POINT
  5
740
330
737
100
AcDbEntity
  8
Defpoints
 62
     0
100
AcDbPoint
 10
225.0
 20
67.375
 30
0.0
  0
ENDBLK
  5
742
330
737
100
AcDbEntity
  8
0
100
AcDbBlockEnd
  0
BLOCK
  5
74E
330
744
100
AcDbEntity
  8
0
100
AcDbBlockBegin
  2
*D28
 70
     1
 10
0.0
 20
0.0
 30
0.0
  3
*D28
  1

  0
LINE
  5
745
330
744
100
AcDbEntity
  8
LC-005-003-----0
 62
     2
370
    -2
100
AcDbLine
 10
385.246013
 20
392.625
 30
0.0
 11
291.0
 21
392.625
 31
0.0
  0
LINE
  5
746
330
744
100
AcDbEntity
  8
LC-005-003-----0
 62
     2
370
    -2
100
AcDbLine
 10
385.246013
 20
230.0
 30
0.0
 11
291.0
 21
230.0
 31
0.0
  0
LINE
  5
747
330
744
100
AcDbEntity
  8
LC-005-003-----0
 62
     2
370
    -2
100
AcDbLine
 10
300.0
 20
380.125
 30
0.0
 11
300.0
 21
242.5
 31
0.0
  0
SOLID
  5
748
330
744
100
AcDbEntity
  8
LC-005-003-----0
 62
     2
100
AcDbTrace
 10
302.083333
 20
380.125
 30
0.0
 11
297.916667
 21
380.125
 31
0.0
 12
300.0
 22
392.625
 32
0.0
 13
300.0
 23
392.625
 33
0.0
  0
SOLID
  5
749
330
744
100
AcDbEntity
  8
LC-005-003-----0
 62
     2
100
AcDbTrace
 10
297.916667
 20
242.5
 30
0.0
 11
302.083333
 21
242.5
 31
0.0
 12
300.0
 22
230.0
 32
0.0
 13
300.0
 23
230.0
 33
0.0
  0
MTEXT
  5
74A
330
744
100
AcDbEntity
  8
LC-005-003-----0
 62
     2
100
AcDbMText
 10
285.0
 20
311.3125
 30
0.0
 40
12.5
 41
0.0
 71
     5
 72
     1
  1
(\A1;162,625)
  7
LCTX0-400-0-0pDIN-Schrift
 11
0.0000000000000001
 21
1.0
 31
0.0
 73
     1
 44
1.0
1001
ACAD
1000
MTEXTBEGIN
1070
    73
1070
     1
1070
    44
1040
1.0
1070
    74
1070
     0
1000
MTEXTEND
  0
POINT
  5
74B
330
744
100
AcDbEntity
  8
Defpoints
 62
     0
100
AcDbPoint
 10
385.246013
 20
392.625
 30
0.0
  0
POINT
  5
74C
330
744
100
AcDbEntity
  8
Defpoints
 62
     0
100
AcDbPoint
 10
385.246013
 20
230.0
 30
0.0
  0
POINT
  5
74D
330
744
100
AcDbEntity
  8
Defpoints
 62
     0
100
AcDbPoint
 10
300.0
 20
230.0
 30
0.0
  0
ENDBLK
  5
74F
330
744
100
AcDbEntity
  8
0
100
AcDbBlockEnd
  0
BLOCK
  5
75B
330
751
100
AcDbEntity
  8
0
100
AcDbBlockBegin
  2
*D29
 70
     1
 10
0.0
 20
0.0
 30
0.0
  3
*D29
  1

  0
LINE
  5
752
330
751
100
AcDbEntity
  8
LC-005-003-----0
 62
     2
370
    -2
100
AcDbLine
 10
385.246013
 20
67.375
 30
0.0
 11
291.0
 21
67.375
 31
0.0
  0
LINE
  5
753
330
751
100
AcDbEntity
  8
LC-005-003-----0
 62
     2
370
    -2
100
AcDbLine
 10
385.246013
 20
230.0
 30
0.0
 11
291.0
 21
230.0
 31
0.0
  0
LINE
  5
754
330
751
100
AcDbEntity
  8
LC-005-003-----0
 62
     2
370
    -2
100
AcDbLine
 10
300.0
 20
79.875
 30
0.0
 11
300.0
 21
217.5
 31
0.0
  0
SOLID
  5
755
330
751
100
AcDbEntity
  8
LC-005-003-----0
 62
     2
100
AcDbTrace
 10
297.916667
 20
79.875
 30
0.0
 11
302.083333
 21
79.875
 31
0.0
 12
300.0
 22
67.375
 32
0.0
 13
300.0
 23
67.375
 33
0.0
  0
SOLID
  5
756
330
751
100
AcDbEntity
  8
LC-005-003-----0
 62
     2
100
AcDbTrace
 10
302.083333
 20
217.5
 30
0.0
 11
297.916667
 21
217.5
 31
0.0
 12
300.0
 22
230.0
 32
0.0
 13
300.0
 23
230.0
 33
0.0
  0
MTEXT
  5
757
330
751
100
AcDbEntity
  8
LC-005-003-----0
 62
     2
100
AcDbMText
 10
285.0
 20
148.6875
 30
0.0
 40
12.5
 41
0.0
 71
     5
 72
     1
  1
(\A1;162,625)
  7
LCTX0-400-0-0pDIN-Schrift
 11
0.0000000000000001
 21
1.0
 31
0.0
 73
     1
 44
1.0
1001
ACAD
1000
MTEXTBEGIN
1070
    73
1070
     1
1070
    44
1040
1.0
1070
    74
1070
     0
1000
MTEXTEND
  0
POINT
  5
758
330
751
100
AcDbEntity
  8
Defpoints
 62
     0
100
AcDbPoint
 10
385.246013
 20
67.375
 30
0.0
  0
POINT
  5
759
330
751
100
AcDbEntity
  8
Defpoints
 62
     0
100
AcDbPoint
 10
385.246013
 20
230.0
 30
0.0
  0
POINT
  5
75A
330
751
100
AcDbEntity
  8
Defpoints
 62
     0
100
AcDbPoint
 10
300.0
 20
230.0
 30
0.0
  0
ENDBLK
  5
75C
330
751
100
AcDbEntity
  8
0
100
AcDbBlockEnd
  0
BLOCK
  5
78B
330
785
100
AcDbEntity
  8
0
100
AcDbBlockBegin
  2
*D30
 70
     1
 10
0.0
 20
0.0
 30
0.0
  3
*D30
  1

  0
LINE
  5
786
330
785
100
AcDbEntity
  8
LC-005-003-----0
 62
     2
370
    -2
100
AcDbLine
 10
2088.233224
 20
773.3754039999999
 30
0.0
 11
2090.447484
 21
775.877704
 31
0.0
  0
MTEXT
  5
787
330
785
100
AcDbEntity
  8
LC-005-003-----0
 62
     2
100
AcDbMText
 10
2112.980138
 20
782.539558
 30
0.0
 40
12.5
 41
0.0
 71
     5
 72
     1
  1
\A1;R40
  7
LCTX0-400-0-0pDIN-Schrift
 11
0.6626893317359661
 21
0.7488944181948075
 31
0.0
 73
     1
 44
1.0
1001
ACAD
1000
MTEXTBEGIN
1070
    73
1070
     1
1070
    44
1040
1.0
1070
    74
1070
     0
1000
MTEXTEND
  0
SOLID
  5
788
330
785
100
AcDbEntity
  8
LC-005-003-----0
 62
     2
100
AcDbTrace
 10
2075.440448
 20
755.7747400000001
 30
0.0
 11
2072.320054
 21
758.5359459999999
 31
0.0
 12
2082.163868
 22
766.516523
 32
0.0
 13
2082.163868
 23
766.516523
 33
0.0
  0
POINT
  5
789
330
785
100
AcDbEntity
  8
Defpoints
 62
     0
100
AcDbPoint
 10
2082.163868
 20
766.516523
 30
0.0
  0
POINT
  5
78A
330
785
100
AcDbEntity
  8
Defpoints
 62
     0
100
AcDbPoint
 10
2055.656294
 20
736.560747
 30
0.0
  0
ENDBLK
  5
78C
330
785
100
AcDbEntity
  8
0
100
AcDbBlockEnd
  0
BLOCK
  5
794
330
78E
100
AcDbEntity
  8
0
100
AcDbBlockBegin
  2
*D31
 70
     1
 10
0.0
 20
0.0
 30
0.0
  3
*D31
  1

  0
LINE
  5
78F
330
78E
100
AcDbEntity
  8
LC-005-003-----0
 62
     2
370
    -2
100
AcDbLine
 10
2068.158913
 20
749.778678
 30
0.0
 11
2060.810113
 21
742.0094309999999
 31
0.0
  0
MTEXT
  5
790
330
78E
100
AcDbEntity
  8
LC-005-003-----0
 62
     2
100
AcDbMText
 10
2043.444262
 20
741.135504
 30
0.0
 40
12.5
 41
0.0
 71
     5
 72
     1
  1
\A1;R20
  7
LCTX0-400-0-0pDIN-Schrift
 11
0.6871757748365836
 21
0.7264911936684032
 31
0.0
 73
     1
 44
1.0
1001
ACAD
1000
MTEXTBEGIN
1070
    73
1070
     1
1070
    44
1040
1.0
1070
    74
1070
     0
1000
MTEXTEND
  0
SOLID
  5
791
330
78E
100
AcDbEntity
  8
LC-005-003-----0
 62
     2
100
AcDbTrace
 10
2076.475984
 20
761.6033269999999
 30
0.0
 11
2079.50303
 21
758.740094
 31
0.0
 12
2069.399810000001
 22
751.0905700000001
 32
0.0
 13
2069.399810000001
 23
751.0905700000001
 33
0.0
  0
POINT
  5
792
330
78E
100
AcDbEntity
  8
Defpoints
 62
     0
100
AcDbPoint
 10
2069.399810000001
 20
751.0905700000001
 30
0.0
  0
POINT
  5
793
330
78E
100
AcDbEntity
  8
Defpoints
 62
     0
100
AcDbPoint
 10
2055.656294
 20
736.560747
 30
0.0
  0
ENDBLK
  5
795
330
78E
100
AcDbEntity
  8
0
100
AcDbBlockEnd
  0
BLOCK
  5
7A2
330
798
100
AcDbEntity
  8
0
100
AcDbBlockBegin
  2
*D32
 70
     1
 10
0.0
 20
0.0
 30
0.0
  3
*D32
  1

  0
LINE
  5
799
330
798
100
AcDbEntity
  8
LC-005-003-----0
 62
     2
370
    -2
100
AcDbLine
 10
1872.956294
 20
756.5607469999999
 30
0.0
 11
1816.0
 21
756.5607469999999
 31
0.0
  0
LINE
  5
79A
330
798
100
AcDbEntity
  8
LC-005-003-----0
 62
     2
370
    -2
100
AcDbLine
 10
1872.956294
 20
655.935747
 30
0.0
 11
1816.0
 21
655.935747
 31
0.0
  0
LINE
  5
79B
330
798
100
AcDbEntity
  8
LC-005-003-----0
 62
     2
370
    -2
100
AcDbLine
 10
1825.0
 20
744.0607469999999
 30
0.0
 11
1825.0
 21
668.435747
 31
0.0
  0
SOLID
  5
79C
330
798
100
AcDbEntity
  8
LC-005-003-----0
 62
     2
100
AcDbTrace
 10
1827.083333
 20
744.0607469999999
 30
0.0
 11
1822.916667
 21
744.0607469999999
 31
0.0
 12
1825.0
 22
756.5607469999999
 32
0.0
 13
1825.0
 23
756.5607469999999
 33
0.0
  0
SOLID
  5
79D
330
798
100
AcDbEntity
  8
LC-005-003-----0
 62
     2
100
AcDbTrace
 10
1822.916667
 20
668.435747
 30
0.0
 11
1827.083333
 21
668.435747
 31
0.0
 12
1825.0
 22
655.935747
 32
0.0
 13
1825.0
 23
655.935747
 33
0.0
  0
MTEXT
  5
79E
330
798
100
AcDbEntity
  8
LC-005-003-----0
 62
     2
100
AcDbMText
 10
1810.0
 20
706.2482469999999
 30
0.0
 40
12.5
 41
0.0
 71
     5
 72
     1
  1
\A1;100,6
  7
LCTX0-400-0-0pDIN-Schrift
 11
0.0000000000000001
 21
1.0
 31
0.0
 73
     1
 44
1.0
1001
ACAD
1000
MTEXTBEGIN
1070
    73
1070
     1
1070
    44
1040
1.0
1070
    74
1070
     0
1000
MTEXTEND
  0
POINT
  5
79F
330
798
100
AcDbEntity
  8
Defpoints
 62
     0
100
AcDbPoint
 10
1872.956294
 20
756.5607469999999
 30
0.0
  0
POINT
  5
7A0
330
798
100
AcDbEntity
  8
Defpoints
 62
     0
100
AcDbPoint
 10
1872.956294
 20
655.935747
 30
0.0
  0
POINT
  5
7A1
330
798
100
AcDbEntity
  8
Defpoints
 62
     0
100
AcDbPoint
 10
1825.0
 20
655.935747
 30
0.0
  0
ENDBLK
  5
7A3
330
798
100
AcDbEntity
  8
0
100
AcDbBlockEnd
  0
BLOCK
  5
7B1
330
7A5
100
AcDbEntity
  8
0
100
AcDbBlockBegin
  2
*D33
 70
     1
 10
0.0
 20
0.0
 30
0.0
  3
*D33
  1

  0
LINE
  5
7A6
330
7A5
100
AcDbEntity
  8
LC-005-003-----0
 62
     2
370
    -2
100
AcDbLine
 10
1872.956294
 20
776.5607469999999
 30
0.0
 11
1816.0
 21
776.5607469999999
 31
0.0
  0
LINE
  5
7A7
330
7A5
100
AcDbEntity
  8
LC-005-003-----0
 62
     2
370
    -2
100
AcDbLine
 10
1872.956294
 20
756.5607469999999
 30
0.0
 11
1816.0
 21
756.5607469999999
 31
0.0
  0
LINE
  5
7A8
330
7A5
100
AcDbEntity
  8
LC-005-003-----0
 62
     2
370
    -2
100
AcDbLine
 10
1825.0
 20
744.0607469999999
 30
0.0
 11
1825.0
 21
731.5607469999999
 31
0.0
  0
LINE
  5
7A9
330
7A5
100
AcDbEntity
  8
LC-005-003-----0
 62
     2
370
    -2
100
AcDbLine
 10
1825.0
 20
789.0607469999999
 30
0.0
 11
1825.0
 21
805.0719410000001
 31
0.0
  0
LINE
  5
7AA
330
7A5
100
AcDbEntity
  8
LC-005-003-----0
 62
     2
370
    -2
100
AcDbLine
 10
1825.0
 20
776.5607469999999
 30
0.0
 11
1825.0
 21
756.5607469999999
 31
0.0
  0
SOLID
  5
7AB
330
7A5
100
AcDbEntity
  8
LC-005-003-----0
 62
     2
100
AcDbTrace
 10
1822.916667
 20
789.0607469999999
 30
0.0
 11
1827.083333
 21
789.0607469999999
 31
0.0
 12
1825.0
 22
776.5607469999999
 32
0.0
 13
1825.0
 23
776.5607469999999
 33
0.0
  0
SOLID
  5
7AC
330
7A5
100
AcDbEntity
  8
LC-005-003-----0
 62
     2
100
AcDbTrace
 10
1827.083333
 20
744.0607469999999
 30
0.0
 11
1822.916667
 21
744.0607469999999
 31
0.0
 12
1825.0
 22
756.5607469999999
 32
0.0
 13
1825.0
 23
756.5607469999999
 33
0.0
  0
MTEXT
  5
7AD
330
7A5
100
AcDbEntity
  8
LC-005-003-----0
 62
     2
100
AcDbMText
 10
1810.0
 20
788.059441
 30
0.0
 40
12.5
 41
0.0
 71
     5
 72
     1
  1
\A1;20
  7
LCTX0-400-0-0pDIN-Schrift
 11
0.0000000000000001
 21
1.0
 31
0.0
 73
     1
 44
1.0
1001
ACAD
1000
MTEXTBEGIN
1070
    73
1070
     1
1070
    44
1040
1.0
1070
    74
1070
     0
1000
MTEXTEND
  0
POINT
  5
7AE
330
7A5
100
AcDbEntity
  8
Defpoints
 62
     0
100
AcDbPoint
 10
1872.956294
 20
776.5607469999999
 30
0.0
  0
POINT
  5
7AF
330
7A5
100
AcDbEntity
  8
Defpoints
 62
     0
100
AcDbPoint
 10
1872.956294
 20
756.5607469999999
 30
0.0
  0
POINT
  5
7B0
330
7A5
100
AcDbEntity
  8
Defpoints
 62
     0
100
AcDbPoint
 10
1825.0
 20
756.5607469999999
 30
0.0
  0
ENDBLK
  5
7B2
330
7A5
100
AcDbEntity
  8
0
100
AcDbBlockEnd
  0
ENDSEC
  0
SECTION
  2
ENTITIES
  0
LINE
  5
37
330
1F
100
AcDbEntity
  8
LC-001-002-----0
 62
     7
370
    50
100
AcDbLine
 10
2075.494563
 20
1095.525384
 30
0.0
 11
2061.230401
 21
979.353105
 31
0.0
  0
LINE
  5
38
330
1F
100
AcDbEntity
  8
LC-001-002-----0
 62
     7
370
    50
100
AcDbLine
 10
1892.956294
 20
1096.84258
 30
0.0
 11
2095.656294000001
 21
1096.84258
 31
0.0
  0
LINE
  5
39
330
1F
100
AcDbEntity
  8
LC-001-002-----0
 62
     7
370
    50
100
AcDbLine
 10
2082.480758
 20
1078.573796
 30
0.0
 11
2070.163582000001
 21
978.258446
 31
0.0
  0
LINE
  5
3A
330
1F
100
AcDbEntity
  8
LC-001-002-----0
 62
     7
370
    50
100
AcDbLine
 10
2088.436035
 20
1083.84258
 30
0.0
 11
2092.172955
 21
1083.84258
 31
0.0
  0
LINE
  5
3B
330
1F
100
AcDbEntity
  8
LC-001-002-----0
 62
     7
370
    50
100
AcDbLine
 10
2059.595946
 20
956.5250070000001
 30
0.0
 11
2057.73891
 21
952.54258
 31
0.0
  0
ARC
  5
3C
330
1F
100
AcDbEntity
  8
LC-001-002-----0
 62
     7
370
    50
100
AcDbCircle
 10
2088.436035
 20
1077.84258
 30
0.0
 40
6.0
100
AcDbArc
 50
90.0
 51
173.0
  0
ARC
  5
3D
330
1F
100
AcDbEntity
  8
LC-001-002-----0
 62
     7
370
    50
100
AcDbCircle
 10
2076.983382
 20
1095.34258
 30
0.0
 40
1.5
100
AcDbArc
 50
90.0
 51
173.0
  0
LINE
  5
3E
330
1F
100
AcDbEntity
  8
LC-001-002-----0
 62
     7
370
    50
100
AcDbLine
 10
2053.456007
 20
966.5739980000001
 30
0.0
 11
2053.263643
 21
966.5672810000002
 31
0.0
  0
ARC
  5
3F
330
1F
100
AcDbEntity
  8
LC-001-002-----0
 62
     7
370
    50
100
AcDbCircle
 10
2065.033779
 20
953.9893039999999
 30
0.0
 40
5.999999139199933
100
AcDbArc
 50
129.872083
 51
155.042224
  0
ARC
  5
40
330
1F
100
AcDbEntity
  8
LC-001-002-----0
 62
     7
370
    50
100
AcDbCircle
 10
2051.451999
 20
965.394142
 30
0.0
 40
1.000000000000094
100
AcDbArc
 50
304.999777
 51
355.0
  0
ARC
  5
41
330
1F
100
AcDbEntity
  8
LC-001-002-----0
 62
     7
370
    50
100
AcDbCircle
 10
2051.451999
 20
965.394142
 30
0.0
 40
0.999999999993591
100
AcDbArc
 50
280.0
 51
304.999777
  0
ARC
  5
42
330
1F
100
AcDbEntity
  8
LC-001-002-----0
 62
     7
370
    50
100
AcDbCircle
 10
2043.094248
 20
959.858739
 30
0.0
 40
2.999999999999721
100
AcDbArc
 50
100.0
 51
175.0
  0
ARC
  5
43
330
1F
100
AcDbEntity
  8
LC-001-002-----0
 62
     7
370
    50
100
AcDbCircle
 10
2053.291563
 20
965.7677679999999
 30
0.0
 40
0.7999999999821723
100
AcDbArc
 50
92.0
 51
175.0
  0
LINE
  5
44
330
1F
100
AcDbEntity
  8
LC-001-002-----0
 62
     7
370
    50
100
AcDbLine
 10
2052.494607
 20
965.837493
 30
0.0
 11
2052.448194
 21
965.3069869999999
 31
0.0
  0
LINE
  5
45
330
1F
100
AcDbEntity
  8
LC-001-002-----0
 62
     7
370
    50
100
AcDbLine
 10
2051.625647
 20
964.409335
 30
0.0
 11
2042.573303
 21
962.8131619999999
 31
0.0
  0
LINE
  5
46
330
1F
100
AcDbEntity
  8
LC-001-002-----0
 62
     7
370
    50
100
AcDbLine
 10
2040.105663
 20
960.120206
 30
0.0
 11
2039.442707
 21
952.54258
 31
0.0
  0
LINE
  5
49
330
1F
100
AcDbEntity
  8
LC-002-006-MLN-0
 62
     7
370
    25
100
AcDbLine
 10
1994.306294
 20
949.5425800000001
 30
0.0
 11
1994.306294
 21
969.5425769999999
 31
0.0
  0
LINE
  5
4A
330
1F
100
AcDbEntity
  8
LC-001-002-----0
 62
     7
370
    50
100
AcDbLine
 10
2057.73891
 20
952.54258
 30
0.0
 11
1930.873679
 21
952.54258
 31
0.0
  0
LINE
  5
4B
330
1F
100
AcDbEntity
  8
LC-001-002-----0
 62
     7
370
    50
100
AcDbLine
 10
2095.656294000001
 20
1096.84258
 30
0.0
 11
2092.172955
 21
1083.84258
 31
0.0
  0
LINE
  5
4C
330
1F
100
AcDbEntity
  8
LC-001-002-----0
 62
     7
370
    25
100
AcDbLine
 10
1936.056294
 20
966.5425769999998
 30
0.0
 11
2052.556294
 21
966.5425769999998
 31
0.0
  0
LINE
  5
4D
102
{ACAD_REACTORS
330
7B9
102
}
330
1F
100
AcDbEntity
  8
LC-001-002-----0
 62
     7
370
    50
100
AcDbLine
 10
2061.187325
 20
958.594169
 30
0.0
 11
2064.507588
 21
962.2015929999999
 31
0.0
  0
LINE
  5
4E
102
{ACAD_REACTORS
330
7B9
102
}
330
1F
100
AcDbEntity
  8
LC-001-002-----0
 62
     7
370
    50
100
AcDbLine
 10
2064.507588
 20
962.2015929999999
 30
0.0
 11
2067.101882
 21
966.714406
 31
0.0
  0
LINE
  5
4F
102
{ACAD_REACTORS
330
7B9
102
}
330
1F
100
AcDbEntity
  8
LC-001-002-----0
 62
     7
370
    50
100
AcDbLine
 10
2067.101882
 20
966.714406
 30
0.0
 11
2068.981519
 21
972.0309949999998
 31
0.0
  0
LINE
  5
50
102
{ACAD_REACTORS
330
7B9
102
}
330
1F
100
AcDbEntity
  8
LC-001-002-----0
 62
     7
370
    50
100
AcDbLine
 10
2068.981519
 20
972.0309949999998
 30
0.0
 11
2070.164021
 21
978.2620189999999
 31
0.0
  0
LINE
  5
51
102
{ACAD_REACTORS
330
7B8
102
}
330
1F
100
AcDbEntity
  8
LC-001-002-----0
 62
     7
370
    50
100
AcDbLine
 10
2061.230344
 20
979.3526400000001
 30
0.0
 11
2060.760389
 21
976.4977449999999
 31
0.0
  0
LINE
  5
52
102
{ACAD_REACTORS
330
7B8
102
}
330
1F
100
AcDbEntity
  8
LC-001-002-----0
 62
     7
370
    50
100
AcDbLine
 10
2060.760389
 20
976.4977449999999
 30
0.0
 11
2060.075149
 21
973.913293
 31
0.0
  0
LINE
  5
53
102
{ACAD_REACTORS
330
7B8
102
}
330
1F
100
AcDbEntity
  8
LC-001-002-----0
 62
     7
370
    50
100
AcDbLine
 10
2060.075149
 20
973.913293
 30
0.0
 11
2059.16335
 21
971.6138909999999
 31
0.0
  0
LINE
  5
54
102
{ACAD_REACTORS
330
7B8
102
}
330
1F
100
AcDbEntity
  8
LC-001-002-----0
 62
     7
370
    50
100
AcDbLine
 10
2059.16335
 20
971.6138909999999
 30
0.0
 11
2058.041134
 21
969.65497
 31
0.0
  0
LINE
  5
55
102
{ACAD_REACTORS
330
7B8
102
}
330
1F
100
AcDbEntity
  8
LC-001-002-----0
 62
     7
370
    50
100
AcDbLine
 10
2058.041134
 20
969.65497
 30
0.0
 11
2056.732397
 21
968.076892
 31
0.0
  0
LINE
  5
56
102
{ACAD_REACTORS
330
7B8
102
}
330
1F
100
AcDbEntity
  8
LC-001-002-----0
 62
     7
370
    50
100
AcDbLine
 10
2056.732397
 20
968.076892
 30
0.0
 11
2055.209048
 21
966.9737089999999
 31
0.0
  0
LINE
  5
57
102
{ACAD_REACTORS
330
7B8
102
}
330
1F
100
AcDbEntity
  8
LC-001-002-----0
 62
     7
370
    50
100
AcDbLine
 10
2055.209048
 20
966.9737089999999
 30
0.0
 11
2053.456007
 21
966.5739980000001
 31
0.0
  0
INSERT
  5
66
330
1F
100
AcDbEntity
  8
LC-003-005-----0
 62
     7
370
    25
100
AcDbBlockReference
  2
*X1
 10
0.0
 20
0.0
 30
0.0
  0
LINE
  5
67
330
1F
100
AcDbEntity
  8
LC-001-002-----0
 62
     7
370
    50
100
AcDbLine
 10
1913.118026
 20
1095.525384
 30
0.0
 11
1927.382188
 21
979.353105
 31
0.0
  0
LINE
  5
68
330
1F
100
AcDbEntity
  8
LC-001-002-----0
 62
     7
370
    50
100
AcDbLine
 10
1906.131831
 20
1078.573796
 30
0.0
 11
1918.449007
 21
978.258446
 31
0.0
  0
LINE
  5
69
330
1F
100
AcDbEntity
  8
LC-001-002-----0
 62
     7
370
    50
100
AcDbLine
 10
1900.176554
 20
1083.84258
 30
0.0
 11
1896.439634
 21
1083.84258
 31
0.0
  0
LINE
  5
6A
330
1F
100
AcDbEntity
  8
LC-001-002-----0
 62
     7
370
    50
100
AcDbLine
 10
1929.088293
 20
956.3713529999999
 30
0.0
 11
1930.873679
 21
952.54258
 31
0.0
  0
ARC
  5
6B
330
1F
100
AcDbEntity
  8
LC-001-002-----0
 62
     7
370
    50
100
AcDbCircle
 10
1900.176554
 20
1077.84258
 30
0.0
 40
5.999999999999759
100
AcDbArc
 50
7.0
 51
90.0
  0
ARC
  5
6C
330
1F
100
AcDbEntity
  8
LC-001-002-----0
 62
     7
370
    50
100
AcDbCircle
 10
1911.629206
 20
1095.34258
 30
0.0
 40
1.500000000000053
100
AcDbArc
 50
7.0
 51
90.0
  0
LINE
  5
6D
330
1F
100
AcDbEntity
  8
LC-001-002-----0
 62
     7
370
    50
100
AcDbLine
 10
1935.156581
 20
966.5739980000001
 30
0.0
 11
1935.348945
 21
966.5672810000002
 31
0.0
  0
ARC
  5
6E
330
1F
100
AcDbEntity
  8
LC-001-002-----0
 62
     7
370
    50
100
AcDbCircle
 10
1937.160589
 20
965.394142
 30
0.0
 40
1.000000000000002
100
AcDbArc
 50
185.0
 51
235.000223
  0
ARC
  5
6F
330
1F
100
AcDbEntity
  8
LC-001-002-----0
 62
     7
370
    50
100
AcDbCircle
 10
1937.160589
 20
965.394142
 30
0.0
 40
0.9999999999935369
100
AcDbArc
 50
235.000223
 51
260.0
  0
ARC
  5
70
330
1F
100
AcDbEntity
  8
LC-001-002-----0
 62
     7
370
    50
100
AcDbCircle
 10
1945.518341
 20
959.858739
 30
0.0
 40
2.999999999999933
100
AcDbArc
 50
5.0
 51
80.0
  0
ARC
  5
71
330
1F
100
AcDbEntity
  8
LC-001-002-----0
 62
     7
370
    50
100
AcDbCircle
 10
1935.321026
 20
965.7677679999999
 30
0.0
 40
0.7999999999824798
100
AcDbArc
 50
5.0
 51
88.0
  0
LINE
  5
72
330
1F
100
AcDbEntity
  8
LC-001-002-----0
 62
     7
370
    50
100
AcDbLine
 10
1936.117981
 20
965.837493
 30
0.0
 11
1936.164395
 21
965.3069869999999
 31
0.0
  0
LINE
  5
73
330
1F
100
AcDbEntity
  8
LC-001-002-----0
 62
     7
370
    50
100
AcDbLine
 10
1936.986941
 20
964.409335
 30
0.0
 11
1946.039286
 21
962.8131619999999
 31
0.0
  0
LINE
  5
74
330
1F
100
AcDbEntity
  8
LC-001-002-----0
 62
     7
370
    50
100
AcDbLine
 10
1948.506925
 20
960.120206
 30
0.0
 11
1949.169882
 21
952.54258
 31
0.0
  0
LINE
  5
75
330
1F
100
AcDbEntity
  8
LC-001-002-----0
 62
     7
370
    50
100
AcDbLine
 10
1892.956294
 20
1096.84258
 30
0.0
 11
1896.439634
 21
1083.84258
 31
0.0
  0
LINE
  5
76
102
{ACAD_REACTORS
330
7BE
102
}
330
1F
100
AcDbEntity
  8
LC-001-002-----0
 62
     7
370
    50
100
AcDbLine
 10
1928.065158
 20
957.8989320000001
 30
0.0
 11
1924.105001
 21
962.2015929999999
 31
0.0
  0
LINE
  5
77
102
{ACAD_REACTORS
330
7BE
102
}
330
1F
100
AcDbEntity
  8
LC-001-002-----0
 62
     7
370
    50
100
AcDbLine
 10
1924.105001
 20
962.2015929999999
 30
0.0
 11
1921.510707
 21
966.714406
 31
0.0
  0
LINE
  5
78
102
{ACAD_REACTORS
330
7BE
102
}
330
1F
100
AcDbEntity
  8
LC-001-002-----0
 62
     7
370
    50
100
AcDbLine
 10
1921.510707
 20
966.714406
 30
0.0
 11
1919.631069
 21
972.0309949999998
 31
0.0
  0
LINE
  5
79
102
{ACAD_REACTORS
330
7BE
102
}
330
1F
100
AcDbEntity
  8
LC-001-002-----0
 62
     7
370
    50
100
AcDbLine
 10
1919.631069
 20
972.0309949999998
 30
0.0
 11
1918.448568
 21
978.2620189999999
 31
0.0
  0
LINE
  5
7A
102
{ACAD_REACTORS
330
7BD
102
}
330
1F
100
AcDbEntity
  8
LC-001-002-----0
 62
     7
370
    50
100
AcDbLine
 10
1927.382245
 20
979.3526400000001
 30
0.0
 11
1927.852199
 21
976.4977449999999
 31
0.0
  0
LINE
  5
7B
102
{ACAD_REACTORS
330
7BD
102
}
330
1F
100
AcDbEntity
  8
LC-001-002-----0
 62
     7
370
    50
100
AcDbLine
 10
1927.852199
 20
976.4977449999999
 30
0.0
 11
1928.53744
 21
973.913293
 31
0.0
  0
LINE
  5
7C
102
{ACAD_REACTORS
330
7BD
102
}
330
1F
100
AcDbEntity
  8
LC-001-002-----0
 62
     7
370
    50
100
AcDbLine
 10
1928.53744
 20
973.913293
 30
0.0
 11
1929.449239
 21
971.6138909999999
 31
0.0
  0
LINE
  5
7D
102
{ACAD_REACTORS
330
7BD
102
}
330
1F
100
AcDbEntity
  8
LC-001-002-----0
 62
     7
370
    50
100
AcDbLine
 10
1929.449239
 20
971.6138909999999
 30
0.0
 11
1930.571454
 21
969.65497
 31
0.0
  0
LINE
  5
7E
102
{ACAD_REACTORS
330
7BD
102
}
330
1F
100
AcDbEntity
  8
LC-001-002-----0
 62
     7
370
    50
100
AcDbLine
 10
1930.571454
 20
969.65497
 30
0.0
 11
1931.880192
 21
968.076892
 31
0.0
  0
LINE
  5
7F
102
{ACAD_REACTORS
330
7BD
102
}
330
1F
100
AcDbEntity
  8
LC-001-002-----0
 62
     7
370
    50
100
AcDbLine
 10
1931.880192
 20
968.076892
 30
0.0
 11
1933.40354
 21
966.9737089999999
 31
0.0
  0
LINE
  5
80
102
{ACAD_REACTORS
330
7BD
102
}
330
1F
100
AcDbEntity
  8
LC-001-002-----0
 62
     7
370
    50
100
AcDbLine
 10
1933.40354
 20
966.9737089999999
 30
0.0
 11
1935.156581
 21
966.5739980000001
 31
0.0
  0
ARC
  5
82
102
{ACAD_REACTORS
330
7BE
102
}
330
1F
100
AcDbEntity
  8
LC-004-002-RND-0
 62
     7
370
    50
100
AcDbCircle
 10
1923.650446
 20
953.835643
 30
0.0
 40
6.000000000000131
100
AcDbArc
 50
25.0
 51
42.626382
  0
INSERT
  5
94
330
1F
100
AcDbEntity
  8
LC-003-005-----0
 62
     7
370
    25
100
AcDbBlockReference
  2
*X2
 10
0.0
 20
0.0
 30
0.0
  0
LINE
  5
95
330
1F
100
AcDbEntity
  8
LC-001-002-----0
 62
     7
370
    50
100
AcDbLine
 10
2156.769563
 20
1456.466332
 30
0.0
 11
2143.119164
 21
1345.292758
 31
0.0
  0
LINE
  5
96
330
1F
100
AcDbEntity
  8
LC-001-002-----0
 62
     7
370
    50
100
AcDbLine
 10
1831.843026
 20
1456.466332
 30
0.0
 11
1846.027378
 21
1340.944054
 31
0.0
  0
LINE
  5
97
330
1F
100
AcDbEntity
  8
LC-001-002-----0
 62
     7
370
    50
100
AcDbLine
 10
1811.681294
 20
1457.783528
 30
0.0
 11
2176.931294
 21
1457.783528
 31
0.0
  0
LINE
  5
98
330
1F
100
AcDbEntity
  8
LC-001-002-----0
 62
     7
370
    50
100
AcDbLine
 10
2163.755758
 20
1439.514744
 30
0.0
 11
2152.2258
 21
1345.610769
 31
0.0
  0
LINE
  5
99
330
1F
100
AcDbEntity
  8
LC-001-002-----0
 62
     7
370
    50
100
AcDbLine
 10
1824.856831
 20
1439.514744
 30
0.0
 11
1837.092882
 21
1339.8601
 31
0.0
  0
ARC
  5
9A
330
1F
100
AcDbEntity
  8
LC-001-002-----0
 62
     7
370
    50
100
AcDbCircle
 10
1830.354206
 20
1456.283528
 30
0.0
 40
1.500000000000053
100
AcDbArc
 50
7.0
 51
90.0
  0
LINE
  5
9B
330
1F
100
AcDbEntity
  8
LC-001-002-----0
 62
     7
370
    50
100
AcDbLine
 10
1815.164634
 20
1444.783528
 30
0.0
 11
1818.901554
 21
1444.783528
 31
0.0
  0
LINE
  5
9C
330
1F
100
AcDbEntity
  8
LC-001-002-----0
 62
     7
370
    50
100
AcDbLine
 10
2169.711035
 20
1444.783528
 30
0.0
 11
2173.447955
 21
1444.783528
 31
0.0
  0
ARC
  5
9D
330
1F
100
AcDbEntity
  8
LC-001-002-----0
 62
     7
370
    50
100
AcDbCircle
 10
1818.901554
 20
1438.783528
 30
0.0
 40
6.000000000000321
100
AcDbArc
 50
7.0
 51
90.0
  0
LINE
  5
9E
330
1F
100
AcDbEntity
  8
LC-001-002-----0
 62
     7
370
    50
100
AcDbLine
 10
1859.193429
 20
1316.995846
 30
0.0
 11
1863.694423
 21
1316.838668
 31
0.0
  0
ARC
  5
9F
330
1F
100
AcDbEntity
  8
LC-001-002-----0
 62
     7
370
    50
100
AcDbCircle
 10
1863.485026
 20
1310.842323
 30
0.0
 40
6.000000000000002
100
AcDbArc
 50
26.1167
 51
88.0
  0
ARC
  5
A0
330
1F
100
AcDbEntity
  8
LC-001-002-----0
 62
     7
370
    50
100
AcDbCircle
 10
2001.127563
 20
1310.842323
 30
0.0
 40
5.999999999999971
100
AcDbArc
 50
92.0
 51
153.8833
  0
LINE
  5
A1
330
1F
100
AcDbEntity
  8
LC-001-002-----0
 62
     7
370
    50
100
AcDbLine
 10
2129.824114
 20
1321.340163
 30
0.0
 11
2000.918166
 21
1316.838668
 31
0.0
  0
ARC
  5
A2
330
1F
100
AcDbEntity
  8
LC-001-002-----0
 62
     7
370
    50
100
AcDbCircle
 10
2169.711035
 20
1438.783528
 30
0.0
 40
6.0
100
AcDbArc
 50
90.0
 51
173.0
  0
ARC
  5
A3
330
1F
100
AcDbEntity
  8
LC-001-002-----0
 62
     7
370
    50
100
AcDbCircle
 10
2158.258382
 20
1456.283528
 30
0.0
 40
1.5
100
AcDbArc
 50
90.0
 51
173.0
  0
LINE
  5
A4
330
1F
100
AcDbEntity
  8
LC-001-002-----0
 62
     7
370
    50
100
AcDbLine
 10
1991.263643
 20
1327.50823
 30
0.0
 11
2129.776462
 21
1332.345204
 31
0.0
  0
ARC
  5
A5
330
1F
100
AcDbEntity
  8
LC-001-002-----0
 62
     7
370
    50
100
AcDbCircle
 10
1991.291563
 20
1326.708717
 30
0.0
 40
0.7999999999998982
100
AcDbArc
 50
92.0
 51
175.0
  0
ARC
  5
A6
330
1F
100
AcDbEntity
  8
LC-001-002-----0
 62
     7
370
    50
100
AcDbCircle
 10
1981.094248
 20
1320.799688
 30
0.0
 40
3.000000000000373
100
AcDbArc
 50
100.0
 51
175.0
  0
LINE
  5
A7
330
1F
100
AcDbEntity
  8
LC-001-002-----0
 62
     7
370
    50
100
AcDbLine
 10
1887.169882
 20
1313.483528
 30
0.0
 11
1886.506925
 21
1321.061155
 31
0.0
  0
LINE
  5
A8
330
1F
100
AcDbEntity
  8
LC-001-002-----0
 62
     7
370
    50
100
AcDbLine
 10
1884.039286
 20
1323.754111
 30
0.0
 11
1874.986941
 21
1325.350283
 31
0.0
  0
ARC
  5
A9
330
1F
100
AcDbEntity
  8
LC-001-002-----0
 62
     7
370
    50
100
AcDbCircle
 10
1875.160589
 20
1326.335091
 30
0.0
 40
1.000000000000254
100
AcDbArc
 50
185.0
 51
260.0
  0
LINE
  5
AA
330
1F
100
AcDbEntity
  8
LC-001-002-----0
 62
     7
370
    50
100
AcDbLine
 10
1874.164395
 20
1326.247935
 30
0.0
 11
1874.117981
 21
1326.778441
 31
0.0
  0
LINE
  5
AB
330
1F
100
AcDbEntity
  8
LC-001-002-----0
 62
     7
370
    50
100
AcDbLine
 10
1873.348945
 20
1327.50823
 30
0.0
 11
1859.346404
 21
1327.997209
 31
0.0
  0
LINE
  5
AC
330
1F
100
AcDbEntity
  8
LC-001-002-----0
 62
     7
370
    50
100
AcDbLine
 10
1990.448194
 20
1326.247935
 30
0.0
 11
1990.494607
 21
1326.778441
 31
0.0
  0
ARC
  5
AD
330
1F
100
AcDbEntity
  8
LC-001-002-----0
 62
     7
370
    50
100
AcDbCircle
 10
1989.451999
 20
1326.335091
 30
0.0
 40
1.000000000000125
100
AcDbArc
 50
280.0
 51
355.0
  0
LINE
  5
AE
330
1F
100
AcDbEntity
  8
LC-001-002-----0
 62
     7
370
    50
100
AcDbLine
 10
1980.573303
 20
1323.754111
 30
0.0
 11
1989.625647
 21
1325.350283
 31
0.0
  0
LINE
  5
AF
330
1F
100
AcDbEntity
  8
LC-001-002-----0
 62
     7
370
    50
100
AcDbLine
 10
1977.442706999999
 20
1313.483528
 30
0.0
 11
1978.105663
 21
1321.061155
 31
0.0
  0
ARC
  5
B0
330
1F
100
AcDbEntity
  8
LC-001-002-----0
 62
     7
370
    50
100
AcDbCircle
 10
1883.518341
 20
1320.799688
 30
0.0
 40
3.000000000000013
100
AcDbArc
 50
5.0
 51
80.0
  0
ARC
  5
B1
330
1F
100
AcDbEntity
  8
LC-001-002-----0
 62
     7
370
    50
100
AcDbCircle
 10
1873.321026
 20
1326.708717
 30
0.0
 40
0.7999999999995257
100
AcDbArc
 50
5.0
 51
88.0
  0
LINE
  5
B2
330
1F
100
AcDbEntity
  8
LC-001-002-----0
 62
     7
370
    50
100
AcDbLine
 10
2055.656294
 20
411.310747
 30
0.0
 11
1932.956294
 21
411.310747
 31
0.0
  0
LINE
  5
B3
330
1F
100
AcDbEntity
  8
LC-001-002-----0
 62
     7
370
    50
100
AcDbLine
 10
2095.656294000001
 20
451.310747
 30
0.0
 11
2095.656294000001
 21
736.560747
 31
0.0
  0
LINE
  5
B4
330
1F
100
AcDbEntity
  8
LC-002-006-MLN-0
 62
     7
370
    25
100
AcDbLine
 10
1994.306294
 20
717.1857469999999
 30
0.0
 11
1994.306294
 21
594.685747
 31
0.0
  0
LINE
  5
B5
330
1F
100
AcDbEntity
  8
LC-001-002-----0
 62
     7
370
    50
100
AcDbLine
 10
2055.656294
 20
776.5607469999999
 30
0.0
 11
1932.956294
 21
776.5607469999999
 31
0.0
  0
LINE
  5
B6
330
1F
100
AcDbEntity
  8
LC-001-002-----0
 62
     7
370
    50
100
AcDbLine
 10
1892.956294
 20
451.310747
 30
0.0
 11
1892.956294
 21
736.560747
 31
0.0
  0
ARC
  5
B7
330
1F
100
AcDbEntity
  8
LC-004-002-RND-0
 62
     7
370
    50
100
AcDbCircle
 10
1932.956294
 20
736.560747
 30
0.0
 40
40.0
100
AcDbArc
 50
90.0
 51
180.0
  0
ARC
  5
B8
330
1F
100
AcDbEntity
  8
LC-004-002-RND-0
 62
     7
370
    50
100
AcDbCircle
 10
2055.656294
 20
736.560747
 30
0.0
 40
40.0
100
AcDbArc
 50
0.0
 51
90.0
  0
ARC
  5
B9
330
1F
100
AcDbEntity
  8
LC-004-002-RND-0
 62
     7
370
    50
100
AcDbCircle
 10
2055.656294
 20
451.310747
 30
0.0
 40
40.0
100
AcDbArc
 50
270.0
 51
0.0
  0
ARC
  5
BA
330
1F
100
AcDbEntity
  8
LC-004-002-RND-0
 62
     7
370
    50
100
AcDbCircle
 10
1932.956294
 20
451.310747
 30
0.0
 40
40.0
100
AcDbArc
 50
180.0
 51
270.0
  0
LINE
  5
BB
102
{ACAD_REACTORS
330
7BF
102
}
330
1F
100
AcDbEntity
  8
LC-001-002-----0
 62
     7
370
    50
100
AcDbLine
 10
2075.656294000001
 20
451.310747
 30
0.0
 11
2075.656294000001
 21
736.560747
 31
0.0
  0
ARC
  5
BC
102
{ACAD_REACTORS
330
7BF
102
}
330
1F
100
AcDbEntity
  8
LC-001-002-----0
 62
     7
370
    50
100
AcDbCircle
 10
2055.656294
 20
736.560747
 30
0.0
 40
20.0
100
AcDbArc
 50
0.0
 51
90.0
  0
LINE
  5
BD
102
{ACAD_REACTORS
330
7BF
102
}
330
1F
100
AcDbEntity
  8
LC-001-002-----0
 62
     7
370
    50
100
AcDbLine
 10
2055.656294
 20
756.5607469999999
 30
0.0
 11
1932.956294
 21
756.5607469999999
 31
0.0
  0
ARC
  5
BE
102
{ACAD_REACTORS
330
7BF
102
}
330
1F
100
AcDbEntity
  8
LC-001-002-----0
 62
     7
370
    50
100
AcDbCircle
 10
1932.956294
 20
736.560747
 30
0.0
 40
20.0
100
AcDbArc
 50
90.0
 51
180.0
  0
LINE
  5
BF
102
{ACAD_REACTORS
330
7BF
102
}
330
1F
100
AcDbEntity
  8
LC-001-002-----0
 62
     7
370
    50
100
AcDbLine
 10
1912.956294
 20
736.560747
 30
0.0
 11
1912.956294
 21
451.310747
 31
0.0
  0
ARC
  5
C0
102
{ACAD_REACTORS
330
7BF
102
}
330
1F
100
AcDbEntity
  8
LC-001-002-----0
 62
     7
370
    50
100
AcDbCircle
 10
1932.956294
 20
451.310747
 30
0.0
 40
20.0
100
AcDbArc
 50
180.0
 51
270.0
  0
LINE
  5
C1
102
{ACAD_REACTORS
330
7BF
102
}
330
1F
100
AcDbEntity
  8
LC-001-002-----0
 62
     7
370
    50
100
AcDbLine
 10
1932.956294
 20
431.310747
 30
0.0
 11
2055.656294
 21
431.310747
 31
0.0
  0
ARC
  5
C2
102
{ACAD_REACTORS
330
7BF
102
}
330
1F
100
AcDbEntity
  8
LC-001-002-----0
 62
     7
370
    50
100
AcDbCircle
 10
2055.656294
 20
451.310747
 30
0.0
 40
20.0
100
AcDbArc
 50
270.0
 51
0.0
  0
LINE
  5
C3
330
1F
100
AcDbEntity
  8
LC-001-002-----0
 62
     7
370
    50
100
AcDbLine
 10
1811.681294
 20
1457.783528
 30
0.0
 11
1815.164634
 21
1444.783528
 31
0.0
  0
LINE
  5
C4
330
1F
100
AcDbEntity
  8
LC-001-002-----0
 62
     7
370
    50
100
AcDbLine
 10
2176.931294
 20
1457.783528
 30
0.0
 11
2173.447955
 21
1444.783528
 31
0.0
  0
LINE
  5
C5
330
1F
100
AcDbEntity
  8
LC-001-002-----0
 62
     7
370
    50
100
AcDbLine
 10
1868.872422
 20
1313.483528
 30
0.0
 11
1995.740167
 21
1313.483528
 31
0.0
  0
LINE
  5
C6
330
1F
100
AcDbEntity
  8
LC-002-006-MLN-0
 62
     7
370
    25
100
AcDbLine
 10
1932.306294
 20
1310.483528
 30
0.0
 11
1932.306294
 21
1330.483528
 31
0.0
  0
LINE
  5
C7
330
1F
100
AcDbEntity
  8
LC-001-002-----0
 62
     7
370
    25
100
AcDbLine
 10
1874.056294
 20
1327.483528
 30
0.0
 11
1990.556294
 21
1327.483528
 31
0.0
  0
LINE
  5
C8
330
1F
100
AcDbEntity
  8
LC-002-006-MLN-0
 62
     7
370
    25
100
AcDbLine
 10
2055.556294
 20
655.935747
 30
0.0
 11
1933.056294
 21
655.935747
 31
0.0
  0
CIRCLE
  5
C9
330
1F
100
AcDbEntity
  8
LC-001-002-----0
 62
     7
370
    50
100
AcDbCircle
 10
1994.306294
 20
655.935747
 30
0.0
 40
45.13641272593122
  0
CIRCLE
  5
CA
330
1F
100
AcDbEntity
  8
LC-001-002-----0
 62
     7
370
    50
100
AcDbCircle
 10
1994.306294
 20
655.935747
 30
0.0
 40
58.250000000025
  0
LINE
  5
CB
102
{ACAD_REACTORS
330
7C1
102
}
330
1F
100
AcDbEntity
  8
LC-001-002-----0
 62
     7
370
    50
100
AcDbLine
 10
1859.346404
 20
1327.997209
 30
0.0
 11
1854.332237
 21
1329.063944
 31
0.0
  0
LINE
  5
CC
102
{ACAD_REACTORS
330
7C1
102
}
330
1F
100
AcDbEntity
  8
LC-001-002-----0
 62
     7
370
    50
100
AcDbLine
 10
1854.332237
 20
1329.063944
 30
0.0
 11
1850.211832
 21
1331.927981
 31
0.0
  0
LINE
  5
CD
102
{ACAD_REACTORS
330
7C1
102
}
330
1F
100
AcDbEntity
  8
LC-001-002-----0
 62
     7
370
    50
100
AcDbLine
 10
1850.211832
 20
1331.927981
 30
0.0
 11
1847.370431
 21
1336.03178
 31
0.0
  0
LINE
  5
CE
102
{ACAD_REACTORS
330
7C1
102
}
330
1F
100
AcDbEntity
  8
LC-001-002-----0
 62
     7
370
    50
100
AcDbLine
 10
1847.370431
 20
1336.03178
 30
0.0
 11
1846.027378
 21
1340.944054
 31
0.0
  0
LINE
  5
CF
102
{ACAD_REACTORS
330
7C0
102
}
330
1F
100
AcDbEntity
  8
LC-001-002-----0
 62
     7
370
    50
100
AcDbLine
 10
1837.092882
 20
1339.8601
 30
0.0
 11
1838.337961
 21
1334.045315
 31
0.0
  0
LINE
  5
D0
102
{ACAD_REACTORS
330
7C0
102
}
330
1F
100
AcDbEntity
  8
LC-001-002-----0
 62
     7
370
    50
100
AcDbLine
 10
1838.337961
 20
1334.045315
 30
0.0
 11
1840.666439
 21
1328.637604
 31
0.0
  0
LINE
  5
D1
102
{ACAD_REACTORS
330
7C0
102
}
330
1F
100
AcDbEntity
  8
LC-001-002-----0
 62
     7
370
    50
100
AcDbLine
 10
1840.666439
 20
1328.637604
 30
0.0
 11
1844.012566
 21
1324.007105
 31
0.0
  0
LINE
  5
D2
102
{ACAD_REACTORS
330
7C0
102
}
330
1F
100
AcDbEntity
  8
LC-001-002-----0
 62
     7
370
    50
100
AcDbLine
 10
1844.012566
 20
1324.007105
 30
0.0
 11
1848.385573
 21
1320.332222
 31
0.0
  0
LINE
  5
D3
102
{ACAD_REACTORS
330
7C0
102
}
330
1F
100
AcDbEntity
  8
LC-001-002-----0
 62
     7
370
    50
100
AcDbLine
 10
1848.385573
 20
1320.332222
 30
0.0
 11
1853.626563
 21
1317.903355
 31
0.0
  0
LINE
  5
D4
102
{ACAD_REACTORS
330
7C0
102
}
330
1F
100
AcDbEntity
  8
LC-001-002-----0
 62
     7
370
    50
100
AcDbLine
 10
1853.626563
 20
1317.903355
 30
0.0
 11
1859.193429
 21
1316.995846
 31
0.0
  0
LINE
  5
D5
102
{ACAD_REACTORS
330
7C3
102
}
330
1F
100
AcDbEntity
  8
LC-001-002-----0
 62
     7
370
    50
100
AcDbLine
 10
2129.824114
 20
1321.340163
 30
0.0
 11
2135.390816
 21
1322.24762
 31
0.0
  0
LINE
  5
D6
102
{ACAD_REACTORS
330
7C3
102
}
330
1F
100
AcDbEntity
  8
LC-001-002-----0
 62
     7
370
    50
100
AcDbLine
 10
2135.390816
 20
1322.24762
 30
0.0
 11
2140.631765
 21
1324.676405
 31
0.0
  0
LINE
  5
D7
102
{ACAD_REACTORS
330
7C3
102
}
330
1F
100
AcDbEntity
  8
LC-001-002-----0
 62
     7
370
    50
100
AcDbLine
 10
2140.631765
 20
1324.676405
 30
0.0
 11
2145.00481
 21
1328.351235
 31
0.0
  0
LINE
  5
D8
102
{ACAD_REACTORS
330
7C3
102
}
330
1F
100
AcDbEntity
  8
LC-001-002-----0
 62
     7
370
    50
100
AcDbLine
 10
2145.00481
 20
1328.351235
 30
0.0
 11
2148.351004
 21
1332.981735
 31
0.0
  0
LINE
  5
D9
102
{ACAD_REACTORS
330
7C3
102
}
330
1F
100
AcDbEntity
  8
LC-001-002-----0
 62
     7
370
    50
100
AcDbLine
 10
2148.351004
 20
1332.981735
 30
0.0
 11
2150.679553
 21
1338.389525
 31
0.0
  0
LINE
  5
DA
102
{ACAD_REACTORS
330
7C3
102
}
330
1F
100
AcDbEntity
  8
LC-001-002-----0
 62
     7
370
    50
100
AcDbLine
 10
2150.679553
 20
1338.389525
 30
0.0
 11
2152.2258
 21
1345.610769
 31
0.0
  0
LINE
  5
DB
102
{ACAD_REACTORS
330
7C2
102
}
330
1F
100
AcDbEntity
  8
LC-001-002-----0
 62
     7
370
    50
100
AcDbLine
 10
2143.119164
 20
1345.292758
 30
0.0
 11
2141.772715
 21
1340.375759
 31
0.0
  0
LINE
  5
DC
102
{ACAD_REACTORS
330
7C2
102
}
330
1F
100
AcDbEntity
  8
LC-001-002-----0
 62
     7
370
    50
100
AcDbLine
 10
2141.772715
 20
1340.375759
 30
0.0
 11
2138.923416
 21
1336.271393
 31
0.0
  0
LINE
  5
DD
102
{ACAD_REACTORS
330
7C2
102
}
330
1F
100
AcDbEntity
  8
LC-001-002-----0
 62
     7
370
    50
100
AcDbLine
 10
2138.923416
 20
1336.271393
 30
0.0
 11
2134.795315
 21
1333.41038
 31
0.0
  0
LINE
  5
DE
102
{ACAD_REACTORS
330
7C2
102
}
330
1F
100
AcDbEntity
  8
LC-001-002-----0
 62
     7
370
    50
100
AcDbLine
 10
2134.795315
 20
1333.41038
 30
0.0
 11
2129.776462
 21
1332.345204
 31
0.0
  0
INSERT
  5
F1
330
1F
100
AcDbEntity
  8
LC-003-005-----0
 62
     7
370
    25
100
AcDbBlockReference
  2
*X3
 10
0.0
 20
0.0
 30
0.0
  0
INSERT
  5
107
330
1F
100
AcDbEntity
  8
LC-003-005-----0
 62
     7
370
    25
100
AcDbBlockReference
  2
*X4
 10
0.0
 20
0.0
 30
0.0
  0
LINE
  5
109
330
1F
100
AcDbEntity
  8
LC-005-003-----0
 62
     7
370
    25
100
AcDbLine
 10
1892.956294
 20
1096.84258
 30
0.0
 11
1892.956294
 21
983.1155089999999
 31
0.0
  0
INSERT
  5
123
330
1F
100
AcDbEntity
  8
LC-005-003-----0
 62
     7
370
    25
100
AcDbBlockReference
  2
LCDIM1
 10
0.0
 20
0.0
 30
0.0
  0
LINE
  5
124
330
1F
100
AcDbEntity
  8
LC-005-003-----0
 62
     7
370
    25
100
AcDbLine
 10
1896.439635
 20
1083.842576
 30
0.0
 11
1922.079037
 21
988.1550240000001
 31
0.0
  0
DIMENSION
  5
126
330
1F
100
AcDbEntity
  8
LC-005-003-----0
 62
     7
370
    25
100
AcDbDimension
  2
*D6
 10
1675.0
 20
1313.483528
 30
0.0
 11
1660.0
 21
1385.633528
 31
0.0
 70
   160
 71
     5
 42
144.3
 53
90.0
  3
LC-DIM-L-0025-02-02
100
AcDbAlignedDimension
 13
1811.681294
 23
1457.783528
 33
0.0
 14
1791.681294
 24
1313.483528
 34
0.0
 50
90.0
100
AcDbRotatedDimension
  0
DIMENSION
  5
135
330
1F
100
AcDbEntity
  8
LC-005-003-----0
 62
     7
370
    25
100
AcDbDimension
  2
*D7
 10
1750.0
 20
1327.483528
 30
0.0
 11
1735.0
 21
1392.633528
 31
0.0
 70
   160
 71
     5
 42
130.3
 53
90.0
  3
LC-DIM-L-0025-02-02
100
AcDbAlignedDimension
 13
1791.681294
 23
1457.783528
 33
0.0
 14
1791.681294
 24
1327.483528
 34
0.0
 50
90.0
100
AcDbRotatedDimension
  0
DIMENSION
  5
142
330
1F
100
AcDbEntity
  8
LC-005-003-----0
 62
     7
370
    25
100
AcDbDimension
  2
*D8
 10
1675.0
 20
411.310747
 30
0.0
 11
1660.0
 21
593.935747
 31
0.0
 70
   160
 71
     5
 42
365.25
 53
90.0
  3
LC-DIM-L-0025-02-02
100
AcDbAlignedDimension
 13
1872.956294
 23
776.5607469999999
 33
0.0
 14
1872.956294
 24
411.310747
 34
0.0
 50
90.0
100
AcDbRotatedDimension
  0
DIMENSION
  5
14F
330
1F
100
AcDbEntity
  8
LC-005-003-----0
 62
     7
370
    25
100
AcDbDimension
  2
*D9
 10
1750.0
 20
431.310747
 30
0.0
 11
1735.0
 21
593.935747
 31
0.0
 70
   160
 71
     5
 42
325.25
 53
90.0
  3
LC-DIM-L-0025-02-02
100
AcDbAlignedDimension
 13
1872.956294
 23
756.5607469999999
 33
0.0
 14
1872.956294
 24
431.310747
 34
0.0
 50
90.0
100
AcDbRotatedDimension
  0
DIMENSION
  5
15C
330
1F
100
AcDbEntity
  8
LC-005-003-----0
 62
     7
370
    25
100
AcDbDimension
  2
*D10
 10
1892.956294
 20
225.0
 30
0.0
 11
1994.306294
 21
240.0
 31
0.0
 70
   160
 71
     5
 42
202.7
  3
LC-DIM-L-0025-02-02
100
AcDbAlignedDimension
 13
2095.656294000001
 23
391.310747
 33
0.0
 14
1892.956294
 24
391.310747
 34
0.0
100
AcDbRotatedDimension
  0
DIMENSION
  5
169
330
1F
100
AcDbEntity
  8
LC-005-003-----0
 62
     7
370
    25
100
AcDbDimension
  2
*D11
 10
1912.956294
 20
300.0
 30
0.0
 11
1994.306294
 21
315.0
 31
0.0
 70
   160
 71
     5
 42
162.7
  3
LC-DIM-L-0025-02-02
100
AcDbAlignedDimension
 13
2075.656294000001
 23
391.310747
 33
0.0
 14
1912.956294
 24
391.310747
 34
0.0
100
AcDbRotatedDimension
  0
DIMENSION
  5
784
330
1F
100
AcDbEntity
  8
LC-005-003-----0
 62
     7
370
    25
100
AcDbDimension
  2
*D30
 10
2055.656294
 20
736.560747
 30
0.0
 11
2112.980138
 21
782.539558
 31
0.0
 70
   164
 71
     5
 42
40.0
  3
LC-DIM-R-0025-02-02
100
AcDbRadialDimension
 15
2082.163868
 25
766.516523
 35
0.0
 40
1.0
  0
DIMENSION
  5
78D
330
1F
100
AcDbEntity
  8
LC-005-003-----0
 62
     7
370
    25
100
AcDbDimension
  2
*D31
 10
2055.656294
 20
736.560747
 30
0.0
 11
2043.444262
 21
741.135504
 31
0.0
 70
   164
 71
     5
 42
20.0
  3
LC-DIM-R-0025-02-02
100
AcDbRadialDimension
 15
2069.399810000001
 25
751.0905700000001
 35
0.0
 40
1.0
  0
DIMENSION
  5
797
330
1F
100
AcDbEntity
  8
LC-005-003-----0
 62
     7
370
    25
100
AcDbDimension
  2
*D32
 10
1825.0
 20
655.935747
 30
0.0
 11
1810.0
 21
706.2482469999999
 31
0.0
 70
   160
 71
     5
 42
100.625
 53
90.0
  3
LC-DIM-L-0025-01-02
100
AcDbAlignedDimension
 13
1872.956294
 23
756.5607469999999
 33
0.0
 14
1872.956294
 24
655.935747
 34
0.0
 50
90.0
100
AcDbRotatedDimension
  0
DIMENSION
  5
7A4
330
1F
100
AcDbEntity
  8
LC-005-003-----0
 62
     7
370
    25
100
AcDbDimension
  2
*D33
 10
1825.0
 20
756.5607469999999
 30
0.0
 11
1810.0
 21
788.059441
 31
0.0
 70
   160
 71
     5
 42
20.0
 53
90.0
  3
LC-DIM-L-0025-02-02
100
AcDbAlignedDimension
 13
1872.956294
 23
776.5607469999999
 33
0.0
 14
1872.956294
 24
756.5607469999999
 34
0.0
 50
90.0
100
AcDbRotatedDimension
  0
ENDSEC
  0
SECTION
  2
OBJECTS
  0
DICTIONARY
  5
C
330
0
100
AcDbDictionary
281
     1
  3
ACAD_COLOR
350
7C9
  3
ACAD_GROUP
350
D
  3
ACAD_LAYOUT
350
1A
  3
ACAD_MATERIAL
350
7C8
  3
ACAD_MLINESTYLE
350
17
  3
ACAD_PLOTSETTINGS
350
19
  3
ACAD_PLOTSTYLENAME
350
E
  3
ACDBHEADERROUNDTRIPXREC
350
7D1
  3
AcDbVariableDictionary
350
7CB
  3
DWGPROPS
350
7D0
  0
DICTIONARY
  5
7C9
102
{ACAD_REACTORS
330
C
102
}
330
C
100
AcDbDictionary
281
     1
  0
DICTIONARY
  5
D
102
{ACAD_REACTORS
330
C
102
}
330
C
100
AcDbDictionary
281
     1
  3
LCGROUP8838
350
7B9
  3
LCGROUP8843
350
7B8
  3
LCGROUP8867
350
7BE
  3
LCGROUP8872
350
7BD
  3
LCGROUP8920
350
7BF
  3
LCGROUP8937
350
7C1
  3
LCGROUP8942
350
7C0
  3
LCGROUP8949
350
7C3
  3
LCGROUP8956
350
7C2
  3
LCGROUP9000
350
7B3
  3
LCGROUP9013
350
7B5
  3
LCGROUP9019
350
7B4
  3
LCGROUP9038
350
7B6
  3
LCGROUP9117
350
7B7
  3
LCGROUP9130
350
7BA
  3
LCGROUP9136
350
7BC
  3
LCGROUP9148
350
7BB
  0
DICTIONARY
  5
1A
102
{ACAD_REACTORS
330
C
102
}
330
C
100
AcDbDictionary
281
     1
  3
Layout1
350
1E
  3
Layout2
350
26
  3
Model
350
22
  0
DICTIONARY
  5
7C8
102
{ACAD_REACTORS
330
C
102
}
330
C
100
AcDbDictionary
281
     1
  0
DICTIONARY
  5
17
102
{ACAD_REACTORS
330
C
102
}
330
C
100
AcDbDictionary
281
     1
  3
Standard
350
18
  0
DICTIONARY
  5
19
102
{ACAD_REACTORS
330
C
102
}
330
C
100
AcDbDictionary
281
     1
  0
ACDBDICTIONARYWDFLT
  5
E
102
{ACAD_REACTORS
330
C
102
}
330
C
100
AcDbDictionary
281
     1
  3
Normal
350
F
100
AcDbDictionaryWithDefault
340
F
  0
DICTIONARY
  5
7D1
102
{ACAD_REACTORS
330
C
102
}
330
C
100
AcDbDictionary
281
     1
  3
COLORDICT
350
7D3
  3
MATERIALDICT
350
7D2
  0
DICTIONARY
  5
7CB
102
{ACAD_REACTORS
330
C
102
}
330
C
100
AcDbDictionary
281
     1
  3
DIMASSOC
350
7CD
  3
HIDETEXT
350
7CC
  3
PROJECTNAME
350
7CE
  0
XRECORD
  5
7D0
102
{ACAD_REACTORS
330
C
102
}
330
C
100
AcDbXrecord
280
     1
  1
DWGPROPS COOKIE
  2

  3

  4

  6

  7

  8

  9

300
=
301
=
302
=
303
=
304
=
305
=
306
=
307
=
308
=
309
=
 40
0.000327337962963
 41
2455509.577476308
 42
2455898.444730151
  1

 90
        0
  0
GROUP
  5
7B9
102
{ACAD_REACTORS
330
D
102
}
330
D
100
AcDbGroup
300
GRP8838
 70
     1
 71
     1
340
4D
340
4E
340
4F
340
50
  0
GROUP
  5
7B8
102
{ACAD_REACTORS
330
D
102
}
330
D
100
AcDbGroup
300
GRP8843
 70
     1
 71
     1
340
51
340
52
340
53
340
54
340
55
340
56
340
57
  0
GROUP
  5
7BE
102
{ACAD_REACTORS
330
D
102
}
330
D
100
AcDbGroup
300
GRP8867
 70
     1
 71
     1
340
76
340
77
340
78
340
79
340
82
  0
GROUP
  5
7BD
102
{ACAD_REACTORS
330
D
102
}
330
D
100
AcDbGroup
300
GRP8872
 70
     1
 71
     1
340
7A
340
7B
340
7C
340
7D
340
7E
340
7F
340
80
  0
GROUP
  5
7BF
102
{ACAD_REACTORS
330
D
102
}
330
D
100
AcDbGroup
300
Äquidistante
 70
     1
 71
     1
340
BB
340
BC
340
BD
340
BE
340
BF
340
C0
340
C1
340
C2
  0
GROUP
  5
7C1
102
{ACAD_REACTORS
330
D
102
}
330
D
100
AcDbGroup
300
GRP8937
 70
     1
 71
     1
340
CB
340
CC
340
CD
340
CE
  0
GROUP
  5
7C0
102
{ACAD_REACTORS
330
D
102
}
330
D
100
AcDbGroup
300
GRP8942
 70
     1
 71
     1
340
CF
340
D0
340
D1
340
D2
340
D3
340
D4
  0
GROUP
  5
7C3
102
{ACAD_REACTORS
330
D
102
}
330
D
100
AcDbGroup
300
GRP8949
 70
     1
 71
     1
340
D5
340
D6
340
D7
340
D8
340
D9
340
DA
  0
GROUP
  5
7C2
102
{ACAD_REACTORS
330
D
102
}
330
D
100
AcDbGroup
300
GRP8956
 70
     1
 71
     1
340
DB
340
DC
340
DD
340
DE
  0
GROUP
  5
7B3
102
{ACAD_REACTORS
330
D
102
}
330
D
100
AcDbGroup
300
GRP9000
 70
     1
 71
     1
  0
GROUP
  5
7B5
102
{ACAD_REACTORS
330
D
102
}
330
D
100
AcDbGroup
300
S:\PKT-WS
 70
     1
 71
     1
  0
GROUP
  5
7B4
102
{ACAD_REACTORS
330
D
102
}
330
D
100
AcDbGroup
300
GRP9019
 70
     1
 71
     1
  0
GROUP
  5
7B6
102
{ACAD_REACTORS
330
D
102
}
330
D
100
AcDbGroup
300
GRP9038
 70
     1
 71
     1
  0
GROUP
  5
7B7
102
{ACAD_REACTORS
330
D
102
}
330
D
100
AcDbGroup
300
GRP9117
 70
     1
 71
     1
  0
GROUP
  5
7BA
102
{ACAD_REACTORS
330
D
102
}
330
D
100
AcDbGroup
300
S:\PKT-WS
 70
     1
 71
     1
  0
GROUP
  5
7BC
102
{ACAD_REACTORS
330
D
102
}
330
D
100
AcDbGroup
300
GRP9136
 70
     1
 71
     1
  0
GROUP
  5
7BB
102
{ACAD_REACTORS
330
D
102
}
330
D
100
AcDbGroup
300
GRP9148
 70
     1
 71
     1
  0
LAYOUT
  5
1E
102
{ACAD_XDICTIONARY
360
7D4
102
}
102
{ACAD_REACTORS
330
1A
102
}
330
1A
100
AcDbPlotSettings
  1

  2

  4

  6

 40
0.0
 41
0.0
 42
0.0
 43
0.0
 44
0.0
 45
0.0
 46
0.0
 47
0.0
 48
0.0
 49
0.0
140
0.0
141
0.0
142
1.0
143
1.0
 70
   688
 72
     0
 73
     0
 74
     5
  7

 75
    16
147
1.0
148
0.0
149
0.0
100
AcDbLayout
  1
Layout1
 70
     1
 71
     1
 10
-435.0
 20
-307.5
 11
2535.0
 21
1792.5
 12
0.0
 22
0.0
 32
0.0
 14
-435.0
 24
-307.5
 34
0.0
 15
2535.0
 25
1792.5
 35
0.0
146
0.0
 13
0.0
 23
0.0
 33
0.0
 16
1.0
 26
0.0
 36
0.0
 17
0.0
 27
1.0
 37
0.0
 76
     0
330
1B
  0
LAYOUT
  5
26
102
{ACAD_XDICTIONARY
360
7D8
102
}
102
{ACAD_REACTORS
330
1A
102
}
330
1A
100
AcDbPlotSettings
  1

  2

  4

  6

 40
0.0
 41
0.0
 42
0.0
 43
0.0
 44
0.0
 45
0.0
 46
0.0
 47
0.0
 48
0.0
 49
0.0
140
0.0
141
0.0
142
1.0
143
1.0
 70
   688
 72
     0
 73
     0
 74
     5
  7

 75
    16
147
1.0
148
0.0
149
0.0
100
AcDbLayout
  1
Layout2
 70
     1
 71
     2
 10
0.0
 20
0.0
 11
0.0
 21
0.0
 12
0.0
 22
0.0
 32
0.0
 14
0.0
 24
0.0
 34
0.0
 15
0.0
 25
0.0
 35
0.0
146
0.0
 13
0.0
 23
0.0
 33
0.0
 16
1.0
 26
0.0
 36
0.0
 17
0.0
 27
1.0
 37
0.0
 76
     0
330
23
  0
LAYOUT
  5
22
102
{ACAD_XDICTIONARY
360
7D6
102
}
102
{ACAD_REACTORS
330
1A
102
}
330
1A
100
AcDbPlotSettings
  1

  2

  4

  6

 40
0.0
 41
0.0
 42
0.0
 43
0.0
 44
0.0
 45
0.0
 46
0.0
 47
0.0
 48
0.0
 49
0.0
140
0.0
141
0.0
142
1.0
143
1.0
 70
  1776
 72
     0
 73
     0
 74
     0
  7

 75
     0
147
1.0
148
0.0
149
0.0
100
AcDbLayout
  1
Model
 70
     1
 71
     0
 10
-435.0
 20
-307.5
 11
2535.0
 21
1792.5
 12
1050.0
 22
1485.0
 32
0.0
 14
-435.0
 24
-307.5
 34
0.0
 15
2535.0
 25
1792.5
 35
0.0
146
0.0
 13
0.0
 23
0.0
 33
0.0
 16
1.0
 26
0.0
 36
0.0
 17
0.0
 27
1.0
 37
0.0
 76
     0
330
1F
  0
MLINESTYLE
  5
18
102
{ACAD_REACTORS
330
17
102
}
330
17
100
AcDbMlineStyle
  2
STANDARD
 70
     0
  3

 62
   256
 51
90.0
 52
90.0
 71
     2
 49
0.5
 62
   256
  6
BYLAYER
 49
-0.5
 62
   256
  6
BYLAYER
  0
ACDBPLACEHOLDER
  5
F
102
{ACAD_REACTORS
330
E
102
}
330
E
  0
XRECORD
  5
7D3
102
{ACAD_REACTORS
330
7D1
102
}
330
7D1
100
AcDbXrecord
280
     1
340
7C9
  0
XRECORD
  5
7D2
102
{ACAD_REACTORS
330
7D1
102
}
330
7D1
100
AcDbXrecord
280
     1
340
7C8
  0
DICTIONARYVAR
  5
7CD
102
{ACAD_REACTORS
330
7CB
102
}
330
7CB
100
DictionaryVariables
280
     0
  1
2
  0
DICTIONARYVAR
  5
7CC
102
{ACAD_REACTORS
330
7CB
102
}
330
7CB
100
DictionaryVariables
280
     0
  1
1
  0
DICTIONARYVAR
  5
7CE
102
{ACAD_REACTORS
330
7CB
102
}
330
7CB
100
DictionaryVariables
280
     0
  1

  0
DICTIONARY
  5
7D4
330
1E
100
AcDbDictionary
280
     1
281
     1
  3
ACAD_XREC_ROUNDTRIP
360
7D5
  0
DICTIONARY
  5
7D8
330
26
100
AcDbDictionary
280
     1
281
     1
  3
ACAD_XREC_ROUNDTRIP
360
7D9
  0
DICTIONARY
  5
7D6
330
22
100
AcDbDictionary
280
     1
281
     1
  3
ACAD_XREC_ROUNDTRIP
360
7D7
  0
XRECORD
  5
7D5
102
{ACAD_REACTORS
330
7D4
102
}
330
7D4
100
AcDbXrecord
280
     1
102
SHADEPLOT
 70
     0
102
SHADEPLOTRESLEVEL
 70
     2
102
SHADEPLOTCUSTOMDPI
 70
   300
  0
XRECORD
  5
7D9
102
{ACAD_REACTORS
330
7D8
102
}
330
7D8
100
AcDbXrecord
280
     1
102
SHADEPLOT
 70
     0
102
SHADEPLOTRESLEVEL
 70
     2
102
SHADEPLOTCUSTOMDPI
 70
   300
  0
XRECORD
  5
7D7
102
{ACAD_REACTORS
330
7D6
102
}
330
7D6
100
AcDbXrecord
280
     1
102
SHADEPLOT
 70
     0
102
SHADEPLOTRESLEVEL
 70
     2
102
SHADEPLOTCUSTOMDPI
 70
   300
  0
ENDSEC
  0
EOF
