  0
SECTION
  2
HEADER
  9
$ACADVER
  1
AC1015
  9
$ACADMAINTVER
 70
    20
  9
$DWGCODEPAGE
  3
ANSI_1252
  9
$INSBASE
 10
1050.0
 20
1485.0
 30
0.0
  9
$EXTMIN
 10
1602.708333333332
 20
316.0
 30
0.0
  9
$EXTMAX
 10
2226.424751139046
 20
1399.44198757363
 30
0.0
  9
$LIMMIN
 10
-435.0
 20
-307.5
  9
$LIMMAX
 10
2535.0
 20
1792.5
  9
$ORTHOMODE
 70
     0
  9
$REGENMODE
 70
     1
  9
$FILLMODE
 70
     1
  9
$QTEXTMODE
 70
     0
  9
$MIRRTEXT
 70
     1
  9
$LTSCALE
 40
5.0
  9
$ATTMODE
 70
     1
  9
$TEXTSIZE
 40
2.5
  9
$TRACEWID
 40
1.0
  9
$TEXTSTYLE
  7
Standard
  9
$CLAYER
  8
0
  9
$CELTYPE
  6
ByLayer
  9
$CECOLOR
 62
     7
  9
$CELTSCALE
 40
1.0
  9
$DISPSILH
 70
     0
  9
$DIMSCALE
 40
5.0
  9
$DIMASZ
 40
3.5
  9
$DIMEXO
 40
0.625
  9
$DIMDLI
 40
3.75
  9
$DIMRND
 40
0.0
  9
$DIMDLE
 40
0.0
  9
$DIMEXE
 40
1.25
  9
$DIMTP
 40
0.0
  9
$DIMTM
 40
0.0
  9
$DIMTXT
 40
3.5
  9
$DIMCEN
 40
2.5
  9
$DIMTSZ
 40
0.0
  9
$DIMTOL
 70
     0
  9
$DIMLIM
 70
     0
  9
$DIMTIH
 70
     0
  9
$DIMTOH
 70
     0
  9
$DIMSE1
 70
     0
  9
$DIMSE2
 70
     0
  9
$DIMTAD
 70
     1
  9
$DIMZIN
 70
     8
  9
$DIMBLK
  1

  9
$DIMASO
 70
     1
  9
$DIMSHO
 70
     1
  9
$DIMPOST
  1

  9
$DIMAPOST
  1

  9
$DIMALT
 70
     0
  9
$DIMALTD
 70
     3
  9
$DIMALTF
 40
0.03937
  9
$DIMLFAC
 40
1.0
  9
$DIMTOFL
 70
     1
  9
$DIMTVP
 40
0.0
  9
$DIMTIX
 70
     0
  9
$DIMSOXD
 70
     0
  9
$DIMSAH
 70
     0
  9
$DIMBLK1
  1

  9
$DIMBLK2
  1

  9
$DIMSTYLE
  2
ISO-25
  9
$DIMCLRD
 70
     0
  9
$DIMCLRE
 70
     0
  9
$DIMCLRT
 70
     0
  9
$DIMTFAC
 40
1.0
  9
$DIMGAP
 40
0.625
  9
$DIMJUST
 70
     0
  9
$DIMSD1
 70
     0
  9
$DIMSD2
 70
     0
  9
$DIMTOLJ
 70
     0
  9
$DIMTZIN
 70
     8
  9
$DIMALTZ
 70
     0
  9
$DIMALTTZ
 70
     0
  9
$DIMUPT
 70
     0
  9
$DIMDEC
 70
     2
  9
$DIMTDEC
 70
     2
  9
$DIMALTU
 70
     2
  9
$DIMALTTD
 70
     3
  9
$DIMTXSTY
  7
Standard
  9
$DIMAUNIT
 70
     0
  9
$DIMADEC
 70
     0
  9
$DIMALTRND
 40
0.0
  9
$DIMAZIN
 70
     0
  9
$DIMDSEP
 70
    44
  9
$DIMATFIT
 70
     3
  9
$DIMFRAC
 70
     0
  9
$DIMLDRBLK
  1

  9
$DIMLUNIT
 70
     2
  9
$DIMLWD
 70
    -2
  9
$DIMLWE
 70
    -2
  9
$DIMTMOVE
 70
     0
  9
$LUNITS
 70
     2
  9
$LUPREC
 70
     4
  9
$SKETCHINC
 40
1.0
  9
$FILLETRAD
 40
10.0
  9
$AUNITS
 70
     0
  9
$AUPREC
 70
     0
  9
$MENU
  1
.
  9
$ELEVATION
 40
0.0
  9
$PELEVATION
 40
0.0
  9
$THICKNESS
 40
0.0
  9
$LIMCHECK
 70
     0
  9
$CHAMFERA
 40
10.0
  9
$CHAMFERB
 40
10.0
  9
$CHAMFERC
 40
20.0
  9
$CHAMFERD
 40
0.0
  9
$SKPOLY
 70
     0
  9
$TDCREATE
 40
2455509.579262871
  9
$TDUCREATE
 40
2455509.537596204
  9
$TDUPDATE
 40
2455898.447147720
  9
$TDUUPDATE
 40
2455898.405481053
  9
$TDINDWG
 40
0.0002090741
  9
$TDUSRTIMER
 40
0.0002090741
  9
$USRTIMER
 70
     1
  9
$ANGBASE
 50
0.0
  9
$ANGDIR
 70
     0
  9
$PDMODE
 70
     0
  9
$PDSIZE
 40
0.0
  9
$PLINEWID
 40
0.0
  9
$SPLFRAME
 70
     0
  9
$SPLINETYPE
 70
     6
  9
$SPLINESEGS
 70
     8
  9
$HANDSEED
  5
79A
  9
$SURFTAB1
 70
     6
  9
$SURFTAB2
 70
     6
  9
$SURFTYPE
 70
     6
  9
$SURFU
 70
     6
  9
$SURFV
 70
     6
  9
$UCSBASE
  2

  9
$UCSNAME
  2

  9
$UCSORG
 10
0.0
 20
0.0
 30
0.0
  9
$UCSXDIR
 10
1.0
 20
0.0
 30
0.0
  9
$UCSYDIR
 10
0.0
 20
1.0
 30
0.0
  9
$UCSORTHOREF
  2

  9
$UCSORTHOVIEW
 70
     0
  9
$UCSORGTOP
 10
0.0
 20
0.0
 30
0.0
  9
$UCSORGBOTTOM
 10
0.0
 20
0.0
 30
0.0
  9
$UCSORGLEFT
 10
0.0
 20
0.0
 30
0.0
  9
$UCSORGRIGHT
 10
0.0
 20
0.0
 30
0.0
  9
$UCSORGFRONT
 10
0.0
 20
0.0
 30
0.0
  9
$UCSORGBACK
 10
0.0
 20
0.0
 30
0.0
  9
$PUCSBASE
  2

  9
$PUCSNAME
  2

  9
$PUCSORG
 10
0.0
 20
0.0
 30
0.0
  9
$PUCSXDIR
 10
1.0
 20
0.0
 30
0.0
  9
$PUCSYDIR
 10
0.0
 20
1.0
 30
0.0
  9
$PUCSORTHOREF
  2

  9
$PUCSORTHOVIEW
 70
     0
  9
$PUCSORGTOP
 10
0.0
 20
0.0
 30
0.0
  9
$PUCSORGBOTTOM
 10
0.0
 20
0.0
 30
0.0
  9
$PUCSORGLEFT
 10
0.0
 20
0.0
 30
0.0
  9
$PUCSORGRIGHT
 10
0.0
 20
0.0
 30
0.0
  9
$PUCSORGFRONT
 10
0.0
 20
0.0
 30
0.0
  9
$PUCSORGBACK
 10
0.0
 20
0.0
 30
0.0
  9
$USERI1
 70
     0
  9
$USERI2
 70
     0
  9
$USERI3
 70
     0
  9
$USERI4
 70
     0
  9
$USERI5
 70
     0
  9
$USERR1
 40
0.0
  9
$USERR2
 40
0.0
  9
$USERR3
 40
0.0
  9
$USERR4
 40
0.0
  9
$USERR5
 40
0.0
  9
$WORLDVIEW
 70
     1
  9
$SHADEDGE
 70
     3
  9
$SHADEDIF
 70
    70
  9
$TILEMODE
 70
     1
  9
$MAXACTVP
 70
    64
  9
$PINSBASE
 10
0.0
 20
0.0
 30
0.0
  9
$PLIMCHECK
 70
     0
  9
$PEXTMIN
 10
-435.0
 20
-307.5
 30
0.0
  9
$PEXTMAX
 10
2535.0
 20
1792.5
 30
0.0
  9
$PLIMMIN
 10
-435.0
 20
-307.5
  9
$PLIMMAX
 10
2535.0
 20
1792.5
  9
$UNITMODE
 70
     0
  9
$VISRETAIN
 70
     1
  9
$PLINEGEN
 70
     0
  9
$PSLTSCALE
 70
     1
  9
$TREEDEPTH
 70
  3020
  9
$CMLSTYLE
  2
Standard
  9
$CMLJUST
 70
     0
  9
$CMLSCALE
 40
20.0
  9
$PROXYGRAPHICS
 70
     1
  9
$MEASUREMENT
 70
     1
  9
$CELWEIGHT
370
    -1
  9
$ENDCAPS
280
     0
  9
$JOINSTYLE
280
     0
  9
$LWDISPLAY
290
     0
  9
$INSUNITS
 70
     4
  9
$HYPERLINKBASE
  1

  9
$STYLESHEET
  1

  9
$XEDIT
290
     1
  9
$CEPSNTYPE
380
     0
  9
$PSTYLEMODE
290
     1
  9
$FINGERPRINTGUID
  2
{FAEB1C30-E019-11D5-929B-00C0DF256EC4}
  9
$VERSIONGUID
  2
{4134B3AB-7C6D-45BB-85AE-9EC45E9EEDD9}
  9
$EXTNAMES
290
     1
  9
$PSVPSCALE
 40
0.0
  9
$OLESTARTUP
290
     0
  0
ENDSEC
  0
SECTION
  2
CLASSES
  0
CLASS
  1
ACDBDICTIONARYWDFLT
  2
AcDbDictionaryWithDefault
  3
ObjectDBX Classes
 90
        0
280
     0
281
     0
  0
CLASS
  1
DICTIONARYVAR
  2
AcDbDictionaryVar
  3
ObjectDBX Classes
 90
        0
280
     0
281
     0
  0
CLASS
  1
ACDBPLACEHOLDER
  2
AcDbPlaceHolder
  3
ObjectDBX Classes
 90
        0
280
     0
281
     0
  0
CLASS
  1
LAYOUT
  2
AcDbLayout
  3
ObjectDBX Classes
 90
        0
280
     0
281
     0
  0
ENDSEC
  0
SECTION
  2
TABLES
  0
TABLE
  2
VPORT
  5
8
330
0
100
AcDbSymbolTable
 70
     2
  0
VPORT
  5
78F
330
8
100
AcDbSymbolTableRecord
100
AcDbViewportTableRecord
  2
*Active
 70
     0
 10
0.0
 20
0.0
 11
1.0
 21
1.0
 12
2336.260923685987
 22
1011.153253925642
 13
0.0
 23
0.0
 14
1.0
 24
1.0
 15
0.0
 25
0.0
 16
0.0
 26
0.0
 36
1.0
 17
0.0
 27
0.0
 37
0.0
 40
1302.82945446934
 41
1.932762836185818
 42
50.0
 43
0.0
 44
0.0
 50
0.0
 51
0.0
 71
    16
 72
   100
 73
     1
 74
     0
 75
     0
 76
     0
 77
     0
 78
     0
281
     0
 65
     0
110
0.0
120
0.0
130
0.0
111
1.0
121
0.0
131
0.0
112
0.0
122
1.0
132
0.0
 79
     0
146
0.0
  0
ENDTAB
  0
TABLE
  2
LTYPE
  5
5
330
0
100
AcDbSymbolTable
 70
     4
  0
LTYPE
  5
14
330
5
100
AcDbSymbolTableRecord
100
AcDbLinetypeTableRecord
  2
ByBlock
 70
     0
  3

 72
    65
 73
     0
 40
0.0
  0
LTYPE
  5
15
330
5
100
AcDbSymbolTableRecord
100
AcDbLinetypeTableRecord
  2
ByLayer
 70
     0
  3

 72
    65
 73
     0
 40
0.0
  0
LTYPE
  5
16
330
5
100
AcDbSymbolTableRecord
100
AcDbLinetypeTableRecord
  2
Continuous
 70
     0
  3
Solid line
 72
    65
 73
     0
 40
0.0
  0
LTYPE
  5
2A
330
5
100
AcDbSymbolTableRecord
100
AcDbLinetypeTableRecord
  2
DASHED
 70
     0
  3
__ __ __ __ __
 72
    65
 73
     2
 40
6.25
 49
5.0
 74
     4
 75
     0
340
0
 46
1.0
 50
0.0
 44
0.0
 45
0.0
 49
-1.25
 74
     4
 75
     0
340
0
 46
1.0
 50
0.0
 44
0.0
 45
0.0
  0
LTYPE
  5
36
330
5
100
AcDbSymbolTableRecord
100
AcDbLinetypeTableRecord
  2
CENTER
 70
     0
  3
__ . __ . __ . __ . __
 72
    65
 73
     4
 40
7.5
 49
5.0
 74
     4
 75
     0
340
0
 46
1.0
 50
0.0
 44
0.0
 45
0.0
 49
-1.25
 74
     4
 75
     0
340
0
 46
1.0
 50
0.0
 44
0.0
 45
0.0
 49
0.0
 74
     4
 75
     0
340
0
 46
1.0
 50
0.0
 44
0.0
 45
0.0
 49
-1.25
 74
     4
 75
     0
340
0
 46
1.0
 50
0.0
 44
0.0
 45
0.0
  0
LTYPE
  5
3B7
330
5
100
AcDbSymbolTableRecord
100
AcDbLinetypeTableRecord
  2
DIVIDE
 70
     0
  3
__ . . __ . . __ . . __
 72
    65
 73
     6
 40
8.75
 49
5.0
 74
     4
 75
     0
340
0
 46
1.0
 50
0.0
 44
0.0
 45
0.0
 49
-1.25
 74
     4
 75
     0
340
0
 46
1.0
 50
0.0
 44
0.0
 45
0.0
 49
0.0
 74
     4
 75
     0
340
0
 46
1.0
 50
0.0
 44
0.0
 45
0.0
 49
-1.25
 74
     4
 75
     0
340
0
 46
1.0
 50
0.0
 44
0.0
 45
0.0
 49
0.0
 74
     4
 75
     0
340
0
 46
1.0
 50
0.0
 44
0.0
 45
0.0
 49
-1.25
 74
     4
 75
     0
340
0
 46
1.0
 50
0.0
 44
0.0
 45
0.0
  0
ENDTAB
  0
TABLE
  2
LAYER
  5
2
330
0
100
AcDbSymbolTable
 70
    14
  0
LAYER
  5
10
330
2
100
AcDbSymbolTableRecord
100
AcDbLayerTableRecord
  2
0
 70
     0
 62
     7
  6
Continuous
370
    -3
390
F
  0
LAYER
  5
2B
330
2
100
AcDbSymbolTableRecord
100
AcDbLayerTableRecord
  2
LC-INFO-1-5-mm-A2-0
 70
     1
 62
     7
  6
ByBlock
370
    -3
390
F
  0
LAYER
  5
2C
330
2
100
AcDbSymbolTableRecord
100
AcDbLayerTableRecord
  2
LC-CUT-HIDDEN
 70
     0
 62
     7
  6
DASHED
370
    -3
390
F
  0
LAYER
  5
2D
330
2
100
AcDbSymbolTableRecord
100
AcDbLayerTableRecord
  2
LC-VIEWPORT
 70
     0
 62
     7
  6
ByBlock
370
    -3
390
F
  0
LAYER
  5
2E
330
2
100
AcDbSymbolTableRecord
100
AcDbLayerTableRecord
  2
LC-3D-HIDDEN
 70
     0
 62
     9
  6
DASHED
370
    -3
390
F
  0
LAYER
  5
32
330
2
100
AcDbSymbolTableRecord
100
AcDbLayerTableRecord
  2
LC-001-002-----0
 70
     0
 62
     1
  6
ByBlock
370
    -3
390
F
  0
LAYER
  5
37
330
2
100
AcDbSymbolTableRecord
100
AcDbLayerTableRecord
  2
LC-002-006-MLN-0
 70
     0
 62
     2
  6
CENTER
370
    -3
390
F
  0
LAYER
  5
44
330
2
100
AcDbSymbolTableRecord
100
AcDbLayerTableRecord
  2
LC-003-002-RND-0
 70
     0
 62
     1
  6
ByBlock
370
    -3
390
F
  0
LAYER
  5
9A
330
2
100
AcDbSymbolTableRecord
100
AcDbLayerTableRecord
  2
LC-004-005-----0
 70
     0
 62
     2
  6
ByBlock
370
    -3
390
F
  0
LAYER
  5
C8
330
2
100
AcDbSymbolTableRecord
100
AcDbLayerTableRecord
  2
LC-005-003-----0
 70
     0
 62
     2
  6
ByBlock
370
    -3
390
F
  0
LAYER
  5
E1
330
2
100
AcDbSymbolTableRecord
100
AcDbLayerTableRecord
  2
LC-006-003-MTG-0
 70
     0
 62
     2
  6
ByBlock
370
    -3
390
F
  0
LAYER
  5
E7
330
2
100
AcDbSymbolTableRecord
100
AcDbLayerTableRecord
  2
Defpoints
 70
     0
 62
     7
  6
Continuous
290
     0
370
    -3
390
F
  0
LAYER
  5
146
330
2
100
AcDbSymbolTableRecord
100
AcDbLayerTableRecord
  2
LC-007-004-----0
 70
     0
 62
     7
  6
ByBlock
370
    -3
390
F
  0
LAYER
  5
3B8
330
2
100
AcDbSymbolTableRecord
100
AcDbLayerTableRecord
  2
LC-008-101-----0
 70
     0
 62
    51
  6
DIVIDE
370
    -3
390
F
  0
ENDTAB
  0
TABLE
  2
STYLE
  5
3
330
0
100
AcDbSymbolTable
 70
     4
  0
STYLE
  5
11
330
3
100
AcDbSymbolTableRecord
100
AcDbTextStyleTableRecord
  2
Standard
 70
     0
 40
0.0
 41
1.0
 50
0.0
 71
     0
 42
2.5
  3
txt
  4

  0
STYLE
  5
2F
330
3
100
AcDbSymbolTableRecord
100
AcDbTextStyleTableRecord
  2
LCTX0-400-0-0pDIN-Schrift
 70
     0
 40
0.0
 41
1.0
 50
0.0
 71
     0
 42
3.5
  3
TXT
  4

  0
STYLE
  5
30
330
3
100
AcDbSymbolTableRecord
100
AcDbTextStyleTableRecord
  2
LCTX0-560-0-0-DIN-Schrift
 70
     0
 40
0.0
 41
1.0
 50
0.0
 71
     0
 42
3.5
  3
MONOTXT
  4

  0
STYLE
  5
31
330
3
100
AcDbSymbolTableRecord
100
AcDbTextStyleTableRecord
  2
LCTX0-400-0-0-DIN-Schrift
 70
     0
 40
0.0
 41
1.0
 50
0.0
 71
     0
 42
3.5
  3
MONOTXT
  4

  0
ENDTAB
  0
TABLE
  2
VIEW
  5
6
330
0
100
AcDbSymbolTable
 70
     0
  0
ENDTAB
  0
TABLE
  2
UCS
  5
7
330
0
100
AcDbSymbolTable
 70
     0
  0
ENDTAB
  0
TABLE
  2
APPID
  5
9
330
0
100
AcDbSymbolTable
 70
     1
  0
APPID
  5
12
330
9
100
AcDbSymbolTableRecord
100
AcDbRegAppTableRecord
  2
ACAD
 70
     0
  0
ENDTAB
  0
TABLE
  2
DIMSTYLE
  5
A
330
0
100
AcDbSymbolTable
 70
     7
100
AcDbDimStyleTable
 71
     0
  0
DIMSTYLE
105
27
330
A
100
AcDbSymbolTableRecord
100
AcDbDimStyleTableRecord
  2
ISO-25
 70
     0
 41
2.5
 42
0.625
 43
3.75
 44
1.25
 73
     0
 74
     0
 77
     1
 78
     8
140
2.5
141
2.5
143
0.03937
147
0.625
171
     3
172
     1
271
     2
272
     2
274
     3
278
    44
283
     0
284
     8
340
11
  0
DIMSTYLE
105
CA
330
A
100
AcDbSymbolTableRecord
100
AcDbDimStyleTableRecord
  2
LC-DIM-W-0025-02-32
 70
     0
 40
5.0
 41
2.5
 42
0.0
 43
7.5
 44
1.8
 73
     0
 74
     0
 75
     1
 76
     1
 77
     1
 78
     8
 79
     2
140
2.5
141
0.0
146
0.71
147
1.5
176
     2
177
     2
178
     2
179
     2
271
     2
278
    44
289
     1
340
2F
  0
DIMSTYLE
105
E5
102
{ACAD_REACTORS
330
E6
330
F4
102
}
330
A
100
AcDbSymbolTableRecord
100
AcDbDimStyleTableRecord
  2
LC-DIM-L-0025-02-02
 70
     0
 40
5.0
 41
2.5
 42
0.0
 43
7.5
 44
1.8
 73
     0
 74
     0
 77
     1
 78
     8
 79
     2
140
2.5
141
0.0
146
0.71
147
1.5
172
     1
176
     2
177
     2
178
     2
179
     2
271
     2
278
    44
289
     1
340
2F
  0
DIMSTYLE
105
101
102
{ACAD_REACTORS
330
102
330
10F
330
11C
330
12B
330
138
102
}
330
A
100
AcDbSymbolTableRecord
100
AcDbDimStyleTableRecord
  2
LC-DIM-L-0025-03-02
 70
     0
 40
5.0
 41
2.5
 42
0.0
 43
7.5
 44
1.8
 73
     0
 74
     0
 77
     1
 78
     8
 79
     2
140
2.5
141
0.0
146
0.71
147
1.5
172
     1
176
     2
177
     2
178
     2
179
     3
271
     3
278
    44
289
     1
340
2F
  0
DIMSTYLE
105
3E4
330
A
100
AcDbSymbolTableRecord
100
AcDbDimStyleTableRecord
  2
LC-DIM-L-0025-05-02
 70
     0
 40
5.0
 41
2.5
 42
0.0
 43
7.5
 44
1.8
 73
     0
 74
     0
 77
     1
 78
     8
 79
     2
140
2.5
141
0.0
146
0.71
147
1.5
172
     1
176
     2
177
     2
178
     2
179
     5
271
     5
278
    44
289
     1
340
2F
  0
DIMSTYLE
105
751
102
{ACAD_REACTORS
330
752
102
}
330
A
100
AcDbSymbolTableRecord
100
AcDbDimStyleTableRecord
  2
LC-DIM-L-0025-01-02
 70
     0
 40
5.0
 41
2.5
 42
0.0
 43
7.5
 44
1.8
 73
     0
 74
     0
 77
     1
 78
     8
 79
     2
140
2.5
141
0.0
146
0.71
147
1.5
172
     1
176
     2
177
     2
178
     2
179
     1
271
     1
278
    44
289
     1
340
2F
  0
DIMSTYLE
105
75F
102
{ACAD_REACTORS
330
760
330
769
102
}
330
A
100
AcDbSymbolTableRecord
100
AcDbDimStyleTableRecord
  2
LC-DIM-R-0025-03-02
 70
     0
 40
5.0
 41
2.5
 42
0.0
 43
7.5
 44
1.8
 73
     0
 74
     0
 77
     1
 78
     8
 79
     2
140
2.5
141
0.0
146
0.71
147
1.5
176
     2
177
     2
178
     2
179
     3
271
     3
278
    44
289
     1
340
2F
  0
ENDTAB
  0
TABLE
  2
BLOCK_RECORD
  5
1
330
0
100
AcDbSymbolTable
 70
    32
  0
BLOCK_RECORD
  5
1F
330
1
100
AcDbSymbolTableRecord
100
AcDbBlockTableRecord
  2
*Model_Space
340
22
  0
BLOCK_RECORD
  5
1B
330
1
100
AcDbSymbolTableRecord
100
AcDbBlockTableRecord
  2
*Paper_Space
340
1E
  0
BLOCK_RECORD
  5
23
330
1
100
AcDbSymbolTableRecord
100
AcDbBlockTableRecord
  2
*Paper_Space0
340
26
  0
BLOCK_RECORD
  5
97
330
1
100
AcDbSymbolTableRecord
100
AcDbBlockTableRecord
  2
*X1
340
0
102
{BLKREFS
331
B0
102
}
  0
BLOCK_RECORD
  5
B2
330
1
100
AcDbSymbolTableRecord
100
AcDbBlockTableRecord
  2
*X2
340
0
102
{BLKREFS
331
C7
102
}
  0
BLOCK_RECORD
  5
CB
330
1
100
AcDbSymbolTableRecord
100
AcDbBlockTableRecord
  2
LCDIM1
340
0
102
{BLKREFS
331
E3
102
}
  0
BLOCK_RECORD
  5
E8
330
1
100
AcDbSymbolTableRecord
100
AcDbBlockTableRecord
  2
*D4
340
0
  0
BLOCK_RECORD
  5
F5
330
1
100
AcDbSymbolTableRecord
100
AcDbBlockTableRecord
  2
*D5
340
0
  0
BLOCK_RECORD
  5
103
330
1
100
AcDbSymbolTableRecord
100
AcDbBlockTableRecord
  2
*D6
340
0
  0
BLOCK_RECORD
  5
110
330
1
100
AcDbSymbolTableRecord
100
AcDbBlockTableRecord
  2
*D7
340
0
  0
BLOCK_RECORD
  5
11D
330
1
100
AcDbSymbolTableRecord
100
AcDbBlockTableRecord
  2
*D8
340
0
  0
BLOCK_RECORD
  5
12C
330
1
100
AcDbSymbolTableRecord
100
AcDbBlockTableRecord
  2
*D9
340
0
  0
BLOCK_RECORD
  5
139
330
1
100
AcDbSymbolTableRecord
100
AcDbBlockTableRecord
  2
*D10
340
0
  0
BLOCK_RECORD
  5
753
330
1
100
AcDbSymbolTableRecord
100
AcDbBlockTableRecord
  2
*D29
340
0
  0
BLOCK_RECORD
  5
761
330
1
100
AcDbSymbolTableRecord
100
AcDbBlockTableRecord
  2
*D30
340
0
  0
BLOCK_RECORD
  5
76A
330
1
100
AcDbSymbolTableRecord
100
AcDbBlockTableRecord
  2
*D31
340
0
  0
ENDTAB
  0
ENDSEC
  0
SECTION
  2
BLOCKS
  0
BLOCK
  5
20
330
1F
100
AcDbEntity
  8
0
100
AcDbBlockBegin
  2
*Model_Space
 70
     0
 10
0.0
 20
0.0
 30
0.0
  3
*Model_Space
  1

  0
ENDBLK
  5
21
330
1F
100
AcDbEntity
  8
0
100
AcDbBlockEnd
  0
BLOCK
  5
1C
330
1B
100
AcDbEntity
 67
     1
  8
0
100
AcDbBlockBegin
  2
*Paper_Space
 70
     0
 10
0.0
 20
0.0
 30
0.0
  3
*Paper_Space
  1

  0
ENDBLK
  5
1D
330
1B
100
AcDbEntity
 67
     1
  8
0
100
AcDbBlockEnd
  0
BLOCK
  5
24
330
23
100
AcDbEntity
  8
0
100
AcDbBlockBegin
  2
*Paper_Space0
 70
     0
 10
0.0
 20
0.0
 30
0.0
  3
*Paper_Space0
  1

  0
ENDBLK
  5
25
330
23
100
AcDbEntity
  8
0
100
AcDbBlockEnd
  0
BLOCK
  5
98
330
97
100
AcDbEntity
  8
0
100
AcDbBlockBegin
  2
*X1
 70
     1
 10
0.0
 20
0.0
 30
0.0
  3
*X1
  1

  4
*X1
  0
LINE
  5
9B
330
97
100
AcDbEntity
  8
LC-004-005-----0
 62
     7
370
    25
100
AcDbLine
 10
2130.111961
 20
1225.015281
 30
0.0
 11
2142.651134
 21
1237.554454
 31
0.0
  0
LINE
  5
9C
330
97
100
AcDbEntity
  8
LC-004-005-----0
 62
     7
370
    25
100
AcDbLine
 10
2113.397505
 20
1222.44296
 30
0.0
 11
2126.528422
 21
1235.573878
 31
0.0
  0
LINE
  5
9D
330
97
100
AcDbEntity
  8
LC-004-005-----0
 62
     7
370
    25
100
AcDbLine
 10
2134.654434
 20
1243.69989
 30
0.0
 11
2148.393788
 21
1257.439243
 31
0.0
  0
LINE
  5
9E
330
97
100
AcDbEntity
  8
LC-004-005-----0
 62
     7
370
    25
100
AcDbLine
 10
2098.743645
 20
1221.931236
 30
0.0
 11
2110.14862
 21
1233.336212
 31
0.0
  0
LINE
  5
9F
330
97
100
AcDbEntity
  8
LC-004-005-----0
 62
     7
370
    25
100
AcDbLine
 10
2140.178402
 20
1263.365993
 30
0.0
 11
2150.605805
 21
1273.793396
 31
0.0
  0
LINE
  5
A0
330
97
100
AcDbEntity
  8
LC-004-005-----0
 62
     7
370
    25
100
AcDbLine
 10
2084.089785
 20
1221.419512
 30
0.0
 11
2095.494761
 21
1232.824488
 31
0.0
  0
LINE
  5
A1
330
97
100
AcDbEntity
  8
LC-004-005-----0
 62
     7
370
    25
100
AcDbLine
 10
2142.248505
 20
1279.578232
 30
0.0
 11
2152.585291
 21
1289.915018
 31
0.0
  0
LINE
  5
A2
330
97
100
AcDbEntity
  8
LC-004-005-----0
 62
     7
370
    25
100
AcDbLine
 10
2069.435926
 20
1220.907788
 30
0.0
 11
2080.840901
 21
1232.312764
 31
0.0
  0
LINE
  5
A3
330
97
100
AcDbEntity
  8
LC-004-005-----0
 62
     7
370
    25
100
AcDbLine
 10
2144.227991000001
 20
1295.699854
 30
0.0
 11
2154.564777
 21
1306.03664
 31
0.0
  0
LINE
  5
A4
330
97
100
AcDbEntity
  8
LC-004-005-----0
 62
     7
370
    25
100
AcDbLine
 10
2054.782066
 20
1220.396064
 30
0.0
 11
2066.187041
 21
1231.80104
 31
0.0
  0
LINE
  5
A5
330
97
100
AcDbEntity
  8
LC-004-005-----0
 62
     7
370
    25
100
AcDbLine
 10
2146.207477
 20
1311.821476
 30
0.0
 11
2156.544264
 21
1322.158262
 31
0.0
  0
LINE
  5
A6
330
97
100
AcDbEntity
  8
LC-004-005-----0
 62
     7
370
    25
100
AcDbLine
 10
2040.128206
 20
1219.88434
 30
0.0
 11
2051.533182
 21
1231.289316
 31
0.0
  0
LINE
  5
A7
330
97
100
AcDbEntity
  8
LC-004-005-----0
 62
     7
370
    25
100
AcDbLine
 10
2148.186964
 20
1327.943097
 30
0.0
 11
2158.52375
 21
1338.279884
 31
0.0
  0
LINE
  5
A8
330
97
100
AcDbEntity
  8
LC-004-005-----0
 62
     7
370
    25
100
AcDbLine
 10
2025.474347
 20
1219.372616
 30
0.0
 11
2036.879322
 21
1230.777591
 31
0.0
  0
LINE
  5
A9
330
97
100
AcDbEntity
  8
LC-004-005-----0
 62
     7
370
    25
100
AcDbLine
 10
2150.16645
 20
1344.064719
 30
0.0
 11
2160.503236
 21
1354.401506
 31
0.0
  0
LINE
  5
AA
330
97
100
AcDbEntity
  8
LC-004-005-----0
 62
     7
370
    25
100
AcDbLine
 10
2010.820487
 20
1218.860892
 30
0.0
 11
2022.225462
 21
1230.265867
 31
0.0
  0
LINE
  5
AB
330
97
100
AcDbEntity
  8
LC-004-005-----0
 62
     7
370
    25
100
AcDbLine
 10
2152.145936
 20
1360.186341
 30
0.0
 11
2162.482722
 21
1370.523127
 31
0.0
  0
LINE
  5
AC
330
97
100
AcDbEntity
  8
LC-004-005-----0
 62
     7
370
    25
100
AcDbLine
 10
1992.977415
 20
1215.159956
 30
0.0
 11
2007.571603
 21
1229.754143
 31
0.0
  0
LINE
  5
AD
330
97
100
AcDbEntity
  8
LC-004-005-----0
 62
     7
370
    25
100
AcDbLine
 10
2154.125422
 20
1376.307963
 30
0.0
 11
2176.914413
 21
1399.096954
 31
0.0
  0
LINE
  5
AE
330
97
100
AcDbEntity
  8
LC-004-005-----0
 62
     7
370
    25
100
AcDbLine
 10
1978.835279
 20
1215.159956
 30
0.0
 11
1992.917743
 21
1229.242419
 31
0.0
  0
LINE
  5
AF
330
97
100
AcDbEntity
  8
LC-004-005-----0
 62
     7
370
    25
100
AcDbLine
 10
2156.104909
 20
1392.429585
 30
0.0
 11
2162.835279
 21
1399.159956
 31
0.0
  0
ENDBLK
  5
99
330
97
100
AcDbEntity
  8
0
100
AcDbBlockEnd
  0
BLOCK
  5
B3
330
B2
100
AcDbEntity
  8
0
100
AcDbBlockBegin
  2
*X2
 70
     1
 10
0.0
 20
0.0
 30
0.0
  3
*X2
  1

  4
*X2
  0
LINE
  5
B5
330
B2
100
AcDbEntity
  8
LC-004-005-----0
 62
     7
370
    25
100
AcDbLine
 10
1879.84033
 20
1215.159956
 30
0.0
 11
1886.580218
 21
1221.899844
 31
0.0
  0
LINE
  5
B6
330
B2
100
AcDbEntity
  8
LC-004-005-----0
 62
     7
370
    25
100
AcDbLine
 10
1867.670807
 20
1217.132568
 30
0.0
 11
1877.178516
 21
1226.640277
 31
0.0
  0
LINE
  5
B7
330
B2
100
AcDbEntity
  8
LC-004-005-----0
 62
     7
370
    25
100
AcDbLine
 10
1857.74583
 20
1221.349727
 30
0.0
 11
1866.386604
 21
1229.990501
 31
0.0
  0
LINE
  5
B8
330
B2
100
AcDbEntity
  8
LC-004-005-----0
 62
     7
370
    25
100
AcDbLine
 10
1849.933546
 20
1227.679578
 30
0.0
 11
1857.428815
 21
1235.174847
 31
0.0
  0
LINE
  5
B9
330
B2
100
AcDbEntity
  8
LC-004-005-----0
 62
     7
370
    25
100
AcDbLine
 10
1844.990399
 20
1236.878568
 30
0.0
 11
1852.338524
 21
1244.226692
 31
0.0
  0
LINE
  5
BA
330
B2
100
AcDbEntity
  8
LC-004-005-----0
 62
     7
370
    25
100
AcDbLine
 10
1841.809076
 20
1247.839379
 30
0.0
 11
1849.514835
 21
1255.545139
 31
0.0
  0
LINE
  5
BB
330
B2
100
AcDbEntity
  8
LC-004-005-----0
 62
     7
370
    25
100
AcDbLine
 10
1839.753868
 20
1259.926308
 30
0.0
 11
1847.790288
 21
1267.962728
 31
0.0
  0
LINE
  5
BC
330
B2
100
AcDbEntity
  8
LC-004-005-----0
 62
     7
370
    25
100
AcDbLine
 10
1838.167762
 20
1272.482337
 30
0.0
 11
1846.243744
 21
1280.558319
 31
0.0
  0
LINE
  5
BD
330
B2
100
AcDbEntity
  8
LC-004-005-----0
 62
     7
370
    25
100
AcDbLine
 10
1836.621218
 20
1285.077928
 30
0.0
 11
1844.6972
 21
1293.153911
 31
0.0
  0
LINE
  5
BE
330
B2
100
AcDbEntity
  8
LC-004-005-----0
 62
     7
370
    25
100
AcDbLine
 10
1835.074673
 20
1297.67352
 30
0.0
 11
1843.150656
 21
1305.749502
 31
0.0
  0
LINE
  5
BF
330
B2
100
AcDbEntity
  8
LC-004-005-----0
 62
     7
370
    25
100
AcDbLine
 10
1833.528129
 20
1310.269111
 30
0.0
 11
1841.604112
 21
1318.345094
 31
0.0
  0
LINE
  5
C0
330
B2
100
AcDbEntity
  8
LC-004-005-----0
 62
     7
370
    25
100
AcDbLine
 10
1831.981585
 20
1322.864703
 30
0.0
 11
1840.057568
 21
1330.940685
 31
0.0
  0
LINE
  5
C1
330
B2
100
AcDbEntity
  8
LC-004-005-----0
 62
     7
370
    25
100
AcDbLine
 10
1830.435041
 20
1335.460294
 30
0.0
 11
1838.511023
 21
1343.536277
 31
0.0
  0
LINE
  5
C2
330
B2
100
AcDbEntity
  8
LC-004-005-----0
 62
     7
370
    25
100
AcDbLine
 10
1828.888497
 20
1348.055886
 30
0.0
 11
1836.964479
 21
1356.131868
 31
0.0
  0
LINE
  5
C3
330
B2
100
AcDbEntity
  8
LC-004-005-----0
 62
     7
370
    25
100
AcDbLine
 10
1827.341953
 20
1360.651477
 30
0.0
 11
1835.417935
 21
1368.727459
 31
0.0
  0
LINE
  5
C4
330
B2
100
AcDbEntity
  8
LC-004-005-----0
 62
     7
370
    25
100
AcDbLine
 10
1825.795408
 20
1373.247068
 30
0.0
 11
1833.871391
 21
1381.323051
 31
0.0
  0
LINE
  5
C5
330
B2
100
AcDbEntity
  8
LC-004-005-----0
 62
     7
370
    25
100
AcDbLine
 10
1822.973182
 20
1384.566978
 30
0.0
 11
1832.324847
 21
1393.918642
 31
0.0
  0
LINE
  5
C6
330
B2
100
AcDbEntity
  8
LC-004-005-----0
 62
     7
370
    25
100
AcDbLine
 10
1814.162825
 20
1389.898756
 30
0.0
 11
1823.424024
 21
1399.159956
 31
0.0
  0
ENDBLK
  5
B4
330
B2
100
AcDbEntity
  8
0
100
AcDbBlockEnd
  0
BLOCK
  5
CC
330
CB
100
AcDbEntity
  8
0
100
AcDbBlockBegin
  2
LCDIM1
 70
     0
 10
0.0
 20
0.0
 30
0.0
  3
LCDIM1
  1

  4
LCDIM1
  0
TEXT
  5
CE
330
CB
100
AcDbEntity
  8
LC-005-003-----0
 62
     7
370
    25
100
AcDbText
 10
2184.879555850814
 20
1303.671341629753
 30
0.0
 40
12.5
  1
 15%%d
 50
19.882217
  7
LCTX0-400-0-0pDIN-Schrift
 72
     1
 11
2208.389399
 21
1312.173534
 31
0.0
100
AcDbText
  0
LINE
  5
CF
330
CB
100
AcDbEntity
  8
LC-005-003-----0
 62
     7
370
    25
100
AcDbLine
 10
2138.782239
 20
1304.968831
 30
0.0
 11
2151.04939
 21
1302.567373
 31
0.0
  0
LINE
  5
D0
330
CB
100
AcDbEntity
  8
LC-005-003-----0
 62
     7
370
    25
100
AcDbLine
 10
2151.04939
 20
1302.567373
 30
0.0
 11
2139.821775
 21
1308.061976
 31
0.0
  0
LINE
  5
D1
330
CB
100
AcDbEntity
  8
LC-005-003-----0
 62
     7
370
    25
100
AcDbLine
 10
2139.821775
 20
1308.061976
 30
0.0
 11
2138.782239
 21
1304.968831
 31
0.0
  0
LINE
  5
D2
330
CB
100
AcDbEntity
  8
LC-005-003-----0
 62
     7
370
    25
100
AcDbLine
 10
2138.891023
 20
1305.379797
 30
0.0
 11
2147.968715
 21
1303.602718
 31
0.0
  0
LINE
  5
D3
330
CB
100
AcDbEntity
  8
LC-005-003-----0
 62
     7
370
    25
100
AcDbLine
 10
2147.968715
 20
1303.602718
 30
0.0
 11
2139.660279
 21
1307.668724
 31
0.0
  0
LINE
  5
D4
330
CB
100
AcDbEntity
  8
LC-005-003-----0
 62
     7
370
    25
100
AcDbLine
 10
2138.999807
 20
1305.790764
 30
0.0
 11
2144.888039
 21
1304.638064
 31
0.0
  0
LINE
  5
D5
330
CB
100
AcDbEntity
  8
LC-005-003-----0
 62
     7
370
    25
100
AcDbLine
 10
2144.888039
 20
1304.638064
 30
0.0
 11
2139.498784
 21
1307.275473
 31
0.0
  0
LINE
  5
D6
330
CB
100
AcDbEntity
  8
LC-005-003-----0
 62
     7
370
    25
100
AcDbLine
 10
2139.108591
 20
1306.20173
 30
0.0
 11
2141.807364
 21
1305.673409
 31
0.0
  0
LINE
  5
D7
330
CB
100
AcDbEntity
  8
LC-005-003-----0
 62
     7
370
    25
100
AcDbLine
 10
2141.807364
 20
1305.673409
 30
0.0
 11
2139.337289
 21
1306.882222
 31
0.0
  0
LINE
  5
D8
330
CB
100
AcDbEntity
  8
LC-005-003-----0
 62
     7
370
    25
100
AcDbLine
 10
2189.198446
 20
1301.561414
 30
0.0
 11
2176.931294
 21
1299.159956
 31
0.0
  0
LINE
  5
D9
330
CB
100
AcDbEntity
  8
LC-005-003-----0
 62
     7
370
    25
100
AcDbLine
 10
2176.931294
 20
1299.159956
 30
0.0
 11
2189.401996
 21
1298.304614
 31
0.0
  0
LINE
  5
DA
330
CB
100
AcDbEntity
  8
LC-005-003-----0
 62
     7
370
    25
100
AcDbLine
 10
2189.401996
 20
1298.304614
 30
0.0
 11
2189.198446
 21
1301.561414
 31
0.0
  0
LINE
  5
DB
330
CB
100
AcDbEntity
  8
LC-005-003-----0
 62
     7
370
    25
100
AcDbLine
 10
2189.252657
 20
1301.139764
 30
0.0
 11
2180.174965
 21
1299.362685
 31
0.0
  0
LINE
  5
DC
330
CB
100
AcDbEntity
  8
LC-005-003-----0
 62
     7
370
    25
100
AcDbLine
 10
2180.174965
 20
1299.362685
 30
0.0
 11
2189.403284
 21
1298.729732
 31
0.0
  0
LINE
  5
DD
330
CB
100
AcDbEntity
  8
LC-005-003-----0
 62
     7
370
    25
100
AcDbLine
 10
2189.306869
 20
1300.718114
 30
0.0
 11
2183.418636
 21
1299.565415
 31
0.0
  0
LINE
  5
DE
330
CB
100
AcDbEntity
  8
LC-005-003-----0
 62
     7
370
    25
100
AcDbLine
 10
2183.418636
 20
1299.565415
 30
0.0
 11
2189.404573
 21
1299.15485
 31
0.0
  0
LINE
  5
DF
330
CB
100
AcDbEntity
  8
LC-005-003-----0
 62
     7
370
    25
100
AcDbLine
 10
2189.36108
 20
1300.296465
 30
0.0
 11
2186.662307
 21
1299.768144
 31
0.0
  0
LINE
  5
E0
330
CB
100
AcDbEntity
  8
LC-005-003-----0
 62
     7
370
    25
100
AcDbLine
 10
2186.662307
 20
1299.768144
 30
0.0
 11
2189.405861
 21
1299.579969
 31
0.0
  0
ARC
  5
E2
330
CB
100
AcDbEntity
  8
LC-006-003-MTG-0
 62
     7
370
    25
100
AcDbCircle
 10
2176.931294
 20
1399.159956
 30
0.0
 40
100.0000000000024
100
AcDbArc
 50
245.073754
 51
299.383221
  0
ENDBLK
  5
CD
330
CB
100
AcDbEntity
  8
0
100
AcDbBlockEnd
  0
BLOCK
  5
F2
330
E8
100
AcDbEntity
  8
0
100
AcDbBlockBegin
  2
*D4
 70
     1
 10
0.0
 20
0.0
 30
0.0
  3
*D4
  1

  0
LINE
  5
E9
330
E8
100
AcDbEntity
  8
LC-005-003-----0
 62
     2
370
    -2
100
AcDbLine
 10
1791.681294
 20
1399.159956
 30
0.0
 11
1691.0
 21
1399.159956
 31
0.0
  0
LINE
  5
EA
330
E8
100
AcDbEntity
  8
LC-005-003-----0
 62
     2
370
    -2
100
AcDbLine
 10
1791.681294
 20
1229.159956
 30
0.0
 11
1691.0
 21
1229.159956
 31
0.0
  0
LINE
  5
EB
330
E8
100
AcDbEntity
  8
LC-005-003-----0
 62
     2
370
    -2
100
AcDbLine
 10
1700.0
 20
1386.659956
 30
0.0
 11
1700.0
 21
1241.659956
 31
0.0
  0
SOLID
  5
EC
330
E8
100
AcDbEntity
  8
LC-005-003-----0
 62
     2
100
AcDbTrace
 10
1702.083333
 20
1386.659956
 30
0.0
 11
1697.916667
 21
1386.659956
 31
0.0
 12
1700.0
 22
1399.159956
 32
0.0
 13
1700.0
 23
1399.159956
 33
0.0
  0
SOLID
  5
ED
330
E8
100
AcDbEntity
  8
LC-005-003-----0
 62
     2
100
AcDbTrace
 10
1697.916667
 20
1241.659956
 30
0.0
 11
1702.083333
 21
1241.659956
 31
0.0
 12
1700.0
 22
1229.159956
 32
0.0
 13
1700.0
 23
1229.159956
 33
0.0
  0
MTEXT
  5
EE
330
E8
100
AcDbEntity
  8
LC-005-003-----0
 62
     2
100
AcDbMText
 10
1685.0
 20
1314.159956
 30
0.0
 40
12.5
 41
0.0
 71
     5
 72
     1
  1
\A1;170
  7
LCTX0-400-0-0pDIN-Schrift
 11
0.0000000000000001
 21
1.0
 31
0.0
 73
     1
 44
1.0
1001
ACAD
1000
MTEXTBEGIN
1070
    73
1070
     1
1070
    44
1040
1.0
1070
    74
1070
     0
1000
MTEXTEND
  0
POINT
  5
EF
330
E8
100
AcDbEntity
  8
Defpoints
 62
     0
100
AcDbPoint
 10
1791.681294
 20
1399.159956
 30
0.0
  0
POINT
  5
F0
330
E8
100
AcDbEntity
  8
Defpoints
 62
     0
100
AcDbPoint
 10
1791.681294
 20
1229.159956
 30
0.0
  0
POINT
  5
F1
330
E8
100
AcDbEntity
  8
Defpoints
 62
     0
100
AcDbPoint
 10
1700.0
 20
1229.159956
 30
0.0
  0
ENDBLK
  5
F3
330
E8
100
AcDbEntity
  8
0
100
AcDbBlockEnd
  0
BLOCK
  5
FF
330
F5
100
AcDbEntity
  8
0
100
AcDbBlockBegin
  2
*D5
 70
     1
 10
0.0
 20
0.0
 30
0.0
  3
*D5
  1

  0
LINE
  5
F6
330
F5
100
AcDbEntity
  8
LC-005-003-----0
 62
     2
370
    -2
100
AcDbLine
 10
1791.681294
 20
1399.159956
 30
0.0
 11
1616.0
 21
1399.159956
 31
0.0
  0
LINE
  5
F7
330
F5
100
AcDbEntity
  8
LC-005-003-----0
 62
     2
370
    -2
100
AcDbLine
 10
1791.681294
 20
1215.159956
 30
0.0
 11
1616.0
 21
1215.159956
 31
0.0
  0
LINE
  5
F8
330
F5
100
AcDbEntity
  8
LC-005-003-----0
 62
     2
370
    -2
100
AcDbLine
 10
1625.0
 20
1386.659956
 30
0.0
 11
1625.0
 21
1227.659956
 31
0.0
  0
SOLID
  5
F9
330
F5
100
AcDbEntity
  8
LC-005-003-----0
 62
     2
100
AcDbTrace
 10
1627.083333
 20
1386.659956
 30
0.0
 11
1622.916667
 21
1386.659956
 31
0.0
 12
1625.0
 22
1399.159956
 32
0.0
 13
1625.0
 23
1399.159956
 33
0.0
  0
SOLID
  5
FA
330
F5
100
AcDbEntity
  8
LC-005-003-----0
 62
     2
100
AcDbTrace
 10
1622.916667
 20
1227.659956
 30
0.0
 11
1627.083333
 21
1227.659956
 31
0.0
 12
1625.0
 22
1215.159956
 32
0.0
 13
1625.0
 23
1215.159956
 33
0.0
  0
MTEXT
  5
FB
330
F5
100
AcDbEntity
  8
LC-005-003-----0
 62
     2
100
AcDbMText
 10
1610.0
 20
1307.159956
 30
0.0
 40
12.5
 41
0.0
 71
     5
 72
     1
  1
\A1;184
  7
LCTX0-400-0-0pDIN-Schrift
 11
0.0000000000000001
 21
1.0
 31
0.0
 73
     1
 44
1.0
1001
ACAD
1000
MTEXTBEGIN
1070
    73
1070
     1
1070
    44
1040
1.0
1070
    74
1070
     0
1000
MTEXTEND
  0
POINT
  5
FC
330
F5
100
AcDbEntity
  8
Defpoints
 62
     0
100
AcDbPoint
 10
1791.681294
 20
1399.159956
 30
0.0
  0
POINT
  5
FD
330
F5
100
AcDbEntity
  8
Defpoints
 62
     0
100
AcDbPoint
 10
1791.681294
 20
1215.159956
 30
0.0
  0
POINT
  5
FE
330
F5
100
AcDbEntity
  8
Defpoints
 62
     0
100
AcDbPoint
 10
1625.0
 20
1215.159956
 30
0.0
  0
ENDBLK
  5
100
330
F5
100
AcDbEntity
  8
0
100
AcDbBlockEnd
  0
BLOCK
  5
10D
330
103
100
AcDbEntity
  8
0
100
AcDbBlockBegin
  2
*D6
 70
     1
 10
0.0
 20
0.0
 30
0.0
  3
*D6
  1

  0
LINE
  5
104
330
103
100
AcDbEntity
  8
LC-005-003-----0
 62
     2
370
    -2
100
AcDbLine
 10
1811.681294
 20
549.400747
 30
0.0
 11
1811.681294
 21
316.0
 31
0.0
  0
LINE
  5
105
330
103
100
AcDbEntity
  8
LC-005-003-----0
 62
     2
370
    -2
100
AcDbLine
 10
2176.931294
 20
549.400747
 30
0.0
 11
2176.931294
 21
316.0
 31
0.0
  0
LINE
  5
106
330
103
100
AcDbEntity
  8
LC-005-003-----0
 62
     2
370
    -2
100
AcDbLine
 10
1824.181294
 20
325.0
 30
0.0
 11
2164.431294
 21
325.0
 31
0.0
  0
SOLID
  5
107
330
103
100
AcDbEntity
  8
LC-005-003-----0
 62
     2
100
AcDbTrace
 10
1824.181294
 20
327.083333
 30
0.0
 11
1824.181294
 21
322.916667
 31
0.0
 12
1811.681294
 22
325.0
 32
0.0
 13
1811.681294
 23
325.0
 33
0.0
  0
SOLID
  5
108
330
103
100
AcDbEntity
  8
LC-005-003-----0
 62
     2
100
AcDbTrace
 10
2164.431294
 20
322.916667
 30
0.0
 11
2164.431294
 21
327.083333
 31
0.0
 12
2176.931294
 22
325.0
 32
0.0
 13
2176.931294
 23
325.0
 33
0.0
  0
MTEXT
  5
109
330
103
100
AcDbEntity
  8
LC-005-003-----0
 62
     2
100
AcDbMText
 10
1994.306294
 20
340.0
 30
0.0
 40
12.5
 41
0.0
 71
     5
 72
     1
  1
\A1;365,25
  7
LCTX0-400-0-0pDIN-Schrift
 73
     1
 44
1.0
1001
ACAD
1000
MTEXTBEGIN
1070
    73
1070
     1
1070
    44
1040
1.0
1070
    74
1070
     0
1000
MTEXTEND
  0
POINT
  5
10A
330
103
100
AcDbEntity
  8
Defpoints
 62
     0
100
AcDbPoint
 10
1811.681294
 20
549.400747
 30
0.0
  0
POINT
  5
10B
330
103
100
AcDbEntity
  8
Defpoints
 62
     0
100
AcDbPoint
 10
2176.931294
 20
549.400747
 30
0.0
  0
POINT
  5
10C
330
103
100
AcDbEntity
  8
Defpoints
 62
     0
100
AcDbPoint
 10
2176.931294
 20
325.0
 30
0.0
  0
ENDBLK
  5
10E
330
103
100
AcDbEntity
  8
0
100
AcDbBlockEnd
  0
BLOCK
  5
11A
330
110
100
AcDbEntity
  8
0
100
AcDbBlockBegin
  2
*D7
 70
     1
 10
0.0
 20
0.0
 30
0.0
  3
*D7
  1

  0
LINE
  5
111
330
110
100
AcDbEntity
  8
LC-005-003-----0
 62
     2
370
    -2
100
AcDbLine
 10
1831.681294
 20
549.400747
 30
0.0
 11
1831.681294
 21
391.0
 31
0.0
  0
LINE
  5
112
330
110
100
AcDbEntity
  8
LC-005-003-----0
 62
     2
370
    -2
100
AcDbLine
 10
2156.931294
 20
549.400747
 30
0.0
 11
2156.931294
 21
391.0
 31
0.0
  0
LINE
  5
113
330
110
100
AcDbEntity
  8
LC-005-003-----0
 62
     2
370
    -2
100
AcDbLine
 10
1844.181294
 20
400.0
 30
0.0
 11
2144.431294
 21
400.0
 31
0.0
  0
SOLID
  5
114
330
110
100
AcDbEntity
  8
LC-005-003-----0
 62
     2
100
AcDbTrace
 10
1844.181294
 20
402.083333
 30
0.0
 11
1844.181294
 21
397.916667
 31
0.0
 12
1831.681294
 22
400.0
 32
0.0
 13
1831.681294
 23
400.0
 33
0.0
  0
SOLID
  5
115
330
110
100
AcDbEntity
  8
LC-005-003-----0
 62
     2
100
AcDbTrace
 10
2144.431294
 20
397.916667
 30
0.0
 11
2144.431294
 21
402.083333
 31
0.0
 12
2156.931294
 22
400.0
 32
0.0
 13
2156.931294
 23
400.0
 33
0.0
  0
MTEXT
  5
116
330
110
100
AcDbEntity
  8
LC-005-003-----0
 62
     2
100
AcDbMText
 10
1994.306294
 20
415.0
 30
0.0
 40
12.5
 41
0.0
 71
     5
 72
     1
  1
\A1;325,25
  7
LCTX0-400-0-0pDIN-Schrift
 73
     1
 44
1.0
1001
ACAD
1000
MTEXTBEGIN
1070
    73
1070
     1
1070
    44
1040
1.0
1070
    74
1070
     0
1000
MTEXTEND
  0
POINT
  5
117
330
110
100
AcDbEntity
  8
Defpoints
 62
     0
100
AcDbPoint
 10
1831.681294
 20
549.400747
 30
0.0
  0
POINT
  5
118
330
110
100
AcDbEntity
  8
Defpoints
 62
     0
100
AcDbPoint
 10
2156.931294
 20
549.400747
 30
0.0
  0
POINT
  5
119
330
110
100
AcDbEntity
  8
Defpoints
 62
     0
100
AcDbPoint
 10
2156.931294
 20
400.0
 30
0.0
  0
ENDBLK
  5
11B
330
110
100
AcDbEntity
  8
0
100
AcDbBlockEnd
  0
BLOCK
  5
129
330
11D
100
AcDbEntity
  8
0
100
AcDbBlockBegin
  2
*D8
 70
     1
 10
0.0
 20
0.0
 30
0.0
  3
*D8
  1

  0
LINE
  5
11E
330
11D
100
AcDbEntity
  8
LC-005-003-----0
 62
     2
370
    -2
100
AcDbLine
 10
1811.681294
 20
549.400747
 30
0.0
 11
1811.681294
 21
441.0
 31
0.0
  0
LINE
  5
11F
330
11D
100
AcDbEntity
  8
LC-005-003-----0
 62
     2
370
    -2
100
AcDbLine
 10
1831.681294
 20
549.400747
 30
0.0
 11
1831.681294
 21
441.0
 31
0.0
  0
LINE
  5
120
330
11D
100
AcDbEntity
  8
LC-005-003-----0
 62
     2
370
    -2
100
AcDbLine
 10
1844.181294
 20
450.0
 30
0.0
 11
1856.681294
 21
450.0
 31
0.0
  0
LINE
  5
121
330
11D
100
AcDbEntity
  8
LC-005-003-----0
 62
     2
370
    -2
100
AcDbLine
 10
1799.181294
 20
450.0
 30
0.0
 11
1786.796438
 21
450.0
 31
0.0
  0
LINE
  5
122
330
11D
100
AcDbEntity
  8
LC-005-003-----0
 62
     2
370
    -2
100
AcDbLine
 10
1811.681294
 20
450.0
 30
0.0
 11
1831.681294
 21
450.0
 31
0.0
  0
SOLID
  5
123
330
11D
100
AcDbEntity
  8
LC-005-003-----0
 62
     2
100
AcDbTrace
 10
1799.181294
 20
447.916667
 30
0.0
 11
1799.181294
 21
452.083333
 31
0.0
 12
1811.681294
 22
450.0
 32
0.0
 13
1811.681294
 23
450.0
 33
0.0
  0
SOLID
  5
124
330
11D
100
AcDbEntity
  8
LC-005-003-----0
 62
     2
100
AcDbTrace
 10
1844.181294
 20
452.083333
 30
0.0
 11
1844.181294
 21
447.916667
 31
0.0
 12
1831.681294
 22
450.0
 32
0.0
 13
1831.681294
 23
450.0
 33
0.0
  0
MTEXT
  5
125
330
11D
100
AcDbEntity
  8
LC-005-003-----0
 62
     2
100
AcDbMText
 10
1803.808938
 20
465.0
 30
0.0
 40
12.5
 41
0.0
 71
     5
 72
     1
  1
\A1;20
  7
LCTX0-400-0-0pDIN-Schrift
 73
     1
 44
1.0
1001
ACAD
1000
MTEXTBEGIN
1070
    73
1070
     1
1070
    44
1040
1.0
1070
    74
1070
     0
1000
MTEXTEND
  0
POINT
  5
126
330
11D
100
AcDbEntity
  8
Defpoints
 62
     0
100
AcDbPoint
 10
1811.681294
 20
549.400747
 30
0.0
  0
POINT
  5
127
330
11D
100
AcDbEntity
  8
Defpoints
 62
     0
100
AcDbPoint
 10
1831.681294
 20
549.400747
 30
0.0
  0
POINT
  5
128
330
11D
100
AcDbEntity
  8
Defpoints
 62
     0
100
AcDbPoint
 10
1831.681294
 20
450.0
 30
0.0
  0
ENDBLK
  5
12A
330
11D
100
AcDbEntity
  8
0
100
AcDbBlockEnd
  0
BLOCK
  5
136
330
12C
100
AcDbEntity
  8
0
100
AcDbBlockBegin
  2
*D9
 70
     1
 10
0.0
 20
0.0
 30
0.0
  3
*D9
  1

  0
LINE
  5
12D
330
12C
100
AcDbEntity
  8
LC-005-003-----0
 62
     2
370
    -2
100
AcDbLine
 10
1791.681294
 20
934.650747
 30
0.0
 11
1616.0
 21
934.650747
 31
0.0
  0
LINE
  5
12E
330
12C
100
AcDbEntity
  8
LC-005-003-----0
 62
     2
370
    -2
100
AcDbLine
 10
1791.681294
 20
569.400747
 30
0.0
 11
1616.0
 21
569.400747
 31
0.0
  0
LINE
  5
12F
330
12C
100
AcDbEntity
  8
LC-005-003-----0
 62
     2
370
    -2
100
AcDbLine
 10
1625.0
 20
922.150747
 30
0.0
 11
1625.0
 21
581.900747
 31
0.0
  0
SOLID
  5
130
330
12C
100
AcDbEntity
  8
LC-005-003-----0
 62
     2
100
AcDbTrace
 10
1627.083333
 20
922.150747
 30
0.0
 11
1622.916667
 21
922.150747
 31
0.0
 12
1625.0
 22
934.650747
 32
0.0
 13
1625.0
 23
934.650747
 33
0.0
  0
SOLID
  5
131
330
12C
100
AcDbEntity
  8
LC-005-003-----0
 62
     2
100
AcDbTrace
 10
1622.916667
 20
581.900747
 30
0.0
 11
1627.083333
 21
581.900747
 31
0.0
 12
1625.0
 22
569.400747
 32
0.0
 13
1625.0
 23
569.400747
 33
0.0
  0
MTEXT
  5
132
330
12C
100
AcDbEntity
  8
LC-005-003-----0
 62
     2
100
AcDbMText
 10
1610.0
 20
752.025747
 30
0.0
 40
12.5
 41
0.0
 71
     5
 72
     1
  1
\A1;365,25
  7
LCTX0-400-0-0pDIN-Schrift
 11
0.0000000000000001
 21
1.0
 31
0.0
 73
     1
 44
1.0
1001
ACAD
1000
MTEXTBEGIN
1070
    73
1070
     1
1070
    44
1040
1.0
1070
    74
1070
     0
1000
MTEXTEND
  0
POINT
  5
133
330
12C
100
AcDbEntity
  8
Defpoints
 62
     0
100
AcDbPoint
 10
1791.681294
 20
934.650747
 30
0.0
  0
POINT
  5
134
330
12C
100
AcDbEntity
  8
Defpoints
 62
     0
100
AcDbPoint
 10
1791.681294
 20
569.400747
 30
0.0
  0
POINT
  5
135
330
12C
100
AcDbEntity
  8
Defpoints
 62
     0
100
AcDbPoint
 10
1625.0
 20
569.400747
 30
0.0
  0
ENDBLK
  5
137
330
12C
100
AcDbEntity
  8
0
100
AcDbBlockEnd
  0
BLOCK
  5
143
330
139
100
AcDbEntity
  8
0
100
AcDbBlockBegin
  2
*D10
 70
     1
 10
0.0
 20
0.0
 30
0.0
  3
*D10
  1

  0
LINE
  5
13A
330
139
100
AcDbEntity
  8
LC-005-003-----0
 62
     2
370
    -2
100
AcDbLine
 10
1791.681294
 20
914.6507470000001
 30
0.0
 11
1691.0
 21
914.6507470000001
 31
0.0
  0
LINE
  5
13B
330
139
100
AcDbEntity
  8
LC-005-003-----0
 62
     2
370
    -2
100
AcDbLine
 10
1791.681294
 20
589.400747
 30
0.0
 11
1691.0
 21
589.400747
 31
0.0
  0
LINE
  5
13C
330
139
100
AcDbEntity
  8
LC-005-003-----0
 62
     2
370
    -2
100
AcDbLine
 10
1700.0
 20
902.1507470000001
 30
0.0
 11
1700.0
 21
601.900747
 31
0.0
  0
SOLID
  5
13D
330
139
100
AcDbEntity
  8
LC-005-003-----0
 62
     2
100
AcDbTrace
 10
1702.083333
 20
902.1507470000001
 30
0.0
 11
1697.916667
 21
902.1507470000001
 31
0.0
 12
1700.0
 22
914.6507470000001
 32
0.0
 13
1700.0
 23
914.6507470000001
 33
0.0
  0
SOLID
  5
13E
330
139
100
AcDbEntity
  8
LC-005-003-----0
 62
     2
100
AcDbTrace
 10
1697.916667
 20
601.900747
 30
0.0
 11
1702.083333
 21
601.900747
 31
0.0
 12
1700.0
 22
589.400747
 32
0.0
 13
1700.0
 23
589.400747
 33
0.0
  0
MTEXT
  5
13F
330
139
100
AcDbEntity
  8
LC-005-003-----0
 62
     2
100
AcDbMText
 10
1685.0
 20
752.025747
 30
0.0
 40
12.5
 41
0.0
 71
     5
 72
     1
  1
\A1;325,25
  7
LCTX0-400-0-0pDIN-Schrift
 11
0.0000000000000001
 21
1.0
 31
0.0
 73
     1
 44
1.0
1001
ACAD
1000
MTEXTBEGIN
1070
    73
1070
     1
1070
    44
1040
1.0
1070
    74
1070
     0
1000
MTEXTEND
  0
POINT
  5
140
330
139
100
AcDbEntity
  8
Defpoints
 62
     0
100
AcDbPoint
 10
1791.681294
 20
914.6507470000001
 30
0.0
  0
POINT
  5
141
330
139
100
AcDbEntity
  8
Defpoints
 62
     0
100
AcDbPoint
 10
1791.681294
 20
589.400747
 30
0.0
  0
POINT
  5
142
330
139
100
AcDbEntity
  8
Defpoints
 62
     0
100
AcDbPoint
 10
1700.0
 20
589.400747
 30
0.0
  0
ENDBLK
  5
144
330
139
100
AcDbEntity
  8
0
100
AcDbBlockEnd
  0
BLOCK
  5
75D
330
753
100
AcDbEntity
  8
0
100
AcDbBlockBegin
  2
*D29
 70
     1
 10
0.0
 20
0.0
 30
0.0
  3
*D29
  1

  0
LINE
  5
754
330
753
100
AcDbEntity
  8
LC-005-003-----0
 62
     2
370
    -2
100
AcDbLine
 10
1831.681294
 20
549.400747
 30
0.0
 11
1831.681294
 21
441.0
 31
0.0
  0
LINE
  5
755
330
753
100
AcDbEntity
  8
LC-005-003-----0
 62
     2
370
    -2
100
AcDbLine
 10
1932.306294
 20
549.400747
 30
0.0
 11
1932.306294
 21
441.0
 31
0.0
  0
LINE
  5
756
330
753
100
AcDbEntity
  8
LC-005-003-----0
 62
     2
370
    -2
100
AcDbLine
 10
1844.181294
 20
450.0
 30
0.0
 11
1919.806294
 21
450.0
 31
0.0
  0
SOLID
  5
757
330
753
100
AcDbEntity
  8
LC-005-003-----0
 62
     2
100
AcDbTrace
 10
1844.181294
 20
452.083333
 30
0.0
 11
1844.181294
 21
447.916667
 31
0.0
 12
1831.681294
 22
450.0
 32
0.0
 13
1831.681294
 23
450.0
 33
0.0
  0
SOLID
  5
758
330
753
100
AcDbEntity
  8
LC-005-003-----0
 62
     2
100
AcDbTrace
 10
1919.806294
 20
447.916667
 30
0.0
 11
1919.806294
 21
452.083333
 31
0.0
 12
1932.306294
 22
450.0
 32
0.0
 13
1932.306294
 23
450.0
 33
0.0
  0
MTEXT
  5
759
330
753
100
AcDbEntity
  8
LC-005-003-----0
 62
     2
100
AcDbMText
 10
1881.993794
 20
465.0
 30
0.0
 40
12.5
 41
0.0
 71
     5
 72
     1
  1
\A1;100,6
  7
LCTX0-400-0-0pDIN-Schrift
 73
     1
 44
1.0
1001
ACAD
1000
MTEXTBEGIN
1070
    73
1070
     1
1070
    44
1040
1.0
1070
    74
1070
     0
1000
MTEXTEND
  0
POINT
  5
75A
330
753
100
AcDbEntity
  8
Defpoints
 62
     0
100
AcDbPoint
 10
1831.681294
 20
549.400747
 30
0.0
  0
POINT
  5
75B
330
753
100
AcDbEntity
  8
Defpoints
 62
     0
100
AcDbPoint
 10
1932.306294
 20
549.400747
 30
0.0
  0
POINT
  5
75C
330
753
100
AcDbEntity
  8
Defpoints
 62
     0
100
AcDbPoint
 10
1932.306294
 20
450.0
 30
0.0
  0
ENDBLK
  5
75E
330
753
100
AcDbEntity
  8
0
100
AcDbBlockEnd
  0
BLOCK
  5
767
330
761
100
AcDbEntity
  8
0
100
AcDbBlockBegin
  2
*D30
 70
     1
 10
0.0
 20
0.0
 30
0.0
  3
*D30
  1

  0
LINE
  5
762
330
761
100
AcDbEntity
  8
LC-005-003-----0
 62
     2
370
    -2
100
AcDbLine
 10
2167.40973
 20
929.781582
 30
0.0
 11
2171.335585
 21
934.3067019999999
 31
0.0
  0
MTEXT
  5
763
330
761
100
AcDbEntity
  8
LC-005-003-----0
 62
     2
100
AcDbMText
 10
2192.146813
 20
939.117365
 30
0.0
 40
12.5
 41
0.0
 71
     5
 72
     1
  1
\A1;R40
  7
LCTX0-400-0-0pDIN-Schrift
 11
0.6553198266462017
 21
0.7553515239968691
 31
0.0
 73
     1
 44
1.0
1001
ACAD
1000
MTEXTBEGIN
1070
    73
1070
     1
1070
    44
1040
1.0
1070
    74
1070
     0
1000
MTEXTEND
  0
SOLID
  5
764
330
761
100
AcDbEntity
  8
LC-005-003-----0
 62
     2
100
AcDbTrace
 10
2156.526239000001
 20
914.057664
 30
0.0
 11
2153.378941
 21
916.788163
 31
0.0
 12
2163.144087
 22
924.864808
 32
0.0
 13
2163.144087
 23
924.864808
 33
0.0
  0
POINT
  5
765
330
761
100
AcDbEntity
  8
Defpoints
 62
     0
100
AcDbPoint
 10
2163.144087
 20
924.864808
 30
0.0
  0
POINT
  5
766
330
761
100
AcDbEntity
  8
Defpoints
 62
     0
100
AcDbPoint
 10
2136.931294
 20
894.650747
 30
0.0
  0
ENDBLK
  5
768
330
761
100
AcDbEntity
  8
0
100
AcDbBlockEnd
  0
BLOCK
  5
770
330
76A
100
AcDbEntity
  8
0
100
AcDbBlockBegin
  2
*D31
 70
     1
 10
0.0
 20
0.0
 30
0.0
  3
*D31
  1

  0
LINE
  5
76B
330
76A
100
AcDbEntity
  8
LC-005-003-----0
 62
     2
370
    -2
100
AcDbLine
 10
2148.245195
 20
906.108753
 30
0.0
 11
2142.200929
 21
899.987501
 31
0.0
  0
MTEXT
  5
76C
330
76A
100
AcDbEntity
  8
LC-005-003-----0
 62
     2
100
AcDbMText
 10
2123.526275
 20
897.8248670000001
 30
0.0
 40
12.5
 41
0.0
 71
     5
 72
     1
  1
\A1;R20
  7
LCTX0-400-0-0pDIN-Schrift
 11
0.7026179857936495
 21
0.7115672603761889
 31
0.0
 73
     1
 44
1.0
1001
ACAD
1000
MTEXTBEGIN
1070
    73
1070
     1
1070
    44
1040
1.0
1070
    74
1070
     0
1000
MTEXTEND
  0
SOLID
  5
76D
330
76A
100
AcDbEntity
  8
LC-005-003-----0
 62
     2
100
AcDbTrace
 10
2158.283947
 20
919.2404699999999
 30
0.0
 11
2161.248811
 21
916.3128949999999
 31
0.0
 12
2150.983654
 22
908.8820919999999
 32
0.0
 13
2150.983654
 23
908.8820919999999
 33
0.0
  0
POINT
  5
76E
330
76A
100
AcDbEntity
  8
Defpoints
 62
     0
100
AcDbPoint
 10
2150.983654
 20
908.8820919999999
 30
0.0
  0
POINT
  5
76F
330
76A
100
AcDbEntity
  8
Defpoints
 62
     0
100
AcDbPoint
 10
2136.931294
 20
894.650747
 30
0.0
  0
ENDBLK
  5
771
330
76A
100
AcDbEntity
  8
0
100
AcDbBlockEnd
  0
ENDSEC
  0
SECTION
  2
ENTITIES
  0
LINE
  5
38
330
1F
100
AcDbEntity
  8
LC-002-006-MLN-0
 62
     7
370
    25
100
AcDbLine
 10
1871.056294
 20
814.0257469999999
 30
0.0
 11
1993.556294
 21
814.0257469999999
 31
0.0
  0
LINE
  5
39
330
1F
100
AcDbEntity
  8
LC-002-006-MLN-0
 62
     7
370
    25
100
AcDbLine
 10
1932.306294
 20
875.275747
 30
0.0
 11
1932.306294
 21
752.775747
 31
0.0
  0
CIRCLE
  5
3A
330
1F
100
AcDbEntity
  8
LC-001-002-----0
 62
     7
370
    50
100
AcDbCircle
 10
1932.306294
 20
814.0257469999999
 30
0.0
 40
45.13641272593122
  0
CIRCLE
  5
3B
330
1F
100
AcDbEntity
  8
LC-001-002-----0
 62
     7
370
    50
100
AcDbCircle
 10
1932.306294
 20
814.0257469999999
 30
0.0
 40
58.250000000025
  0
LINE
  5
3C
330
1F
100
AcDbEntity
  8
LC-001-002-----0
 62
     7
370
    50
100
AcDbLine
 10
1831.681294
 20
894.650747
 30
0.0
 11
1831.681294
 21
609.400747
 31
0.0
  0
LINE
  5
3D
330
1F
100
AcDbEntity
  8
LC-001-002-----0
 62
     7
370
    50
100
AcDbLine
 10
2156.931294
 20
894.650747
 30
0.0
 11
2156.931294
 21
609.400747
 31
0.0
  0
LINE
  5
3E
330
1F
100
AcDbEntity
  8
LC-001-002-----0
 62
     7
370
    50
100
AcDbLine
 10
1811.681294
 20
609.400747
 30
0.0
 11
1811.681294
 21
894.650747
 31
0.0
  0
LINE
  5
3F
330
1F
100
AcDbEntity
  8
LC-001-002-----0
 62
     7
370
    50
100
AcDbLine
 10
2176.931294
 20
609.400747
 30
0.0
 11
2176.931294
 21
894.650747
 31
0.0
  0
LINE
  5
40
330
1F
100
AcDbEntity
  8
LC-001-002-----0
 62
     7
370
    50
100
AcDbLine
 10
1851.681294
 20
589.400747
 30
0.0
 11
2136.931294
 21
589.400747
 31
0.0
  0
LINE
  5
41
330
1F
100
AcDbEntity
  8
LC-001-002-----0
 62
     7
370
    50
100
AcDbLine
 10
2136.931294
 20
569.400747
 30
0.0
 11
1851.681294
 21
569.400747
 31
0.0
  0
LINE
  5
42
330
1F
100
AcDbEntity
  8
LC-001-002-----0
 62
     7
370
    50
100
AcDbLine
 10
1851.681294
 20
914.6507470000001
 30
0.0
 11
2136.931294
 21
914.6507470000001
 31
0.0
  0
LINE
  5
43
330
1F
100
AcDbEntity
  8
LC-001-002-----0
 62
     7
370
    50
100
AcDbLine
 10
2136.931294
 20
934.650747
 30
0.0
 11
1851.681294
 21
934.650747
 31
0.0
  0
ARC
  5
45
330
1F
100
AcDbEntity
  8
LC-003-002-RND-0
 62
     7
370
    50
100
AcDbCircle
 10
1851.681294
 20
894.650747
 30
0.0
 40
40.0
100
AcDbArc
 50
90.0
 51
180.0
  0
ARC
  5
46
330
1F
100
AcDbEntity
  8
LC-003-002-RND-0
 62
     7
370
    50
100
AcDbCircle
 10
1851.681294
 20
609.400747
 30
0.0
 40
40.0
100
AcDbArc
 50
180.0
 51
270.0
  0
ARC
  5
47
330
1F
100
AcDbEntity
  8
LC-003-002-RND-0
 62
     7
370
    50
100
AcDbCircle
 10
2136.931294
 20
609.400747
 30
0.0
 40
40.0
100
AcDbArc
 50
270.0
 51
0.0
  0
ARC
  5
48
330
1F
100
AcDbEntity
  8
LC-003-002-RND-0
 62
     7
370
    50
100
AcDbCircle
 10
2136.931294
 20
894.650747
 30
0.0
 40
40.0
100
AcDbArc
 50
0.0
 51
90.0
  0
ARC
  5
49
330
1F
100
AcDbEntity
  8
LC-003-002-RND-0
 62
     7
370
    50
100
AcDbCircle
 10
2136.931294
 20
894.650747
 30
0.0
 40
20.0
100
AcDbArc
 50
0.0
 51
90.0
  0
ARC
  5
4A
330
1F
100
AcDbEntity
  8
LC-003-002-RND-0
 62
     7
370
    50
100
AcDbCircle
 10
1851.681294
 20
894.650747
 30
0.0
 40
20.0
100
AcDbArc
 50
90.0
 51
180.0
  0
ARC
  5
4B
330
1F
100
AcDbEntity
  8
LC-003-002-RND-0
 62
     7
370
    50
100
AcDbCircle
 10
1851.681294
 20
609.400747
 30
0.0
 40
20.0
100
AcDbArc
 50
180.0
 51
270.0
  0
ARC
  5
4C
330
1F
100
AcDbEntity
  8
LC-003-002-RND-0
 62
     7
370
    50
100
AcDbCircle
 10
2136.931294
 20
609.400747
 30
0.0
 40
20.0
100
AcDbArc
 50
270.0
 51
0.0
  0
LINE
  5
4D
330
1F
100
AcDbEntity
  8
LC-001-002-----0
 62
     7
370
    50
100
AcDbLine
 10
2163.755758
 20
1380.891172
 30
0.0
 11
2149.688951
 21
1266.326224
 31
0.0
  0
LINE
  5
4E
330
1F
100
AcDbEntity
  8
LC-001-002-----0
 62
     7
370
    50
100
AcDbLine
 10
1824.856831
 20
1380.891172
 30
0.0
 11
1839.457592
 21
1261.977515
 31
0.0
  0
LINE
  5
4F
330
1F
100
AcDbEntity
  8
LC-001-002-----0
 62
     7
370
    50
100
AcDbLine
 10
2173.447955
 20
1386.159956
 30
0.0
 11
2169.711035
 21
1386.159956
 31
0.0
  0
LINE
  5
50
330
1F
100
AcDbEntity
  8
LC-001-002-----0
 62
     7
370
    50
100
AcDbLine
 10
1818.901554
 20
1386.159956
 30
0.0
 11
1815.164634
 21
1386.159956
 31
0.0
  0
LINE
  5
51
330
1F
100
AcDbEntity
  8
LC-001-002-----0
 62
     7
370
    50
100
AcDbLine
 10
2156.769563
 20
1397.84276
 30
0.0
 11
2140.756068
 21
1267.423311
 31
0.0
  0
LINE
  5
52
330
1F
100
AcDbEntity
  8
LC-001-002-----0
 62
     7
370
    50
100
AcDbLine
 10
1831.843026
 20
1397.84276
 30
0.0
 11
1848.390477
 21
1263.074581
 31
0.0
  0
LINE
  5
53
330
1F
100
AcDbEntity
  8
LC-001-002-----0
 62
     7
370
    50
100
AcDbLine
 10
2176.931294
 20
1399.159956
 30
0.0
 11
1811.681294
 21
1399.159956
 31
0.0
  0
ARC
  5
54
330
1F
100
AcDbEntity
  8
LC-001-002-----0
 62
     7
370
    50
100
AcDbCircle
 10
2001.127563
 20
1212.51875
 30
0.0
 40
6.000000000000439
100
AcDbArc
 50
92.0
 51
113.000009
  0
ARC
  5
55
330
1F
100
AcDbEntity
  8
LC-001-002-----0
 62
     7
370
    50
100
AcDbCircle
 10
2001.127563
 20
1212.51875
 30
0.0
 40
5.999999999999781
100
AcDbArc
 50
113.000009
 51
119.166415
  0
ARC
  5
56
330
1F
100
AcDbEntity
  8
LC-001-002-----0
 62
     7
370
    50
100
AcDbCircle
 10
2001.127563
 20
1212.51875
 30
0.0
 40
6.000000000000132
100
AcDbArc
 50
119.166415
 51
134.000023
  0
ARC
  5
57
330
1F
100
AcDbEntity
  8
LC-001-002-----0
 62
     7
370
    50
100
AcDbCircle
 10
2001.127563
 20
1212.51875
 30
0.0
 40
6.000000000000441
100
AcDbArc
 50
134.000023
 51
153.8833
  0
LINE
  5
58
330
1F
100
AcDbEntity
  8
LC-001-002-----0
 62
     7
370
    50
100
AcDbLine
 10
1864.38435
 20
1219.04694
 30
0.0
 11
1864.257597
 21
1219.086332
 31
0.0
  0
LINE
  5
59
330
1F
100
AcDbEntity
  8
LC-001-002-----0
 62
     7
370
    50
100
AcDbLine
 10
1871.979736
 20
1229.232471
 30
0.0
 11
1873.172107999999
 21
1229.190832
 31
0.0
  0
ARC
  5
5A
330
1F
100
AcDbEntity
  8
LC-001-002-----0
 62
     7
370
    50
100
AcDbCircle
 10
1873.137209
 20
1228.191441
 30
0.0
 40
1.000000000000254
100
AcDbArc
 50
5.0
 51
32.666667
  0
ARC
  5
5B
330
1F
100
AcDbEntity
  8
LC-001-002-----0
 62
     7
370
    50
100
AcDbCircle
 10
1873.137209
 20
1228.191441
 30
0.0
 40
1.000000000000045
100
AcDbArc
 50
32.666667
 51
88.0
  0
LINE
  5
5C
330
1F
100
AcDbEntity
  8
LC-001-002-----0
 62
     7
370
    50
100
AcDbLine
 10
1874.133403
 20
1228.278597
 30
0.0
 11
1874.164395
 21
1227.924363
 31
0.0
  0
ARC
  5
5D
330
1F
100
AcDbEntity
  8
LC-001-002-----0
 62
     7
370
    50
100
AcDbCircle
 10
1875.160589
 20
1228.011519
 30
0.0
 40
1.000000000000254
100
AcDbArc
 50
185.0
 51
210.0
  0
ARC
  5
5E
330
1F
100
AcDbEntity
  8
LC-001-002-----0
 62
     7
370
    50
100
AcDbCircle
 10
1875.160589
 20
1228.011519
 30
0.0
 40
1.000000000000082
100
AcDbArc
 50
210.0
 51
260.0
  0
LINE
  5
5F
330
1F
100
AcDbEntity
  8
LC-001-002-----0
 62
     7
370
    50
100
AcDbLine
 10
1874.986941
 20
1227.026711
 30
0.0
 11
1884.039286
 21
1225.430538
 31
0.0
  0
ARC
  5
60
330
1F
100
AcDbEntity
  8
LC-001-002-----0
 62
     7
370
    50
100
AcDbCircle
 10
1883.518341
 20
1222.476115
 30
0.0
 40
3.000000000000466
100
AcDbArc
 50
5.0
 51
80.0
  0
LINE
  5
61
330
1F
100
AcDbEntity
  8
LC-001-002-----0
 62
     7
370
    50
100
AcDbLine
 10
1886.506925
 20
1222.737582
 30
0.0
 11
1887.169882
 21
1215.159956
 31
0.0
  0
LINE
  5
62
330
1F
100
AcDbEntity
  8
LC-001-002-----0
 62
     7
370
    50
100
AcDbLine
 10
2117.166581
 20
1233.581284
 30
0.0
 11
1991.440481
 21
1229.190832
 31
0.0
  0
ARC
  5
63
330
1F
100
AcDbEntity
  8
LC-001-002-----0
 62
     7
370
    50
100
AcDbCircle
 10
2158.258382
 20
1397.659956
 30
0.0
 40
1.5
100
AcDbArc
 50
90.0
 51
173.0
  0
ARC
  5
64
330
1F
100
AcDbEntity
  8
LC-001-002-----0
 62
     7
370
    50
100
AcDbCircle
 10
2169.711035
 20
1380.159956
 30
0.0
 40
6.0
100
AcDbArc
 50
90.0
 51
173.0
  0
LINE
  5
65
330
1F
100
AcDbEntity
  8
LC-001-002-----0
 62
     7
370
    50
100
AcDbLine
 10
2000.918166
 20
1218.515095
 30
0.0
 11
2117.58332
 21
1222.589132
 31
0.0
  0
LINE
  5
66
330
1F
100
AcDbEntity
  8
LC-001-002-----0
 62
     7
370
    50
100
AcDbLine
 10
1868.636783
 20
1215.667981
 30
0.0
 11
1868.873679
 21
1215.159956
 31
0.0
  0
ARC
  5
67
330
1F
100
AcDbEntity
  8
LC-001-002-----0
 62
     7
370
    50
100
AcDbCircle
 10
1818.901554
 20
1380.159956
 30
0.0
 40
5.999999999999871
100
AcDbArc
 50
7.0
 51
90.0
  0
ARC
  5
68
330
1F
100
AcDbEntity
  8
LC-001-002-----0
 62
     7
370
    50
100
AcDbCircle
 10
1830.354206
 20
1397.659956
 30
0.0
 40
1.500000000000164
100
AcDbArc
 50
7.0
 51
90.0
  0
LINE
  5
69
330
1F
100
AcDbEntity
  8
LC-001-002-----0
 62
     7
370
    50
100
AcDbLine
 10
1978.105663
 20
1222.737582
 30
0.0
 11
1977.442706999999
 21
1215.159956
 31
0.0
  0
ARC
  5
6A
330
1F
100
AcDbEntity
  8
LC-001-002-----0
 62
     7
370
    50
100
AcDbCircle
 10
1981.094248
 20
1222.476115
 30
0.0
 40
2.999999999999848
100
AcDbArc
 50
100.0
 51
175.0
  0
LINE
  5
6B
330
1F
100
AcDbEntity
  8
LC-001-002-----0
 62
     7
370
    50
100
AcDbLine
 10
1989.625647
 20
1227.026711
 30
0.0
 11
1980.573303
 21
1225.430538
 31
0.0
  0
ARC
  5
6C
330
1F
100
AcDbEntity
  8
LC-001-002-----0
 62
     7
370
    50
100
AcDbCircle
 10
1989.451999
 20
1228.011519
 30
0.0
 40
1.000000000000125
100
AcDbArc
 50
280.0
 51
355.0
  0
LINE
  5
6D
330
1F
100
AcDbEntity
  8
LC-001-002-----0
 62
     7
370
    50
100
AcDbLine
 10
1990.479185
 20
1228.278597
 30
0.0
 11
1990.448194
 21
1227.924363
 31
0.0
  0
ARC
  5
6E
330
1F
100
AcDbEntity
  8
LC-001-002-----0
 62
     7
370
    50
100
AcDbCircle
 10
1991.47538
 20
1228.191441
 30
0.0
 40
0.9999999999998488
100
AcDbArc
 50
92.0
 51
175.0
  0
LINE
  5
6F
330
1F
100
AcDbEntity
  8
LC-001-002-----0
 62
     7
370
    50
100
AcDbLine
 10
1811.681294
 20
1399.159956
 30
0.0
 11
1815.164634
 21
1386.159956
 31
0.0
  0
LINE
  5
70
330
1F
100
AcDbEntity
  8
LC-001-002-----0
 62
     7
370
    50
100
AcDbLine
 10
2176.931294
 20
1399.159956
 30
0.0
 11
2173.447955
 21
1386.159956
 31
0.0
  0
LINE
  5
71
330
1F
100
AcDbEntity
  8
LC-002-006-MLN-0
 62
     7
370
    25
100
AcDbLine
 10
1932.306294
 20
1212.159956
 30
0.0
 11
1932.306294
 21
1232.159956
 31
0.0
  0
LINE
  5
72
330
1F
100
AcDbEntity
  8
LC-001-002-----0
 62
     7
370
    50
100
AcDbLine
 10
1868.872422
 20
1215.159956
 30
0.0
 11
1995.740167
 21
1215.159956
 31
0.0
  0
LINE
  5
73
330
1F
100
AcDbEntity
  8
LC-001-002-----0
 62
     7
370
    25
100
AcDbLine
 10
1874.056294
 20
1229.159956
 30
0.0
 11
1990.556294
 21
1229.159956
 31
0.0
  0
LINE
  5
74
102
{ACAD_REACTORS
330
775
102
}
330
1F
100
AcDbEntity
  8
LC-001-002-----0
 62
     7
370
    50
100
AcDbLine
 10
1848.390477
 20
1263.074581
 30
0.0
 11
1849.317346
 21
1256.567094
 31
0.0
  0
LINE
  5
75
102
{ACAD_REACTORS
330
775
102
}
330
1F
100
AcDbEntity
  8
LC-001-002-----0
 62
     7
370
    50
100
AcDbLine
 10
1849.317346
 20
1256.567094
 30
0.0
 11
1850.426193
 21
1250.829092
 31
0.0
  0
LINE
  5
76
102
{ACAD_REACTORS
330
775
102
}
330
1F
100
AcDbEntity
  8
LC-001-002-----0
 62
     7
370
    50
100
AcDbLine
 10
1850.426193
 20
1250.829092
 30
0.0
 11
1851.773678
 21
1245.728912
 31
0.0
  0
LINE
  5
77
102
{ACAD_REACTORS
330
775
102
}
330
1F
100
AcDbEntity
  8
LC-001-002-----0
 62
     7
370
    50
100
AcDbLine
 10
1851.773678
 20
1245.728912
 30
0.0
 11
1853.513688
 21
1241.101319
 31
0.0
  0
LINE
  5
78
102
{ACAD_REACTORS
330
775
102
}
330
1F
100
AcDbEntity
  8
LC-001-002-----0
 62
     7
370
    50
100
AcDbLine
 10
1853.513688
 20
1241.101319
 30
0.0
 11
1855.775361
 21
1237.055007
 31
0.0
  0
LINE
  5
79
102
{ACAD_REACTORS
330
775
102
}
330
1F
100
AcDbEntity
  8
LC-001-002-----0
 62
     7
370
    50
100
AcDbLine
 10
1855.775361
 20
1237.055007
 30
0.0
 11
1858.700901
 21
1233.728344
 31
0.0
  0
LINE
  5
7A
102
{ACAD_REACTORS
330
775
102
}
330
1F
100
AcDbEntity
  8
LC-001-002-----0
 62
     7
370
    50
100
AcDbLine
 10
1858.700901
 20
1233.728344
 30
0.0
 11
1862.424813
 21
1231.284711
 31
0.0
  0
LINE
  5
7B
102
{ACAD_REACTORS
330
775
102
}
330
1F
100
AcDbEntity
  8
LC-001-002-----0
 62
     7
370
    50
100
AcDbLine
 10
1862.424813
 20
1231.284711
 30
0.0
 11
1866.935136
 21
1229.81131
 31
0.0
  0
LINE
  5
7C
102
{ACAD_REACTORS
330
775
102
}
330
1F
100
AcDbEntity
  8
LC-001-002-----0
 62
     7
370
    50
100
AcDbLine
 10
1866.935136
 20
1229.81131
 30
0.0
 11
1871.979736
 21
1229.232471
 31
0.0
  0
LINE
  5
7D
102
{ACAD_REACTORS
330
777
102
}
330
1F
100
AcDbEntity
  8
LC-001-002-----0
 62
     7
370
    50
100
AcDbLine
 10
1864.979575
 20
1218.861959
 30
0.0
 11
1858.558708
 21
1220.857399
 31
0.0
  0
LINE
  5
7E
102
{ACAD_REACTORS
330
777
102
}
330
1F
100
AcDbEntity
  8
LC-001-002-----0
 62
     7
370
    50
100
AcDbLine
 10
1858.558708
 20
1220.857399
 30
0.0
 11
1853.645645
 21
1223.833043
 31
0.0
  0
LINE
  5
7F
102
{ACAD_REACTORS
330
777
102
}
330
1F
100
AcDbEntity
  8
LC-001-002-----0
 62
     7
370
    50
100
AcDbLine
 10
1853.645645
 20
1223.833043
 30
0.0
 11
1849.664903
 21
1227.957951
 31
0.0
  0
LINE
  5
80
102
{ACAD_REACTORS
330
777
102
}
330
1F
100
AcDbEntity
  8
LC-001-002-----0
 62
     7
370
    50
100
AcDbLine
 10
1849.664903
 20
1227.957951
 30
0.0
 11
1846.522537
 21
1233.09819
 31
0.0
  0
LINE
  5
81
102
{ACAD_REACTORS
330
777
102
}
330
1F
100
AcDbEntity
  8
LC-001-002-----0
 62
     7
370
    50
100
AcDbLine
 10
1846.522537
 20
1233.09819
 30
0.0
 11
1844.09474
 21
1239.088506
 31
0.0
  0
LINE
  5
82
102
{ACAD_REACTORS
330
777
102
}
330
1F
100
AcDbEntity
  8
LC-001-002-----0
 62
     7
370
    50
100
AcDbLine
 10
1844.09474
 20
1239.088506
 30
0.0
 11
1842.227206
 21
1245.75696
 31
0.0
  0
LINE
  5
83
102
{ACAD_REACTORS
330
777
102
}
330
1F
100
AcDbEntity
  8
LC-001-002-----0
 62
     7
370
    50
100
AcDbLine
 10
1842.227206
 20
1245.75696
 30
0.0
 11
1840.70672
 21
1253.329447
 31
0.0
  0
LINE
  5
84
102
{ACAD_REACTORS
330
777
102
}
330
1F
100
AcDbEntity
  8
LC-001-002-----0
 62
     7
370
    50
100
AcDbLine
 10
1840.70672
 20
1253.329447
 30
0.0
 11
1839.457592
 21
1261.977515
 31
0.0
  0
LINE
  5
85
102
{ACAD_REACTORS
330
776
102
}
330
1F
100
AcDbEntity
  8
LC-001-002-----0
 62
     7
370
    50
100
AcDbLine
 10
2117.166581
 20
1233.581284
 30
0.0
 11
2122.224044
 21
1234.16276
 31
0.0
  0
LINE
  5
86
102
{ACAD_REACTORS
330
776
102
}
330
1F
100
AcDbEntity
  8
LC-001-002-----0
 62
     7
370
    50
100
AcDbLine
 10
2122.224044
 20
1234.16276
 30
0.0
 11
2126.747415
 21
1235.645671
 31
0.0
  0
LINE
  5
87
102
{ACAD_REACTORS
330
776
102
}
330
1F
100
AcDbEntity
  8
LC-001-002-----0
 62
     7
370
    50
100
AcDbLine
 10
2126.747415
 20
1235.645671
 30
0.0
 11
2130.474419
 21
1238.102574
 31
0.0
  0
LINE
  5
88
102
{ACAD_REACTORS
330
776
102
}
330
1F
100
AcDbEntity
  8
LC-001-002-----0
 62
     7
370
    50
100
AcDbLine
 10
2130.474419
 20
1238.102574
 30
0.0
 11
2133.394561
 21
1241.437666
 31
0.0
  0
LINE
  5
89
102
{ACAD_REACTORS
330
776
102
}
330
1F
100
AcDbEntity
  8
LC-001-002-----0
 62
     7
370
    50
100
AcDbLine
 10
2133.394561
 20
1241.437666
 30
0.0
 11
2135.649032
 21
1245.485786
 31
0.0
  0
LINE
  5
8A
102
{ACAD_REACTORS
330
776
102
}
330
1F
100
AcDbEntity
  8
LC-001-002-----0
 62
     7
370
    50
100
AcDbLine
 10
2135.649032
 20
1245.485786
 30
0.0
 11
2137.38297
 21
1250.110118
 31
0.0
  0
LINE
  5
8B
102
{ACAD_REACTORS
330
776
102
}
330
1F
100
AcDbEntity
  8
LC-001-002-----0
 62
     7
370
    50
100
AcDbLine
 10
2137.38297
 20
1250.110118
 30
0.0
 11
2138.726411
 21
1255.204811
 31
0.0
  0
LINE
  5
8C
102
{ACAD_REACTORS
330
776
102
}
330
1F
100
AcDbEntity
  8
LC-001-002-----0
 62
     7
370
    50
100
AcDbLine
 10
2138.726411
 20
1255.204811
 30
0.0
 11
2139.831766
 21
1260.931351
 31
0.0
  0
LINE
  5
8D
102
{ACAD_REACTORS
330
776
102
}
330
1F
100
AcDbEntity
  8
LC-001-002-----0
 62
     7
370
    50
100
AcDbLine
 10
2139.831766
 20
1260.931351
 30
0.0
 11
2140.756068
 21
1267.423311
 31
0.0
  0
LINE
  5
8E
102
{ACAD_REACTORS
330
778
102
}
330
1F
100
AcDbEntity
  8
LC-001-002-----0
 62
     7
370
    50
100
AcDbLine
 10
2149.688951
 20
1266.326224
 30
0.0
 11
2148.428133
 21
1257.609577
 31
0.0
  0
LINE
  5
8F
102
{ACAD_REACTORS
330
778
102
}
330
1F
100
AcDbEntity
  8
LC-001-002-----0
 62
     7
370
    50
100
AcDbLine
 10
2148.428133
 20
1257.609577
 30
0.0
 11
2146.890856
 21
1249.985495
 31
0.0
  0
LINE
  5
90
102
{ACAD_REACTORS
330
778
102
}
330
1F
100
AcDbEntity
  8
LC-001-002-----0
 62
     7
370
    50
100
AcDbLine
 10
2146.890856
 20
1249.985495
 30
0.0
 11
2144.996738
 21
1243.273011
 31
0.0
  0
LINE
  5
91
102
{ACAD_REACTORS
330
778
102
}
330
1F
100
AcDbEntity
  8
LC-001-002-----0
 62
     7
370
    50
100
AcDbLine
 10
2144.996738
 20
1243.273011
 30
0.0
 11
2142.527103
 21
1237.252068
 31
0.0
  0
LINE
  5
92
102
{ACAD_REACTORS
330
778
102
}
330
1F
100
AcDbEntity
  8
LC-001-002-----0
 62
     7
370
    50
100
AcDbLine
 10
2142.527103
 20
1237.252068
 30
0.0
 11
2139.322553
 21
1232.099787
 31
0.0
  0
LINE
  5
93
102
{ACAD_REACTORS
330
778
102
}
330
1F
100
AcDbEntity
  8
LC-001-002-----0
 62
     7
370
    50
100
AcDbLine
 10
2139.322553
 20
1232.099787
 30
0.0
 11
2135.251897
 21
1227.984378
 31
0.0
  0
LINE
  5
94
102
{ACAD_REACTORS
330
778
102
}
330
1F
100
AcDbEntity
  8
LC-001-002-----0
 62
     7
370
    50
100
AcDbLine
 10
2135.251897
 20
1227.984378
 30
0.0
 11
2130.212928
 21
1225.044885
 31
0.0
  0
LINE
  5
95
102
{ACAD_REACTORS
330
778
102
}
330
1F
100
AcDbEntity
  8
LC-001-002-----0
 62
     7
370
    50
100
AcDbLine
 10
2130.212928
 20
1225.044885
 30
0.0
 11
2124.237435
 21
1223.292839
 31
0.0
  0
LINE
  5
96
102
{ACAD_REACTORS
330
778
102
}
330
1F
100
AcDbEntity
  8
LC-001-002-----0
 62
     7
370
    50
100
AcDbLine
 10
2124.237435
 20
1223.292839
 30
0.0
 11
2117.58332
 21
1222.589132
 31
0.0
  0
INSERT
  5
B0
330
1F
100
AcDbEntity
  8
LC-004-005-----0
 62
     7
370
    25
100
AcDbBlockReference
  2
*X1
 10
0.0
 20
0.0
 30
0.0
  0
ARC
  5
B1
102
{ACAD_REACTORS
330
777
102
}
330
1F
100
AcDbEntity
  8
LC-003-002-RND-0
 62
     7
370
    50
100
AcDbCircle
 10
1863.198936
 20
1213.132271
 30
0.0
 40
6.000000000000003
100
AcDbArc
 50
25.0
 51
72.736102
  0
INSERT
  5
C7
330
1F
100
AcDbEntity
  8
LC-004-005-----0
 62
     7
370
    25
100
AcDbBlockReference
  2
*X2
 10
0.0
 20
0.0
 30
0.0
  0
LINE
  5
C9
330
1F
100
AcDbEntity
  8
LC-005-003-----0
 62
     7
370
    25
100
AcDbLine
 10
2176.931294
 20
1399.159956
 30
0.0
 11
2176.931294
 21
1285.432886
 31
0.0
  0
INSERT
  5
E3
330
1F
100
AcDbEntity
  8
LC-005-003-----0
 62
     7
370
    25
100
AcDbBlockReference
  2
LCDIM1
 10
0.0
 20
0.0
 30
0.0
  0
LINE
  5
E4
330
1F
100
AcDbEntity
  8
LC-005-003-----0
 62
     7
370
    25
100
AcDbLine
 10
2173.447954
 20
1386.159952
 30
0.0
 11
2147.808552
 21
1290.4724
 31
0.0
  0
DIMENSION
  5
E6
330
1F
100
AcDbEntity
  8
LC-005-003-----0
 62
     7
370
    25
100
AcDbDimension
  2
*D4
 10
1700.0
 20
1229.159956
 30
0.0
 11
1685.0
 21
1314.159956
 31
0.0
 70
   160
 71
     5
 42
170.0
 53
90.0
  3
LC-DIM-L-0025-02-02
100
AcDbAlignedDimension
 13
1791.681294
 23
1399.159956
 33
0.0
 14
1791.681294
 24
1229.159956
 34
0.0
 50
90.0
100
AcDbRotatedDimension
  0
DIMENSION
  5
F4
330
1F
100
AcDbEntity
  8
LC-005-003-----0
 62
     7
370
    25
100
AcDbDimension
  2
*D5
 10
1625.0
 20
1215.159956
 30
0.0
 11
1610.0
 21
1307.159956
 31
0.0
 70
   160
 71
     5
 42
184.0
 53
90.0
  3
LC-DIM-L-0025-02-02
100
AcDbAlignedDimension
 13
1791.681294
 23
1399.159956
 33
0.0
 14
1791.681294
 24
1215.159956
 34
0.0
 50
90.0
100
AcDbRotatedDimension
  0
DIMENSION
  5
102
330
1F
100
AcDbEntity
  8
LC-005-003-----0
 62
     7
370
    25
100
AcDbDimension
  2
*D6
 10
2176.931294
 20
325.0
 30
0.0
 11
1994.306294
 21
340.0
 31
0.0
 70
   160
 71
     5
 42
365.25
  3
LC-DIM-L-0025-03-02
100
AcDbAlignedDimension
 13
1811.681294
 23
549.400747
 33
0.0
 14
2176.931294
 24
549.400747
 34
0.0
100
AcDbRotatedDimension
  0
DIMENSION
  5
10F
330
1F
100
AcDbEntity
  8
LC-005-003-----0
 62
     7
370
    25
100
AcDbDimension
  2
*D7
 10
2156.931294
 20
400.0
 30
0.0
 11
1994.306294
 21
415.0
 31
0.0
 70
   160
 71
     5
 42
325.25
  3
LC-DIM-L-0025-03-02
100
AcDbAlignedDimension
 13
1831.681294
 23
549.400747
 33
0.0
 14
2156.931294
 24
549.400747
 34
0.0
100
AcDbRotatedDimension
  0
DIMENSION
  5
11C
330
1F
100
AcDbEntity
  8
LC-005-003-----0
 62
     7
370
    25
100
AcDbDimension
  2
*D8
 10
1831.681294
 20
450.0
 30
0.0
 11
1803.808938
 21
465.0
 31
0.0
 70
   160
 71
     5
 42
20.0
  3
LC-DIM-L-0025-03-02
100
AcDbAlignedDimension
 13
1811.681294
 23
549.400747
 33
0.0
 14
1831.681294
 24
549.400747
 34
0.0
100
AcDbRotatedDimension
  0
DIMENSION
  5
12B
330
1F
100
AcDbEntity
  8
LC-005-003-----0
 62
     7
370
    25
100
AcDbDimension
  2
*D9
 10
1625.0
 20
569.400747
 30
0.0
 11
1610.0
 21
752.025747
 31
0.0
 70
   160
 71
     5
 42
365.25
 53
90.0
  3
LC-DIM-L-0025-03-02
100
AcDbAlignedDimension
 13
1791.681294
 23
934.650747
 33
0.0
 14
1791.681294
 24
569.400747
 34
0.0
 50
90.0
100
AcDbRotatedDimension
  0
DIMENSION
  5
138
330
1F
100
AcDbEntity
  8
LC-005-003-----0
 62
     7
370
    25
100
AcDbDimension
  2
*D10
 10
1700.0
 20
589.400747
 30
0.0
 11
1685.0
 21
752.025747
 31
0.0
 70
   160
 71
     5
 42
325.25
 53
90.0
  3
LC-DIM-L-0025-03-02
100
AcDbAlignedDimension
 13
1791.681294
 23
914.6507470000001
 33
0.0
 14
1791.681294
 24
589.400747
 34
0.0
 50
90.0
100
AcDbRotatedDimension
  0
DIMENSION
  5
752
330
1F
100
AcDbEntity
  8
LC-005-003-----0
 62
     7
370
    25
100
AcDbDimension
  2
*D29
 10
1932.306294
 20
450.0
 30
0.0
 11
1881.993794
 21
465.0
 31
0.0
 70
   160
 71
     5
 42
100.625
  3
LC-DIM-L-0025-01-02
100
AcDbAlignedDimension
 13
1831.681294
 23
549.400747
 33
0.0
 14
1932.306294
 24
549.400747
 34
0.0
100
AcDbRotatedDimension
  0
DIMENSION
  5
760
330
1F
100
AcDbEntity
  8
LC-005-003-----0
 62
     7
370
    25
100
AcDbDimension
  2
*D30
 10
2136.931294
 20
894.650747
 30
0.0
 11
2192.146813
 21
939.117365
 31
0.0
 70
   164
 71
     5
 42
40.0
  3
LC-DIM-R-0025-03-02
100
AcDbRadialDimension
 15
2163.144087
 25
924.864808
 35
0.0
 40
1.0
  0
DIMENSION
  5
769
330
1F
100
AcDbEntity
  8
LC-005-003-----0
 62
     7
370
    25
100
AcDbDimension
  2
*D31
 10
2136.931294
 20
894.650747
 30
0.0
 11
2123.526275
 21
897.8248670000001
 31
0.0
 70
   164
 71
     5
 42
20.0
  3
LC-DIM-R-0025-03-02
100
AcDbRadialDimension
 15
2150.983654
 25
908.8820919999999
 35
0.0
 40
1.0
  0
ENDSEC
  0
SECTION
  2
OBJECTS
  0
DICTIONARY
  5
C
330
0
100
AcDbDictionary
281
     1
  3
ACAD_COLOR
350
783
  3
ACAD_GROUP
350
D
  3
ACAD_LAYOUT
350
1A
  3
ACAD_MATERIAL
350
782
  3
ACAD_MLINESTYLE
350
17
  3
ACAD_PLOTSETTINGS
350
19
  3
ACAD_PLOTSTYLENAME
350
E
  3
ACDBHEADERROUNDTRIPXREC
350
791
  3
AcDbVariableDictionary
350
78B
  3
DWGPROPS
350
790
  0
DICTIONARY
  5
783
102
{ACAD_REACTORS
330
C
102
}
330
C
100
AcDbDictionary
281
     1
  0
DICTIONARY
  5
D
102
{ACAD_REACTORS
330
C
102
}
330
C
100
AcDbDictionary
281
     1
  3
LCGROUP8504
350
775
  3
LCGROUP8514
350
777
  3
LCGROUP8523
350
776
  3
LCGROUP8533
350
778
  3
LCGROUP8585
350
779
  3
LCGROUP8598
350
77A
  3
LCGROUP8608
350
77B
  3
LCGROUP8629
350
77C
  3
LCGROUP8701
350
77D
  3
LCGROUP8714
350
772
  3
LCGROUP8724
350
773
  3
LCGROUP8744
350
774
  0
DICTIONARY
  5
1A
102
{ACAD_REACTORS
330
C
102
}
330
C
100
AcDbDictionary
281
     1
  3
Layout1
350
1E
  3
Layout2
350
26
  3
Model
350
22
  0
DICTIONARY
  5
782
102
{ACAD_REACTORS
330
C
102
}
330
C
100
AcDbDictionary
281
     1
  0
DICTIONARY
  5
17
102
{ACAD_REACTORS
330
C
102
}
330
C
100
AcDbDictionary
281
     1
  3
Standard
350
18
  0
DICTIONARY
  5
19
102
{ACAD_REACTORS
330
C
102
}
330
C
100
AcDbDictionary
281
     1
  0
ACDBDICTIONARYWDFLT
  5
E
102
{ACAD_REACTORS
330
C
102
}
330
C
100
AcDbDictionary
281
     1
  3
Normal
350
F
100
AcDbDictionaryWithDefault
340
F
  0
DICTIONARY
  5
791
102
{ACAD_REACTORS
330
C
102
}
330
C
100
AcDbDictionary
281
     1
  3
COLORDICT
350
793
  3
MATERIALDICT
350
792
  0
DICTIONARY
  5
78B
102
{ACAD_REACTORS
330
C
102
}
330
C
100
AcDbDictionary
281
     1
  3
DIMASSOC
350
78D
  3
HIDETEXT
350
78C
  3
PROJECTNAME
350
78E
  0
XRECORD
  5
790
102
{ACAD_REACTORS
330
C
102
}
330
C
100
AcDbXrecord
280
     1
  1
DWGPROPS COOKIE
  2

  3

  4

  6

  7

  8

  9

300
=
301
=
302
=
303
=
304
=
305
=
306
=
307
=
308
=
309
=
 40
0.000208900462963
 41
2455509.579262871
 42
2455898.44714772
  1

 90
        0
  0
GROUP
  5
775
102
{ACAD_REACTORS
330
D
102
}
330
D
100
AcDbGroup
300
GRP8504
 70
     1
 71
     1
340
74
340
75
340
76
340
77
340
78
340
79
340
7A
340
7B
340
7C
  0
GROUP
  5
777
102
{ACAD_REACTORS
330
D
102
}
330
D
100
AcDbGroup
300
GRP8514
 70
     1
 71
     1
340
7D
340
7E
340
7F
340
80
340
81
340
82
340
83
340
84
340
B1
  0
GROUP
  5
776
102
{ACAD_REACTORS
330
D
102
}
330
D
100
AcDbGroup
300
GRP8523
 70
     1
 71
     1
340
85
340
86
340
87
340
88
340
89
340
8A
340
8B
340
8C
340
8D
  0
GROUP
  5
778
102
{ACAD_REACTORS
330
D
102
}
330
D
100
AcDbGroup
300
GRP8533
 70
     1
 71
     1
340
8E
340
8F
340
90
340
91
340
92
340
93
340
94
340
95
340
96
  0
GROUP
  5
779
102
{ACAD_REACTORS
330
D
102
}
330
D
100
AcDbGroup
300
GRP8585
 70
     1
 71
     1
  0
GROUP
  5
77A
102
{ACAD_REACTORS
330
D
102
}
330
D
100
AcDbGroup
300
S:\PKT-WS
 70
     1
 71
     1
  0
GROUP
  5
77B
102
{ACAD_REACTORS
330
D
102
}
330
D
100
AcDbGroup
300
GRP8608
 70
     1
 71
     1
  0
GROUP
  5
77C
102
{ACAD_REACTORS
330
D
102
}
330
D
100
AcDbGroup
300
GRP8629
 70
     1
 71
     1
  0
GROUP
  5
77D
102
{ACAD_REACTORS
330
D
102
}
330
D
100
AcDbGroup
300
GRP8701
 70
     1
 71
     1
  0
GROUP
  5
772
102
{ACAD_REACTORS
330
D
102
}
330
D
100
AcDbGroup
300
S:\PKT-WS
 70
     1
 71
     1
  0
GROUP
  5
773
102
{ACAD_REACTORS
330
D
102
}
330
D
100
AcDbGroup
300
GRP8724
 70
     1
 71
     1
  0
GROUP
  5
774
102
{ACAD_REACTORS
330
D
102
}
330
D
100
AcDbGroup
300
GRP8744
 70
     1
 71
     1
  0
LAYOUT
  5
1E
102
{ACAD_XDICTIONARY
360
794
102
}
102
{ACAD_REACTORS
330
1A
102
}
330
1A
100
AcDbPlotSettings
  1

  2

  4

  6

 40
0.0
 41
0.0
 42
0.0
 43
0.0
 44
0.0
 45
0.0
 46
0.0
 47
0.0
 48
0.0
 49
0.0
140
0.0
141
0.0
142
1.0
143
1.0
 70
   688
 72
     0
 73
     0
 74
     5
  7

 75
    16
147
1.0
148
0.0
149
0.0
100
AcDbLayout
  1
Layout1
 70
     1
 71
     1
 10
-435.0
 20
-307.5
 11
2535.0
 21
1792.5
 12
0.0
 22
0.0
 32
0.0
 14
-435.0
 24
-307.5
 34
0.0
 15
2535.0
 25
1792.5
 35
0.0
146
0.0
 13
0.0
 23
0.0
 33
0.0
 16
1.0
 26
0.0
 36
0.0
 17
0.0
 27
1.0
 37
0.0
 76
     0
330
1B
  0
LAYOUT
  5
26
102
{ACAD_XDICTIONARY
360
798
102
}
102
{ACAD_REACTORS
330
1A
102
}
330
1A
100
AcDbPlotSettings
  1

  2

  4

  6

 40
0.0
 41
0.0
 42
0.0
 43
0.0
 44
0.0
 45
0.0
 46
0.0
 47
0.0
 48
0.0
 49
0.0
140
0.0
141
0.0
142
1.0
143
1.0
 70
   688
 72
     0
 73
     0
 74
     5
  7

 75
    16
147
1.0
148
0.0
149
0.0
100
AcDbLayout
  1
Layout2
 70
     1
 71
     2
 10
0.0
 20
0.0
 11
0.0
 21
0.0
 12
0.0
 22
0.0
 32
0.0
 14
0.0
 24
0.0
 34
0.0
 15
0.0
 25
0.0
 35
0.0
146
0.0
 13
0.0
 23
0.0
 33
0.0
 16
1.0
 26
0.0
 36
0.0
 17
0.0
 27
1.0
 37
0.0
 76
     0
330
23
  0
LAYOUT
  5
22
102
{ACAD_XDICTIONARY
360
796
102
}
102
{ACAD_REACTORS
330
1A
102
}
330
1A
100
AcDbPlotSettings
  1

  2

  4

  6

 40
0.0
 41
0.0
 42
0.0
 43
0.0
 44
0.0
 45
0.0
 46
0.0
 47
0.0
 48
0.0
 49
0.0
140
0.0
141
0.0
142
1.0
143
1.0
 70
  1776
 72
     0
 73
     0
 74
     0
  7

 75
     0
147
1.0
148
0.0
149
0.0
100
AcDbLayout
  1
Model
 70
     1
 71
     0
 10
-435.0
 20
-307.5
 11
2535.0
 21
1792.5
 12
1050.0
 22
1485.0
 32
0.0
 14
-435.0
 24
-307.5
 34
0.0
 15
2535.0
 25
1792.5
 35
0.0
146
0.0
 13
0.0
 23
0.0
 33
0.0
 16
1.0
 26
0.0
 36
0.0
 17
0.0
 27
1.0
 37
0.0
 76
     0
330
1F
  0
MLINESTYLE
  5
18
102
{ACAD_REACTORS
330
17
102
}
330
17
100
AcDbMlineStyle
  2
STANDARD
 70
     0
  3

 62
   256
 51
90.0
 52
90.0
 71
     2
 49
0.5
 62
   256
  6
BYLAYER
 49
-0.5
 62
   256
  6
BYLAYER
  0
ACDBPLACEHOLDER
  5
F
102
{ACAD_REACTORS
330
E
102
}
330
E
  0
XRECORD
  5
793
102
{ACAD_REACTORS
330
791
102
}
330
791
100
AcDbXrecord
280
     1
340
783
  0
XRECORD
  5
792
102
{ACAD_REACTORS
330
791
102
}
330
791
100
AcDbXrecord
280
     1
340
782
  0
DICTIONARYVAR
  5
78D
102
{ACAD_REACTORS
330
78B
102
}
330
78B
100
DictionaryVariables
280
     0
  1
2
  0
DICTIONARYVAR
  5
78C
102
{ACAD_REACTORS
330
78B
102
}
330
78B
100
DictionaryVariables
280
     0
  1
1
  0
DICTIONARYVAR
  5
78E
102
{ACAD_REACTORS
330
78B
102
}
330
78B
100
DictionaryVariables
280
     0
  1

  0
DICTIONARY
  5
794
330
1E
100
AcDbDictionary
280
     1
281
     1
  3
ACAD_XREC_ROUNDTRIP
360
795
  0
DICTIONARY
  5
798
330
26
100
AcDbDictionary
280
     1
281
     1
  3
ACAD_XREC_ROUNDTRIP
360
799
  0
DICTIONARY
  5
796
330
22
100
AcDbDictionary
280
     1
281
     1
  3
ACAD_XREC_ROUNDTRIP
360
797
  0
XRECORD
  5
795
102
{ACAD_REACTORS
330
794
102
}
330
794
100
AcDbXrecord
280
     1
102
SHADEPLOT
 70
     0
102
SHADEPLOTRESLEVEL
 70
     2
102
SHADEPLOTCUSTOMDPI
 70
   300
  0
XRECORD
  5
799
102
{ACAD_REACTORS
330
798
102
}
330
798
100
AcDbXrecord
280
     1
102
SHADEPLOT
 70
     0
102
SHADEPLOTRESLEVEL
 70
     2
102
SHADEPLOTCUSTOMDPI
 70
   300
  0
XRECORD
  5
797
102
{ACAD_REACTORS
330
796
102
}
330
796
100
AcDbXrecord
280
     1
102
SHADEPLOT
 70
     0
102
SHADEPLOTRESLEVEL
 70
     2
102
SHADEPLOTCUSTOMDPI
 70
   300
  0
ENDSEC
  0
EOF
