  0
SECTION
  2
HEADER
  9
$ACADVER
  1
AC1015
  9
$ACADMAINTVER
 70
    20
  9
$DWGCODEPAGE
  3
ANSI_1252
  9
$INSBASE
 10
1050.0
 20
1485.0
 30
0.0
  9
$EXTMIN
 10
-410.0
 20
-282.5
 30
0.0
  9
$EXTMAX
 10
2242.585302247531
 20
1767.5
 30
0.0
  9
$LIMMIN
 10
-435.0
 20
-307.5
  9
$LIMMAX
 10
2535.0
 20
1792.5
  9
$ORTHOMODE
 70
     0
  9
$REGENMODE
 70
     1
  9
$FILLMODE
 70
     1
  9
$QTEXTMODE
 70
     0
  9
$MIRRTEXT
 70
     1
  9
$LTSCALE
 40
5.0
  9
$ATTMODE
 70
     1
  9
$TEXTSIZE
 40
2.5
  9
$TRACEWID
 40
1.0
  9
$TEXTSTYLE
  7
Standard
  9
$CLAYER
  8
0
  9
$CELTYPE
  6
ByLayer
  9
$CECOLOR
 62
     7
  9
$CELTSCALE
 40
1.0
  9
$DISPSILH
 70
     0
  9
$DIMSCALE
 40
5.0
  9
$DIMASZ
 40
3.5
  9
$DIMEXO
 40
0.625
  9
$DIMDLI
 40
3.75
  9
$DIMRND
 40
0.0
  9
$DIMDLE
 40
0.0
  9
$DIMEXE
 40
1.25
  9
$DIMTP
 40
0.0
  9
$DIMTM
 40
0.0
  9
$DIMTXT
 40
3.5
  9
$DIMCEN
 40
2.5
  9
$DIMTSZ
 40
0.0
  9
$DIMTOL
 70
     0
  9
$DIMLIM
 70
     0
  9
$DIMTIH
 70
     0
  9
$DIMTOH
 70
     0
  9
$DIMSE1
 70
     0
  9
$DIMSE2
 70
     0
  9
$DIMTAD
 70
     1
  9
$DIMZIN
 70
     8
  9
$DIMBLK
  1

  9
$DIMASO
 70
     1
  9
$DIMSHO
 70
     1
  9
$DIMPOST
  1

  9
$DIMAPOST
  1

  9
$DIMALT
 70
     0
  9
$DIMALTD
 70
     3
  9
$DIMALTF
 40
0.03937
  9
$DIMLFAC
 40
1.0
  9
$DIMTOFL
 70
     1
  9
$DIMTVP
 40
0.0
  9
$DIMTIX
 70
     0
  9
$DIMSOXD
 70
     0
  9
$DIMSAH
 70
     0
  9
$DIMBLK1
  1

  9
$DIMBLK2
  1

  9
$DIMSTYLE
  2
ISO-25
  9
$DIMCLRD
 70
     0
  9
$DIMCLRE
 70
     0
  9
$DIMCLRT
 70
     0
  9
$DIMTFAC
 40
1.0
  9
$DIMGAP
 40
0.625
  9
$DIMJUST
 70
     0
  9
$DIMSD1
 70
     0
  9
$DIMSD2
 70
     0
  9
$DIMTOLJ
 70
     0
  9
$DIMTZIN
 70
     8
  9
$DIMALTZ
 70
     0
  9
$DIMALTTZ
 70
     0
  9
$DIMUPT
 70
     0
  9
$DIMDEC
 70
     2
  9
$DIMTDEC
 70
     2
  9
$DIMALTU
 70
     2
  9
$DIMALTTD
 70
     3
  9
$DIMTXSTY
  7
Standard
  9
$DIMAUNIT
 70
     0
  9
$DIMADEC
 70
     0
  9
$DIMALTRND
 40
0.0
  9
$DIMAZIN
 70
     0
  9
$DIMDSEP
 70
    44
  9
$DIMATFIT
 70
     3
  9
$DIMFRAC
 70
     0
  9
$DIMLDRBLK
  1

  9
$DIMLUNIT
 70
     2
  9
$DIMLWD
 70
    -2
  9
$DIMLWE
 70
    -2
  9
$DIMTMOVE
 70
     0
  9
$LUNITS
 70
     2
  9
$LUPREC
 70
     4
  9
$SKETCHINC
 40
1.0
  9
$FILLETRAD
 40
10.0
  9
$AUNITS
 70
     0
  9
$AUPREC
 70
     0
  9
$MENU
  1
.
  9
$ELEVATION
 40
0.0
  9
$PELEVATION
 40
0.0
  9
$THICKNESS
 40
0.0
  9
$LIMCHECK
 70
     0
  9
$CHAMFERA
 40
10.0
  9
$CHAMFERB
 40
10.0
  9
$CHAMFERC
 40
20.0
  9
$CHAMFERD
 40
0.0
  9
$SKPOLY
 70
     0
  9
$TDCREATE
 40
2455509.580695521
  9
$TDUCREATE
 40
2455509.539028854
  9
$TDUPDATE
 40
2455898.448125382
  9
$TDUUPDATE
 40
2455898.406458715
  9
$TDINDWG
 40
0.0005083796
  9
$TDUSRTIMER
 40
0.0005083796
  9
$USRTIMER
 70
     1
  9
$ANGBASE
 50
0.0
  9
$ANGDIR
 70
     0
  9
$PDMODE
 70
     0
  9
$PDSIZE
 40
0.0
  9
$PLINEWID
 40
0.0
  9
$SPLFRAME
 70
     0
  9
$SPLINETYPE
 70
     6
  9
$SPLINESEGS
 70
     8
  9
$HANDSEED
  5
82B
  9
$SURFTAB1
 70
     6
  9
$SURFTAB2
 70
     6
  9
$SURFTYPE
 70
     6
  9
$SURFU
 70
     6
  9
$SURFV
 70
     6
  9
$UCSBASE
  2

  9
$UCSNAME
  2

  9
$UCSORG
 10
0.0
 20
0.0
 30
0.0
  9
$UCSXDIR
 10
1.0
 20
0.0
 30
0.0
  9
$UCSYDIR
 10
0.0
 20
1.0
 30
0.0
  9
$UCSORTHOREF
  2

  9
$UCSORTHOVIEW
 70
     0
  9
$UCSORGTOP
 10
0.0
 20
0.0
 30
0.0
  9
$UCSORGBOTTOM
 10
0.0
 20
0.0
 30
0.0
  9
$UCSORGLEFT
 10
0.0
 20
0.0
 30
0.0
  9
$UCSORGRIGHT
 10
0.0
 20
0.0
 30
0.0
  9
$UCSORGFRONT
 10
0.0
 20
0.0
 30
0.0
  9
$UCSORGBACK
 10
0.0
 20
0.0
 30
0.0
  9
$PUCSBASE
  2

  9
$PUCSNAME
  2

  9
$PUCSORG
 10
0.0
 20
0.0
 30
0.0
  9
$PUCSXDIR
 10
1.0
 20
0.0
 30
0.0
  9
$PUCSYDIR
 10
0.0
 20
1.0
 30
0.0
  9
$PUCSORTHOREF
  2

  9
$PUCSORTHOVIEW
 70
     0
  9
$PUCSORGTOP
 10
0.0
 20
0.0
 30
0.0
  9
$PUCSORGBOTTOM
 10
0.0
 20
0.0
 30
0.0
  9
$PUCSORGLEFT
 10
0.0
 20
0.0
 30
0.0
  9
$PUCSORGRIGHT
 10
0.0
 20
0.0
 30
0.0
  9
$PUCSORGFRONT
 10
0.0
 20
0.0
 30
0.0
  9
$PUCSORGBACK
 10
0.0
 20
0.0
 30
0.0
  9
$USERI1
 70
     0
  9
$USERI2
 70
     0
  9
$USERI3
 70
     0
  9
$USERI4
 70
     0
  9
$USERI5
 70
     0
  9
$USERR1
 40
0.0
  9
$USERR2
 40
0.0
  9
$USERR3
 40
0.0
  9
$USERR4
 40
0.0
  9
$USERR5
 40
0.0
  9
$WORLDVIEW
 70
     1
  9
$SHADEDGE
 70
     3
  9
$SHADEDIF
 70
    70
  9
$TILEMODE
 70
     1
  9
$MAXACTVP
 70
    64
  9
$PINSBASE
 10
0.0
 20
0.0
 30
0.0
  9
$PLIMCHECK
 70
     0
  9
$PEXTMIN
 10
-435.0
 20
-307.5
 30
0.0
  9
$PEXTMAX
 10
2535.0
 20
1792.5
 30
0.0
  9
$PLIMMIN
 10
-435.0
 20
-307.5
  9
$PLIMMAX
 10
2535.0
 20
1792.5
  9
$UNITMODE
 70
     0
  9
$VISRETAIN
 70
     1
  9
$PLINEGEN
 70
     0
  9
$PSLTSCALE
 70
     1
  9
$TREEDEPTH
 70
  3020
  9
$CMLSTYLE
  2
Standard
  9
$CMLJUST
 70
     0
  9
$CMLSCALE
 40
20.0
  9
$PROXYGRAPHICS
 70
     1
  9
$MEASUREMENT
 70
     1
  9
$CELWEIGHT
370
    -1
  9
$ENDCAPS
280
     0
  9
$JOINSTYLE
280
     0
  9
$LWDISPLAY
290
     0
  9
$INSUNITS
 70
     4
  9
$HYPERLINKBASE
  1

  9
$STYLESHEET
  1

  9
$XEDIT
290
     1
  9
$CEPSNTYPE
380
     0
  9
$PSTYLEMODE
290
     1
  9
$FINGERPRINTGUID
  2
{FAEB1C30-E019-11D5-929B-00C0DF256EC4}
  9
$VERSIONGUID
  2
{FB25302A-6A72-42CA-B138-3A416788CC7C}
  9
$EXTNAMES
290
     1
  9
$PSVPSCALE
 40
0.0
  9
$OLESTARTUP
290
     0
  0
ENDSEC
  0
SECTION
  2
CLASSES
  0
CLASS
  1
ACDBDICTIONARYWDFLT
  2
AcDbDictionaryWithDefault
  3
ObjectDBX Classes
 90
        0
280
     0
281
     0
  0
CLASS
  1
DICTIONARYVAR
  2
AcDbDictionaryVar
  3
ObjectDBX Classes
 90
        0
280
     0
281
     0
  0
CLASS
  1
ACDBPLACEHOLDER
  2
AcDbPlaceHolder
  3
ObjectDBX Classes
 90
        0
280
     0
281
     0
  0
CLASS
  1
LAYOUT
  2
AcDbLayout
  3
ObjectDBX Classes
 90
        0
280
     0
281
     0
  0
ENDSEC
  0
SECTION
  2
TABLES
  0
TABLE
  2
VPORT
  5
8
330
0
100
AcDbSymbolTable
 70
     2
  0
VPORT
  5
820
330
8
100
AcDbSymbolTableRecord
100
AcDbViewportTableRecord
  2
*Active
 70
     0
 10
0.0
 20
0.0
 11
1.0
 21
1.0
 12
2474.000686723037
 22
935.365708324003
 13
0.0
 23
0.0
 14
1.0
 24
1.0
 15
0.0
 25
0.0
 16
0.0
 26
0.0
 36
1.0
 17
0.0
 27
0.0
 37
0.0
 40
1654.068277128111
 41
1.932762836185819
 42
50.0
 43
0.0
 44
0.0
 50
0.0
 51
0.0
 71
    16
 72
   100
 73
     1
 74
     0
 75
     0
 76
     0
 77
     0
 78
     0
281
     0
 65
     0
110
0.0
120
0.0
130
0.0
111
1.0
121
0.0
131
0.0
112
0.0
122
1.0
132
0.0
 79
     0
146
0.0
  0
ENDTAB
  0
TABLE
  2
LTYPE
  5
5
330
0
100
AcDbSymbolTable
 70
     4
  0
LTYPE
  5
14
330
5
100
AcDbSymbolTableRecord
100
AcDbLinetypeTableRecord
  2
ByBlock
 70
     0
  3

 72
    65
 73
     0
 40
0.0
  0
LTYPE
  5
15
330
5
100
AcDbSymbolTableRecord
100
AcDbLinetypeTableRecord
  2
ByLayer
 70
     0
  3

 72
    65
 73
     0
 40
0.0
  0
LTYPE
  5
16
330
5
100
AcDbSymbolTableRecord
100
AcDbLinetypeTableRecord
  2
Continuous
 70
     0
  3
Solid line
 72
    65
 73
     0
 40
0.0
  0
LTYPE
  5
2A
330
5
100
AcDbSymbolTableRecord
100
AcDbLinetypeTableRecord
  2
DASHED
 70
     0
  3
__ __ __ __ __
 72
    65
 73
     2
 40
6.25
 49
5.0
 74
     4
 75
     0
340
0
 46
1.0
 50
0.0
 44
0.0
 45
0.0
 49
-1.25
 74
     4
 75
     0
340
0
 46
1.0
 50
0.0
 44
0.0
 45
0.0
  0
LTYPE
  5
36
330
5
100
AcDbSymbolTableRecord
100
AcDbLinetypeTableRecord
  2
CENTER
 70
     0
  3
__ . __ . __ . __ . __
 72
    65
 73
     4
 40
7.5
 49
5.0
 74
     4
 75
     0
340
0
 46
1.0
 50
0.0
 44
0.0
 45
0.0
 49
-1.25
 74
     4
 75
     0
340
0
 46
1.0
 50
0.0
 44
0.0
 45
0.0
 49
0.0
 74
     4
 75
     0
340
0
 46
1.0
 50
0.0
 44
0.0
 45
0.0
 49
-1.25
 74
     4
 75
     0
340
0
 46
1.0
 50
0.0
 44
0.0
 45
0.0
  0
LTYPE
  5
445
330
5
100
AcDbSymbolTableRecord
100
AcDbLinetypeTableRecord
  2
DIVIDE
 70
     0
  3
__ . . __ . . __ . . __
 72
    65
 73
     6
 40
8.75
 49
5.0
 74
     4
 75
     0
340
0
 46
1.0
 50
0.0
 44
0.0
 45
0.0
 49
-1.25
 74
     4
 75
     0
340
0
 46
1.0
 50
0.0
 44
0.0
 45
0.0
 49
0.0
 74
     4
 75
     0
340
0
 46
1.0
 50
0.0
 44
0.0
 45
0.0
 49
-1.25
 74
     4
 75
     0
340
0
 46
1.0
 50
0.0
 44
0.0
 45
0.0
 49
0.0
 74
     4
 75
     0
340
0
 46
1.0
 50
0.0
 44
0.0
 45
0.0
 49
-1.25
 74
     4
 75
     0
340
0
 46
1.0
 50
0.0
 44
0.0
 45
0.0
  0
ENDTAB
  0
TABLE
  2
LAYER
  5
2
330
0
100
AcDbSymbolTable
 70
    13
  0
LAYER
  5
10
330
2
100
AcDbSymbolTableRecord
100
AcDbLayerTableRecord
  2
0
 70
     0
 62
     7
  6
Continuous
370
    -3
390
F
  0
LAYER
  5
2B
330
2
100
AcDbSymbolTableRecord
100
AcDbLayerTableRecord
  2
LC-INFO-1-5-mm-A2-0
 70
     1
 62
     7
  6
ByBlock
370
    -3
390
F
  0
LAYER
  5
2C
330
2
100
AcDbSymbolTableRecord
100
AcDbLayerTableRecord
  2
LC-CUT-HIDDEN
 70
     0
 62
     7
  6
DASHED
370
    -3
390
F
  0
LAYER
  5
2D
330
2
100
AcDbSymbolTableRecord
100
AcDbLayerTableRecord
  2
LC-VIEWPORT
 70
     0
 62
     7
  6
ByBlock
370
    -3
390
F
  0
LAYER
  5
2E
330
2
100
AcDbSymbolTableRecord
100
AcDbLayerTableRecord
  2
LC-3D-HIDDEN
 70
     0
 62
     9
  6
DASHED
370
    -3
390
F
  0
LAYER
  5
32
330
2
100
AcDbSymbolTableRecord
100
AcDbLayerTableRecord
  2
LC-001-002-----0
 70
     0
 62
     1
  6
ByBlock
370
    -3
390
F
  0
LAYER
  5
37
330
2
100
AcDbSymbolTableRecord
100
AcDbLayerTableRecord
  2
LC-002-006-MLN-0
 70
     0
 62
     2
  6
CENTER
370
    -3
390
F
  0
LAYER
  5
43
330
2
100
AcDbSymbolTableRecord
100
AcDbLayerTableRecord
  2
LC-003-003-----0
 70
     0
 62
     2
  6
ByBlock
370
    -3
390
F
  0
LAYER
  5
45
330
2
100
AcDbSymbolTableRecord
100
AcDbLayerTableRecord
  2
Defpoints
 70
     0
 62
     7
  6
Continuous
290
     0
370
    -3
390
F
  0
LAYER
  5
9B
330
2
100
AcDbSymbolTableRecord
100
AcDbLayerTableRecord
  2
LC-004-005-----0
 70
     0
 62
     2
  6
ByBlock
370
    -3
390
F
  0
LAYER
  5
1AB
330
2
100
AcDbSymbolTableRecord
100
AcDbLayerTableRecord
  2
LC-005-003-MTG-0
 70
     0
 62
     2
  6
ByBlock
370
    -3
390
F
  0
LAYER
  5
1D8
330
2
100
AcDbSymbolTableRecord
100
AcDbLayerTableRecord
  2
LC-006-004-----0
 70
     0
 62
     7
  6
ByBlock
370
    -3
390
F
  0
LAYER
  5
446
330
2
100
AcDbSymbolTableRecord
100
AcDbLayerTableRecord
  2
LC-007-101-----0
 70
     0
 62
    51
  6
DIVIDE
370
    -3
390
F
  0
ENDTAB
  0
TABLE
  2
STYLE
  5
3
330
0
100
AcDbSymbolTable
 70
     4
  0
STYLE
  5
11
330
3
100
AcDbSymbolTableRecord
100
AcDbTextStyleTableRecord
  2
Standard
 70
     0
 40
0.0
 41
1.0
 50
0.0
 71
     0
 42
2.5
  3
txt
  4

  0
STYLE
  5
2F
330
3
100
AcDbSymbolTableRecord
100
AcDbTextStyleTableRecord
  2
LCTX0-400-0-0pDIN-Schrift
 70
     0
 40
0.0
 41
1.0
 50
0.0
 71
     0
 42
3.5
  3
TXT
  4

  0
STYLE
  5
30
330
3
100
AcDbSymbolTableRecord
100
AcDbTextStyleTableRecord
  2
LCTX0-560-0-0-DIN-Schrift
 70
     0
 40
0.0
 41
1.0
 50
0.0
 71
     0
 42
3.5
  3
MONOTXT
  4

  0
STYLE
  5
31
330
3
100
AcDbSymbolTableRecord
100
AcDbTextStyleTableRecord
  2
LCTX0-400-0-0-DIN-Schrift
 70
     0
 40
0.0
 41
1.0
 50
0.0
 71
     0
 42
3.5
  3
MONOTXT
  4

  0
ENDTAB
  0
TABLE
  2
VIEW
  5
6
330
0
100
AcDbSymbolTable
 70
     0
  0
ENDTAB
  0
TABLE
  2
UCS
  5
7
330
0
100
AcDbSymbolTable
 70
     0
  0
ENDTAB
  0
TABLE
  2
APPID
  5
9
330
0
100
AcDbSymbolTable
 70
     1
  0
APPID
  5
12
330
9
100
AcDbSymbolTableRecord
100
AcDbRegAppTableRecord
  2
ACAD
 70
     0
  0
ENDTAB
  0
TABLE
  2
DIMSTYLE
  5
A
330
0
100
AcDbSymbolTable
 70
     5
100
AcDbDimStyleTable
 71
     0
  0
DIMSTYLE
105
27
330
A
100
AcDbSymbolTableRecord
100
AcDbDimStyleTableRecord
  2
ISO-25
 70
     0
 41
2.5
 42
0.625
 43
3.75
 44
1.25
 73
     0
 74
     0
 77
     1
 78
     8
140
2.5
141
2.5
143
0.03937
147
0.625
171
     3
172
     1
271
     2
272
     2
274
     3
278
    44
283
     0
284
     8
340
11
  0
DIMSTYLE
105
42
102
{ACAD_REACTORS
330
44
330
52
330
77
330
86
330
1AF
330
1BC
330
1CA
330
7E9
102
}
330
A
100
AcDbSymbolTableRecord
100
AcDbDimStyleTableRecord
  2
LC-DIM-L-0025-02-02
 70
     0
 40
5.0
 41
2.5
 42
0.0
 43
7.5
 44
1.8
 73
     0
 74
     0
 77
     1
 78
     8
 79
     2
140
2.5
141
0.0
146
0.71
147
1.5
172
     1
176
     2
177
     2
178
     2
179
     2
271
     2
278
    44
289
     1
340
2F
  0
DIMSTYLE
105
194
330
A
100
AcDbSymbolTableRecord
100
AcDbDimStyleTableRecord
  2
LC-DIM-W-0025-02-32
 70
     0
 40
5.0
 41
2.5
 42
0.0
 43
7.5
 44
1.8
 73
     0
 74
     0
 75
     1
 76
     1
 77
     1
 78
     8
 79
     2
140
2.5
141
0.0
146
0.71
147
1.5
176
     2
177
     2
178
     2
179
     2
271
     2
278
    44
289
     1
340
2F
  0
DIMSTYLE
105
455
330
A
100
AcDbSymbolTableRecord
100
AcDbDimStyleTableRecord
  2
LC-DIM-L-0025-04-02
 70
     0
 40
5.0
 41
2.5
 42
0.0
 43
7.5
 44
1.8
 73
     0
 74
     0
 77
     1
 78
     8
 79
     2
140
2.5
141
0.0
146
0.71
147
1.5
172
     1
176
     2
177
     2
178
     2
179
     4
278
    44
289
     1
340
2F
  0
DIMSTYLE
105
7F6
102
{ACAD_REACTORS
330
7F7
330
800
102
}
330
A
100
AcDbSymbolTableRecord
100
AcDbDimStyleTableRecord
  2
LC-DIM-R-0025-02-02
 70
     0
 40
5.0
 41
2.5
 42
0.0
 43
7.5
 44
1.8
 73
     0
 74
     0
 77
     1
 78
     8
 79
     2
140
2.5
141
0.0
146
0.71
147
1.5
176
     2
177
     2
178
     2
179
     2
271
     2
278
    44
289
     1
340
2F
  0
ENDTAB
  0
TABLE
  2
BLOCK_RECORD
  5
1
330
0
100
AcDbSymbolTable
 70
    34
  0
BLOCK_RECORD
  5
1F
330
1
100
AcDbSymbolTableRecord
100
AcDbBlockTableRecord
  2
*Model_Space
340
22
  0
BLOCK_RECORD
  5
1B
330
1
100
AcDbSymbolTableRecord
100
AcDbBlockTableRecord
  2
*Paper_Space
340
1E
  0
BLOCK_RECORD
  5
23
330
1
100
AcDbSymbolTableRecord
100
AcDbBlockTableRecord
  2
*Paper_Space0
340
26
  0
BLOCK_RECORD
  5
46
330
1
100
AcDbSymbolTableRecord
100
AcDbBlockTableRecord
  2
*D1
340
0
  0
BLOCK_RECORD
  5
53
330
1
100
AcDbSymbolTableRecord
100
AcDbBlockTableRecord
  2
*D2
340
0
  0
BLOCK_RECORD
  5
78
330
1
100
AcDbSymbolTableRecord
100
AcDbBlockTableRecord
  2
*D3
340
0
  0
BLOCK_RECORD
  5
87
330
1
100
AcDbSymbolTableRecord
100
AcDbBlockTableRecord
  2
*D4
340
0
  0
BLOCK_RECORD
  5
98
330
1
100
AcDbSymbolTableRecord
100
AcDbBlockTableRecord
  2
*X5
340
0
102
{BLKREFS
331
B3
102
}
  0
BLOCK_RECORD
  5
B6
330
1
100
AcDbSymbolTableRecord
100
AcDbBlockTableRecord
  2
*X6
340
0
102
{BLKREFS
331
D4
102
}
  0
BLOCK_RECORD
  5
D7
330
1
100
AcDbSymbolTableRecord
100
AcDbBlockTableRecord
  2
*X7
340
0
102
{BLKREFS
331
F1
102
}
  0
BLOCK_RECORD
  5
F8
330
1
100
AcDbSymbolTableRecord
100
AcDbBlockTableRecord
  2
*X8
340
0
102
{BLKREFS
331
11A
102
}
  0
BLOCK_RECORD
  5
195
330
1
100
AcDbSymbolTableRecord
100
AcDbBlockTableRecord
  2
LCDIM1
340
0
102
{BLKREFS
331
1AD
102
}
  0
BLOCK_RECORD
  5
1B0
330
1
100
AcDbSymbolTableRecord
100
AcDbBlockTableRecord
  2
*D10
340
0
  0
BLOCK_RECORD
  5
1BD
330
1
100
AcDbSymbolTableRecord
100
AcDbBlockTableRecord
  2
*D11
340
0
  0
BLOCK_RECORD
  5
1CB
330
1
100
AcDbSymbolTableRecord
100
AcDbBlockTableRecord
  2
*D12
340
0
  0
BLOCK_RECORD
  5
1FE
330
1
100
AcDbSymbolTableRecord
100
AcDbBlockTableRecord
  2
*X13
340
0
  0
BLOCK_RECORD
  5
388
330
1
100
AcDbSymbolTableRecord
100
AcDbBlockTableRecord
  2
*X14
340
0
  0
BLOCK_RECORD
  5
3F5
330
1
100
AcDbSymbolTableRecord
100
AcDbBlockTableRecord
  2
*X15
340
0
  0
BLOCK_RECORD
  5
457
330
1
100
AcDbSymbolTableRecord
100
AcDbBlockTableRecord
  2
*D16
340
0
  0
BLOCK_RECORD
  5
465
330
1
100
AcDbSymbolTableRecord
100
AcDbBlockTableRecord
  2
*D17
340
0
  0
BLOCK_RECORD
  5
495
330
1
100
AcDbSymbolTableRecord
100
AcDbBlockTableRecord
  2
*D18
340
0
  0
BLOCK_RECORD
  5
4A3
330
1
100
AcDbSymbolTableRecord
100
AcDbBlockTableRecord
  2
*D19
340
0
  0
BLOCK_RECORD
  5
4B1
330
1
100
AcDbSymbolTableRecord
100
AcDbBlockTableRecord
  2
*D20
340
0
  0
BLOCK_RECORD
  5
4BE
330
1
100
AcDbSymbolTableRecord
100
AcDbBlockTableRecord
  2
*D21
340
0
  0
BLOCK_RECORD
  5
4FC
330
1
100
AcDbSymbolTableRecord
100
AcDbBlockTableRecord
  2
*X22
340
0
  0
BLOCK_RECORD
  5
686
330
1
100
AcDbSymbolTableRecord
100
AcDbBlockTableRecord
  2
*X23
340
0
  0
BLOCK_RECORD
  5
6F3
330
1
100
AcDbSymbolTableRecord
100
AcDbBlockTableRecord
  2
*X24
340
0
  0
BLOCK_RECORD
  5
752
330
1
100
AcDbSymbolTableRecord
100
AcDbBlockTableRecord
  2
*D25
340
0
  0
BLOCK_RECORD
  5
760
330
1
100
AcDbSymbolTableRecord
100
AcDbBlockTableRecord
  2
*D26
340
0
  0
BLOCK_RECORD
  5
790
330
1
100
AcDbSymbolTableRecord
100
AcDbBlockTableRecord
  2
*D27
340
0
  0
BLOCK_RECORD
  5
79E
330
1
100
AcDbSymbolTableRecord
100
AcDbBlockTableRecord
  2
*D28
340
0
  0
BLOCK_RECORD
  5
7AC
330
1
100
AcDbSymbolTableRecord
100
AcDbBlockTableRecord
  2
*D29
340
0
  0
BLOCK_RECORD
  5
7B9
330
1
100
AcDbSymbolTableRecord
100
AcDbBlockTableRecord
  2
*D30
340
0
  0
BLOCK_RECORD
  5
7EA
330
1
100
AcDbSymbolTableRecord
100
AcDbBlockTableRecord
  2
*D31
340
0
  0
BLOCK_RECORD
  5
7F8
330
1
100
AcDbSymbolTableRecord
100
AcDbBlockTableRecord
  2
*D32
340
0
  0
BLOCK_RECORD
  5
801
330
1
100
AcDbSymbolTableRecord
100
AcDbBlockTableRecord
  2
*D33
340
0
  0
ENDTAB
  0
ENDSEC
  0
SECTION
  2
BLOCKS
  0
BLOCK
  5
20
330
1F
100
AcDbEntity
  8
0
100
AcDbBlockBegin
  2
*Model_Space
 70
     0
 10
0.0
 20
0.0
 30
0.0
  3
*Model_Space
  1

  0
ENDBLK
  5
21
330
1F
100
AcDbEntity
  8
0
100
AcDbBlockEnd
  0
BLOCK
  5
1C
330
1B
100
AcDbEntity
 67
     1
  8
0
100
AcDbBlockBegin
  2
*Paper_Space
 70
     0
 10
0.0
 20
0.0
 30
0.0
  3
*Paper_Space
  1

  0
ENDBLK
  5
1D
330
1B
100
AcDbEntity
 67
     1
  8
0
100
AcDbBlockEnd
  0
BLOCK
  5
24
330
23
100
AcDbEntity
  8
0
100
AcDbBlockBegin
  2
*Paper_Space0
 70
     0
 10
0.0
 20
0.0
 30
0.0
  3
*Paper_Space0
  1

  0
ENDBLK
  5
25
330
23
100
AcDbEntity
  8
0
100
AcDbBlockEnd
  0
BLOCK
  5
50
330
46
100
AcDbEntity
  8
0
100
AcDbBlockBegin
  2
*D1
 70
     1
 10
0.0
 20
0.0
 30
0.0
  3
*D1
  1

  0
LINE
  5
47
330
46
100
AcDbEntity
  8
LC-003-003-----0
 62
     2
370
    -2
100
AcDbLine
 10
1726.806294
 20
1647.270747
 30
0.0
 11
1641.0
 21
1647.270747
 31
0.0
  0
LINE
  5
48
330
46
100
AcDbEntity
  8
LC-003-003-----0
 62
     2
370
    -2
100
AcDbLine
 10
1726.806294
 20
1422.270747
 30
0.0
 11
1641.0
 21
1422.270747
 31
0.0
  0
LINE
  5
49
330
46
100
AcDbEntity
  8
LC-003-003-----0
 62
     2
370
    -2
100
AcDbLine
 10
1650.0
 20
1634.770747
 30
0.0
 11
1650.0
 21
1434.770747
 31
0.0
  0
SOLID
  5
4A
330
46
100
AcDbEntity
  8
LC-003-003-----0
 62
     2
100
AcDbTrace
 10
1652.083333
 20
1634.770747
 30
0.0
 11
1647.916667
 21
1634.770747
 31
0.0
 12
1650.0
 22
1647.270747
 32
0.0
 13
1650.0
 23
1647.270747
 33
0.0
  0
SOLID
  5
4B
330
46
100
AcDbEntity
  8
LC-003-003-----0
 62
     2
100
AcDbTrace
 10
1647.916667
 20
1434.770747
 30
0.0
 11
1652.083333
 21
1434.770747
 31
0.0
 12
1650.0
 22
1422.270747
 32
0.0
 13
1650.0
 23
1422.270747
 33
0.0
  0
MTEXT
  5
4C
330
46
100
AcDbEntity
  8
LC-003-003-----0
 62
     2
100
AcDbMText
 10
1635.0
 20
1534.770747
 30
0.0
 40
12.5
 41
0.0
 71
     5
 72
     1
  1
\A1;225
  7
LCTX0-400-0-0pDIN-Schrift
 11
0.0000000000000001
 21
1.0
 31
0.0
 73
     1
 44
1.0
1001
ACAD
1000
MTEXTBEGIN
1070
    73
1070
     1
1070
    44
1040
1.0
1070
    74
1070
     0
1000
MTEXTEND
  0
POINT
  5
4D
330
46
100
AcDbEntity
  8
Defpoints
 62
     0
100
AcDbPoint
 10
1726.806294
 20
1647.270747
 30
0.0
  0
POINT
  5
4E
330
46
100
AcDbEntity
  8
Defpoints
 62
     0
100
AcDbPoint
 10
1726.806294
 20
1422.270747
 30
0.0
  0
POINT
  5
4F
330
46
100
AcDbEntity
  8
Defpoints
 62
     0
100
AcDbPoint
 10
1650.0
 20
1422.270747
 30
0.0
  0
ENDBLK
  5
51
330
46
100
AcDbEntity
  8
0
100
AcDbBlockEnd
  0
BLOCK
  5
5F
330
53
100
AcDbEntity
  8
0
100
AcDbBlockBegin
  2
*D2
 70
     1
 10
0.0
 20
0.0
 30
0.0
  3
*D2
  1

  0
LINE
  5
54
330
53
100
AcDbEntity
  8
LC-003-003-----0
 62
     2
370
    -2
100
AcDbLine
 10
1806.806294
 20
263.145747
 30
0.0
 11
1806.806294
 21
191.0
 31
0.0
  0
LINE
  5
55
330
53
100
AcDbEntity
  8
LC-003-003-----0
 62
     2
370
    -2
100
AcDbLine
 10
1786.806294
 20
263.145747
 30
0.0
 11
1786.806294
 21
191.0
 31
0.0
  0
LINE
  5
56
330
53
100
AcDbEntity
  8
LC-003-003-----0
 62
     2
370
    -2
100
AcDbLine
 10
1819.306294
 20
200.0
 30
0.0
 11
1831.806294
 21
200.0
 31
0.0
  0
LINE
  5
57
330
53
100
AcDbEntity
  8
LC-003-003-----0
 62
     2
370
    -2
100
AcDbLine
 10
1774.306294
 20
200.0
 30
0.0
 11
1763.108243
 21
200.0
 31
0.0
  0
LINE
  5
58
330
53
100
AcDbEntity
  8
LC-003-003-----0
 62
     2
370
    -2
100
AcDbLine
 10
1806.806294
 20
200.0
 30
0.0
 11
1786.806294
 21
200.0
 31
0.0
  0
SOLID
  5
59
330
53
100
AcDbEntity
  8
LC-003-003-----0
 62
     2
100
AcDbTrace
 10
1819.306294
 20
202.083333
 30
0.0
 11
1819.306294
 21
197.916667
 31
0.0
 12
1806.806294
 22
200.0
 32
0.0
 13
1806.806294
 23
200.0
 33
0.0
  0
SOLID
  5
5A
330
53
100
AcDbEntity
  8
LC-003-003-----0
 62
     2
100
AcDbTrace
 10
1774.306294
 20
197.916667
 30
0.0
 11
1774.306294
 21
202.083333
 31
0.0
 12
1786.806294
 22
200.0
 32
0.0
 13
1786.806294
 23
200.0
 33
0.0
  0
MTEXT
  5
5B
330
53
100
AcDbEntity
  8
LC-003-003-----0
 62
     2
100
AcDbMText
 10
1780.120743
 20
215.0
 30
0.0
 40
12.5
 41
0.0
 71
     5
 72
     1
  1
\A1;20
  7
LCTX0-400-0-0pDIN-Schrift
 73
     1
 44
1.0
1001
ACAD
1000
MTEXTBEGIN
1070
    73
1070
     1
1070
    44
1040
1.0
1070
    74
1070
     0
1000
MTEXTEND
  0
POINT
  5
5C
330
53
100
AcDbEntity
  8
Defpoints
 62
     0
100
AcDbPoint
 10
1806.806294
 20
263.145747
 30
0.0
  0
POINT
  5
5D
330
53
100
AcDbEntity
  8
Defpoints
 62
     0
100
AcDbPoint
 10
1786.806294
 20
263.145747
 30
0.0
  0
POINT
  5
5E
330
53
100
AcDbEntity
  8
Defpoints
 62
     0
100
AcDbPoint
 10
1786.806294
 20
200.0
 30
0.0
  0
ENDBLK
  5
60
330
53
100
AcDbEntity
  8
0
100
AcDbBlockEnd
  0
BLOCK
  5
83
330
78
100
AcDbEntity
  8
0
100
AcDbBlockBegin
  2
*D3
 70
     1
 10
0.0
 20
0.0
 30
0.0
  3
*D3
  1

  0
LINE
  5
79
330
78
100
AcDbEntity
  8
LC-003-003-----0
 62
     2
370
    -2
100
AcDbLine
 10
1766.806294
 20
283.145747
 30
0.0
 11
1591.0
 21
283.145747
 31
0.0
  0
LINE
  5
7A
330
78
100
AcDbEntity
  8
LC-003-003-----0
 62
     2
370
    -2
100
AcDbLine
 10
1766.806294
 20
772.395747
 30
0.0
 11
1591.0
 21
772.395747
 31
0.0
  0
LINE
  5
7B
330
78
100
AcDbEntity
  8
LC-003-003-----0
 62
     2
370
    -2
100
AcDbLine
 10
1600.0
 20
295.645747
 30
0.0
 11
1600.0
 21
487.7707469999999
 31
0.0
  0
LINE
  5
7C
330
78
100
AcDbEntity
  8
LC-003-003-----0
 62
     2
370
    -2
100
AcDbLine
 10
1600.0
 20
759.895747
 30
0.0
 11
1600.0
 21
567.770746
 31
0.0
  0
SOLID
  5
7D
330
78
100
AcDbEntity
  8
LC-003-003-----0
 62
     2
100
AcDbTrace
 10
1597.916667
 20
295.645747
 30
0.0
 11
1602.083333
 21
295.645747
 31
0.0
 12
1600.0
 22
283.145747
 32
0.0
 13
1600.0
 23
283.145747
 33
0.0
  0
SOLID
  5
7E
330
78
100
AcDbEntity
  8
LC-003-003-----0
 62
     2
100
AcDbTrace
 10
1602.083333
 20
759.895747
 30
0.0
 11
1597.916667
 21
759.895747
 31
0.0
 12
1600.0
 22
772.395747
 32
0.0
 13
1600.0
 23
772.395747
 33
0.0
  0
MTEXT
  5
7F
330
78
100
AcDbEntity
  8
LC-003-003-----0
 62
     2
100
AcDbMText
 10
1585.0
 20
527.770747
 30
0.0
 40
12.5
 41
0.0
 71
     5
 72
     1
  1
\A1;489,25
  7
LCTX0-400-0-0pDIN-Schrift
 11
0.0000000000000001
 21
1.0
 31
0.0
 73
     1
 44
1.0
1001
ACAD
1000
MTEXTBEGIN
1070
    73
1070
     1
1070
    44
1040
1.0
1070
    74
1070
     0
1000
MTEXTEND
  0
POINT
  5
80
330
78
100
AcDbEntity
  8
Defpoints
 62
     0
100
AcDbPoint
 10
1766.806294
 20
283.145747
 30
0.0
  0
POINT
  5
81
330
78
100
AcDbEntity
  8
Defpoints
 62
     0
100
AcDbPoint
 10
1766.806294
 20
772.395747
 30
0.0
  0
POINT
  5
82
330
78
100
AcDbEntity
  8
Defpoints
 62
     0
100
AcDbPoint
 10
1600.0
 20
772.395747
 30
0.0
  0
ENDBLK
  5
84
330
78
100
AcDbEntity
  8
0
100
AcDbBlockEnd
  0
BLOCK
  5
91
330
87
100
AcDbEntity
  8
0
100
AcDbBlockBegin
  2
*D4
 70
     1
 10
0.0
 20
0.0
 30
0.0
  3
*D4
  1

  0
LINE
  5
88
330
87
100
AcDbEntity
  8
LC-003-003-----0
 62
     2
370
    -2
100
AcDbLine
 10
1786.806294
 20
263.145747
 30
0.0
 11
1786.806294
 21
66.0
 31
0.0
  0
LINE
  5
89
330
87
100
AcDbEntity
  8
LC-003-003-----0
 62
     2
370
    -2
100
AcDbLine
 10
2201.806294
 20
263.145747
 30
0.0
 11
2201.806294
 21
66.0
 31
0.0
  0
LINE
  5
8A
330
87
100
AcDbEntity
  8
LC-003-003-----0
 62
     2
370
    -2
100
AcDbLine
 10
1799.306294
 20
75.0
 30
0.0
 11
2189.306294
 21
75.0
 31
0.0
  0
SOLID
  5
8B
330
87
100
AcDbEntity
  8
LC-003-003-----0
 62
     2
100
AcDbTrace
 10
1799.306294
 20
77.08333299999999
 30
0.0
 11
1799.306294
 21
72.916667
 31
0.0
 12
1786.806294
 22
75.0
 32
0.0
 13
1786.806294
 23
75.0
 33
0.0
  0
SOLID
  5
8C
330
87
100
AcDbEntity
  8
LC-003-003-----0
 62
     2
100
AcDbTrace
 10
2189.306294
 20
72.916667
 30
0.0
 11
2189.306294
 21
77.08333299999999
 31
0.0
 12
2201.806294
 22
75.0
 32
0.0
 13
2201.806294
 23
75.0
 33
0.0
  0
MTEXT
  5
8D
330
87
100
AcDbEntity
  8
LC-003-003-----0
 62
     2
100
AcDbMText
 10
1994.306294
 20
90.0
 30
0.0
 40
12.5
 41
0.0
 71
     5
 72
     1
  1
\A1;415
  7
LCTX0-400-0-0pDIN-Schrift
 73
     1
 44
1.0
1001
ACAD
1000
MTEXTBEGIN
1070
    73
1070
     1
1070
    44
1040
1.0
1070
    74
1070
     0
1000
MTEXTEND
  0
POINT
  5
8E
330
87
100
AcDbEntity
  8
Defpoints
 62
     0
100
AcDbPoint
 10
1786.806294
 20
263.145747
 30
0.0
  0
POINT
  5
8F
330
87
100
AcDbEntity
  8
Defpoints
 62
     0
100
AcDbPoint
 10
2201.806294
 20
263.145747
 30
0.0
  0
POINT
  5
90
330
87
100
AcDbEntity
  8
Defpoints
 62
     0
100
AcDbPoint
 10
2201.806294
 20
75.0
 30
0.0
  0
ENDBLK
  5
92
330
87
100
AcDbEntity
  8
0
100
AcDbBlockEnd
  0
BLOCK
  5
99
330
98
100
AcDbEntity
  8
0
100
AcDbBlockBegin
  2
*X5
 70
     1
 10
0.0
 20
0.0
 30
0.0
  3
*X5
  1

  4
*X1
  0
LINE
  5
9C
330
98
100
AcDbEntity
  8
LC-004-005-----0
 62
     7
370
    25
100
AcDbLine
 10
1858.083155
 20
981.2707470000001
 30
0.0
 11
1867.714626
 21
990.9022179999999
 31
0.0
  0
LINE
  5
9D
330
98
100
AcDbEntity
  8
LC-004-005-----0
 62
     7
370
    25
100
AcDbLine
 10
1847.999548
 20
985.3292750000001
 30
0.0
 11
1856.759683
 21
994.0894099999999
 31
0.0
  0
LINE
  5
9E
330
98
100
AcDbEntity
  8
LC-004-005-----0
 62
     7
370
    25
100
AcDbLine
 10
1837.972155
 20
989.4440170000001
 30
0.0
 11
1846.268789
 21
997.7406509999999
 31
0.0
  0
LINE
  5
9F
330
98
100
AcDbEntity
  8
LC-004-005-----0
 62
     7
370
    25
100
AcDbLine
 10
1830.73708
 20
996.351078
 30
0.0
 11
1838.069097
 21
1003.683095
 31
0.0
  0
LINE
  5
A0
330
98
100
AcDbEntity
  8
LC-004-005-----0
 62
     7
370
    25
100
AcDbLine
 10
1826.112779
 20
1005.868913
 30
0.0
 11
1833.531054
 21
1013.287188
 31
0.0
  0
LINE
  5
A1
330
98
100
AcDbEntity
  8
LC-004-005-----0
 62
     7
370
    25
100
AcDbLine
 10
1823.245119
 20
1017.143388
 30
0.0
 11
1831.018561
 21
1024.91683
 31
0.0
  0
LINE
  5
A2
330
98
100
AcDbEntity
  8
LC-004-005-----0
 62
     7
370
    25
100
AcDbLine
 10
1821.304265
 20
1029.34467
 30
0.0
 11
1829.380247
 21
1037.420652
 31
0.0
  0
LINE
  5
A3
330
98
100
AcDbEntity
  8
LC-004-005-----0
 62
     7
370
    25
100
AcDbLine
 10
1819.757721
 20
1041.940261
 30
0.0
 11
1827.833703
 21
1050.016244
 31
0.0
  0
LINE
  5
A4
330
98
100
AcDbEntity
  8
LC-004-005-----0
 62
     7
370
    25
100
AcDbLine
 10
1818.211177
 20
1054.535853
 30
0.0
 11
1826.287159
 21
1062.611835
 31
0.0
  0
LINE
  5
A5
330
98
100
AcDbEntity
  8
LC-004-005-----0
 62
     7
370
    25
100
AcDbLine
 10
1816.664632
 20
1067.131444
 30
0.0
 11
1824.740615
 21
1075.207427
 31
0.0
  0
LINE
  5
A6
330
98
100
AcDbEntity
  8
LC-004-005-----0
 62
     7
370
    25
100
AcDbLine
 10
1815.118088
 20
1079.727036
 30
0.0
 11
1823.194071
 21
1087.803018
 31
0.0
  0
LINE
  5
A7
330
98
100
AcDbEntity
  8
LC-004-005-----0
 62
     7
370
    25
100
AcDbLine
 10
1813.571544
 20
1092.322627
 30
0.0
 11
1821.647527
 21
1100.39861
 31
0.0
  0
LINE
  5
A8
330
98
100
AcDbEntity
  8
LC-004-005-----0
 62
     7
370
    25
100
AcDbLine
 10
1812.025
 20
1104.918219
 30
0.0
 11
1820.100982
 21
1112.994201
 31
0.0
  0
LINE
  5
A9
330
98
100
AcDbEntity
  8
LC-004-005-----0
 62
     7
370
    25
100
AcDbLine
 10
1810.478456
 20
1117.51381
 30
0.0
 11
1818.554438
 21
1125.589793
 31
0.0
  0
LINE
  5
AA
330
98
100
AcDbEntity
  8
LC-004-005-----0
 62
     7
370
    25
100
AcDbLine
 10
1808.931912
 20
1130.109402
 30
0.0
 11
1817.007894
 21
1138.185384
 31
0.0
  0
LINE
  5
AB
330
98
100
AcDbEntity
  8
LC-004-005-----0
 62
     7
370
    25
100
AcDbLine
 10
1807.385367
 20
1142.704993
 30
0.0
 11
1815.46135
 21
1150.780976
 31
0.0
  0
LINE
  5
AC
330
98
100
AcDbEntity
  8
LC-004-005-----0
 62
     7
370
    25
100
AcDbLine
 10
1805.838823
 20
1155.300585
 30
0.0
 11
1813.914805999999
 21
1163.376567
 31
0.0
  0
LINE
  5
AD
330
98
100
AcDbEntity
  8
LC-004-005-----0
 62
     7
370
    25
100
AcDbLine
 10
1804.292279
 20
1167.896176
 30
0.0
 11
1812.368262
 21
1175.972159
 31
0.0
  0
LINE
  5
AE
330
98
100
AcDbEntity
  8
LC-004-005-----0
 62
     7
370
    25
100
AcDbLine
 10
1802.745735
 20
1180.491767
 30
0.0
 11
1810.821717
 21
1188.56775
 31
0.0
  0
LINE
  5
AF
330
98
100
AcDbEntity
  8
LC-004-005-----0
 62
     7
370
    25
100
AcDbLine
 10
1801.199191
 20
1193.087359
 30
0.0
 11
1809.275173
 21
1201.163341
 31
0.0
  0
LINE
  5
B0
330
98
100
AcDbEntity
  8
LC-004-005-----0
 62
     7
370
    25
100
AcDbLine
 10
1799.229188
 20
1205.259492
 30
0.0
 11
1807.728629
 21
1213.758933
 31
0.0
  0
LINE
  5
B1
330
98
100
AcDbEntity
  8
LC-004-005-----0
 62
     7
370
    25
100
AcDbLine
 10
1789.826552
 20
1209.998991
 30
0.0
 11
1801.098307
 21
1221.270747
 31
0.0
  0
LINE
  5
B2
330
98
100
AcDbEntity
  8
LC-004-005-----0
 62
     7
370
    25
100
AcDbLine
 10
1786.837967
 20
1221.152542
 30
0.0
 11
1786.956172
 21
1221.270747
 31
0.0
  0
ENDBLK
  5
9A
330
98
100
AcDbEntity
  8
0
100
AcDbBlockEnd
  0
BLOCK
  5
B7
330
B6
100
AcDbEntity
  8
0
100
AcDbBlockBegin
  2
*X6
 70
     1
 10
0.0
 20
0.0
 30
0.0
  3
*X6
  1

  4
*X2
  0
LINE
  5
B9
330
B6
100
AcDbEntity
  8
LC-004-005-----0
 62
     7
370
    25
100
AcDbLine
 10
2136.572162
 20
991.059176
 30
0.0
 11
2165.493907
 21
1019.980922
 31
0.0
  0
LINE
  5
BA
330
B6
100
AcDbEntity
  8
LC-004-005-----0
 62
     7
370
    25
100
AcDbLine
 10
2121.866375
 20
990.495525
 30
0.0
 11
2133.27135
 21
1001.900501
 31
0.0
  0
LINE
  5
BB
330
B6
100
AcDbEntity
  8
LC-004-005-----0
 62
     7
370
    25
100
AcDbLine
 10
2157.492955
 20
1026.122105
 30
0.0
 11
2168.231124
 21
1036.860274
 31
0.0
  0
LINE
  5
BC
330
B6
100
AcDbEntity
  8
LC-004-005-----0
 62
     7
370
    25
100
AcDbLine
 10
2107.212515
 20
989.9838009999999
 30
0.0
 11
2118.617491
 21
1001.388776
 31
0.0
  0
LINE
  5
BD
330
B6
100
AcDbEntity
  8
LC-004-005-----0
 62
     7
370
    25
100
AcDbLine
 10
2159.873824
 20
1042.64511
 30
0.0
 11
2170.21061
 21
1052.981896
 31
0.0
  0
LINE
  5
BE
330
B6
100
AcDbEntity
  8
LC-004-005-----0
 62
     7
370
    25
100
AcDbLine
 10
2092.558656
 20
989.4720769999999
 30
0.0
 11
2103.963631
 21
1000.877052
 31
0.0
  0
LINE
  5
BF
330
B6
100
AcDbEntity
  8
LC-004-005-----0
 62
     7
370
    25
100
AcDbLine
 10
2161.85331
 20
1058.766732
 30
0.0
 11
2172.190096
 21
1069.103518
 31
0.0
  0
LINE
  5
C0
330
B6
100
AcDbEntity
  8
LC-004-005-----0
 62
     7
370
    25
100
AcDbLine
 10
2077.904796
 20
988.960353
 30
0.0
 11
2089.309771
 21
1000.365328
 31
0.0
  0
LINE
  5
C1
330
B6
100
AcDbEntity
  8
LC-004-005-----0
 62
     7
370
    25
100
AcDbLine
 10
2163.832796
 20
1074.888353
 30
0.0
 11
2174.169583
 21
1085.22514
 31
0.0
  0
LINE
  5
C2
330
B6
100
AcDbEntity
  8
LC-004-005-----0
 62
     7
370
    25
100
AcDbLine
 10
2063.250936
 20
988.4486289999998
 30
0.0
 11
2074.655912
 21
999.8536039999999
 31
0.0
  0
LINE
  5
C3
330
B6
100
AcDbEntity
  8
LC-004-005-----0
 62
     7
370
    25
100
AcDbLine
 10
2165.812283
 20
1091.009975
 30
0.0
 11
2176.149069
 21
1101.346761
 31
0.0
  0
LINE
  5
C4
330
B6
100
AcDbEntity
  8
LC-004-005-----0
 62
     7
370
    25
100
AcDbLine
 10
2048.597076
 20
987.9369050000001
 30
0.0
 11
2060.002052
 21
999.34188
 31
0.0
  0
LINE
  5
C5
330
B6
100
AcDbEntity
  8
LC-004-005-----0
 62
     7
370
    25
100
AcDbLine
 10
2167.791769
 20
1107.131597
 30
0.0
 11
2178.128555
 21
1117.468383
 31
0.0
  0
LINE
  5
C6
330
B6
100
AcDbEntity
  8
LC-004-005-----0
 62
     7
370
    25
100
AcDbLine
 10
2033.943217
 20
987.425181
 30
0.0
 11
2045.348192
 21
998.8301560000001
 31
0.0
  0
LINE
  5
C7
330
B6
100
AcDbEntity
  8
LC-004-005-----0
 62
     7
370
    25
100
AcDbLine
 10
2169.771255
 20
1123.253219
 30
0.0
 11
2180.108041
 21
1133.590005
 31
0.0
  0
LINE
  5
C8
330
B6
100
AcDbEntity
  8
LC-004-005-----0
 62
     7
370
    25
100
AcDbLine
 10
2019.289357
 20
986.9134569999999
 30
0.0
 11
2030.694333
 21
998.3184320000001
 31
0.0
  0
LINE
  5
C9
330
B6
100
AcDbEntity
  8
LC-004-005-----0
 62
     7
370
    25
100
AcDbLine
 10
2171.750741
 20
1139.374841
 30
0.0
 11
2182.087528
 21
1149.711627
 31
0.0
  0
LINE
  5
CA
330
B6
100
AcDbEntity
  8
LC-004-005-----0
 62
     7
370
    25
100
AcDbLine
 10
2004.635497
 20
986.4017330000001
 30
0.0
 11
2016.040473
 21
997.806708
 31
0.0
  0
LINE
  5
CB
330
B6
100
AcDbEntity
  8
LC-004-005-----0
 62
     7
370
    25
100
AcDbLine
 10
2173.730228
 20
1155.496463
 30
0.0
 11
2184.067014
 21
1165.833249
 31
0.0
  0
LINE
  5
CC
330
B6
100
AcDbEntity
  8
LC-004-005-----0
 62
     7
370
    25
100
AcDbLine
 10
1989.981638
 20
985.8900079999999
 30
0.0
 11
2001.386613
 21
997.294984
 31
0.0
  0
LINE
  5
CD
330
B6
100
AcDbEntity
  8
LC-004-005-----0
 62
     7
370
    25
100
AcDbLine
 10
2175.709714
 20
1171.618085
 30
0.0
 11
2186.0465
 21
1181.954871
 31
0.0
  0
LINE
  5
CE
330
B6
100
AcDbEntity
  8
LC-004-005-----0
 62
     7
370
    25
100
AcDbLine
 10
1971.22024
 20
981.2707470000001
 30
0.0
 11
1986.732754
 21
996.7832599999999
 31
0.0
  0
LINE
  5
CF
330
B6
100
AcDbEntity
  8
LC-004-005-----0
 62
     7
370
    25
100
AcDbLine
 10
2177.6892
 20
1187.739707
 30
0.0
 11
2188.025986
 21
1198.076493
 31
0.0
  0
LINE
  5
D0
330
B6
100
AcDbEntity
  8
LC-004-005-----0
 62
     7
370
    25
100
AcDbLine
 10
2198.22024
 20
1208.270747
 30
0.0
 11
2198.360551
 21
1208.411057
 31
0.0
  0
LINE
  5
D1
330
B6
100
AcDbEntity
  8
LC-004-005-----0
 62
     7
370
    25
100
AcDbLine
 10
1959.025602
 20
983.2182439999998
 30
0.0
 11
1969.692084
 21
993.8847260000001
 31
0.0
  0
LINE
  5
D2
330
B6
100
AcDbEntity
  8
LC-004-005-----0
 62
     7
370
    25
100
AcDbLine
 10
2179.668687
 20
1203.861329
 30
0.0
 11
2197.078105
 21
1221.270747
 31
0.0
  0
LINE
  5
D3
330
B6
100
AcDbEntity
  8
LC-004-005-----0
 62
     7
370
    25
100
AcDbLine
 10
2181.648518
 20
1219.983295
 30
0.0
 11
2182.920834
 21
1221.255611
 31
0.0
  0
ENDBLK
  5
B8
330
B6
100
AcDbEntity
  8
0
100
AcDbBlockEnd
  0
BLOCK
  5
D8
330
D7
100
AcDbEntity
  8
0
100
AcDbBlockBegin
  2
*X7
 70
     1
 10
0.0
 20
0.0
 30
0.0
  3
*X7
  1

  4
*X3
  0
LINE
  5
DA
330
D7
100
AcDbEntity
  8
LC-004-005-----0
 62
     7
370
    25
100
AcDbLine
 10
2179.997371
 20
1416.322047
 30
0.0
 11
2200.37013
 21
1436.694807
 31
0.0
  0
LINE
  5
DB
330
D7
100
AcDbEntity
  8
LC-004-005-----0
 62
     7
370
    25
100
AcDbLine
 10
2164.713858
 20
1415.18067
 30
0.0
 11
2176.455055
 21
1426.921867
 31
0.0
  0
LINE
  5
DC
330
D7
100
AcDbEntity
  8
LC-004-005-----0
 62
     7
370
    25
100
AcDbLine
 10
2192.6347
 20
1443.101512
 30
0.0
 11
2204.259607
 21
1454.726419
 31
0.0
  0
LINE
  5
DD
330
D7
100
AcDbEntity
  8
LC-004-005-----0
 62
     7
370
    25
100
AcDbLine
 10
2150.059999
 20
1414.668946
 30
0.0
 11
2161.464974
 21
1426.073922
 31
0.0
  0
LINE
  5
DE
330
D7
100
AcDbEntity
  8
LC-004-005-----0
 62
     7
370
    25
100
AcDbLine
 10
2196.013802
 20
1460.62275
 30
0.0
 11
2206.350588
 21
1470.959536
 31
0.0
  0
LINE
  5
DF
330
D7
100
AcDbEntity
  8
LC-004-005-----0
 62
     7
370
    25
100
AcDbLine
 10
2135.406139
 20
1414.157222
 30
0.0
 11
2146.811114
 21
1425.562198
 31
0.0
  0
LINE
  5
E0
330
D7
100
AcDbEntity
  8
LC-004-005-----0
 62
     7
370
    25
100
AcDbLine
 10
2197.993288000001
 20
1476.744371
 30
0.0
 11
2208.330074
 21
1487.081158
 31
0.0
  0
LINE
  5
E1
330
D7
100
AcDbEntity
  8
LC-004-005-----0
 62
     7
370
    25
100
AcDbLine
 10
2120.752279
 20
1413.645498
 30
0.0
 11
2132.157255
 21
1425.050473
 31
0.0
  0
LINE
  5
E2
330
D7
100
AcDbEntity
  8
LC-004-005-----0
 62
     7
370
    25
100
AcDbLine
 10
2199.972774
 20
1492.865993
 30
0.0
 11
2210.309561
 21
1503.202779
 31
0.0
  0
LINE
  5
E3
330
D7
100
AcDbEntity
  8
LC-004-005-----0
 62
     7
370
    25
100
AcDbLine
 10
2106.098419
 20
1413.133774
 30
0.0
 11
2117.503394999999
 21
1424.538749
 31
0.0
  0
LINE
  5
E4
330
D7
100
AcDbEntity
  8
LC-004-005-----0
 62
     7
370
    25
100
AcDbLine
 10
2201.952261
 20
1508.987615
 30
0.0
 11
2212.289047
 21
1519.324401
 31
0.0
  0
LINE
  5
E5
330
D7
100
AcDbEntity
  8
LC-004-005-----0
 62
     7
370
    25
100
AcDbLine
 10
2091.444560000001
 20
1412.62205
 30
0.0
 11
2102.849535
 21
1424.027025
 31
0.0
  0
LINE
  5
E6
330
D7
100
AcDbEntity
  8
LC-004-005-----0
 62
     7
370
    25
100
AcDbLine
 10
2203.931747
 20
1525.109237
 30
0.0
 11
2214.268533
 21
1535.446023
 31
0.0
  0
LINE
  5
E7
330
D7
100
AcDbEntity
  8
LC-004-005-----0
 62
     7
370
    25
100
AcDbLine
 10
2076.7907
 20
1412.110326
 30
0.0
 11
2088.195676000001
 21
1423.515301
 31
0.0
  0
LINE
  5
E8
330
D7
100
AcDbEntity
  8
LC-004-005-----0
 62
     7
370
    25
100
AcDbLine
 10
2205.911233
 20
1541.230859
 30
0.0
 11
2216.248019
 21
1551.567645
 31
0.0
  0
LINE
  5
E9
330
D7
100
AcDbEntity
  8
LC-004-005-----0
 62
     7
370
    25
100
AcDbLine
 10
2062.074677
 20
1411.536438
 30
0.0
 11
2073.541816
 21
1423.003577
 31
0.0
  0
LINE
  5
EA
330
D7
100
AcDbEntity
  8
LC-004-005-----0
 62
     7
370
    25
100
AcDbLine
 10
2207.89072
 20
1557.352481
 30
0.0
 11
2218.227506
 21
1567.689267
 31
0.0
  0
LINE
  5
EB
330
D7
100
AcDbEntity
  8
LC-004-005-----0
 62
     7
370
    25
100
AcDbLine
 10
2043.66685
 20
1407.270747
 30
0.0
 11
2058.887956
 21
1422.491853
 31
0.0
  0
LINE
  5
EC
330
D7
100
AcDbEntity
  8
LC-004-005-----0
 62
     7
370
    25
100
AcDbLine
 10
2209.870206
 20
1573.474103
 30
0.0
 11
2220.206992
 21
1583.810889
 31
0.0
  0
LINE
  5
ED
330
D7
100
AcDbEntity
  8
LC-004-005-----0
 62
     7
370
    25
100
AcDbLine
 10
2211.849692
 20
1589.595725
 30
0.0
 11
2222.186478
 21
1599.932511
 31
0.0
  0
LINE
  5
EE
330
D7
100
AcDbEntity
  8
LC-004-005-----0
 62
     7
370
    25
100
AcDbLine
 10
2213.829178
 20
1605.717347
 30
0.0
 11
2224.165965
 21
1616.054133
 31
0.0
  0
LINE
  5
EF
330
D7
100
AcDbEntity
  8
LC-004-005-----0
 62
     7
370
    25
100
AcDbLine
 10
2215.808665
 20
1621.838968
 30
0.0
 11
2238.086087000001
 21
1644.116391
 31
0.0
  0
LINE
  5
F0
330
D7
100
AcDbEntity
  8
LC-004-005-----0
 62
     7
370
    25
100
AcDbLine
 10
2217.788151
 20
1637.96059
 30
0.0
 11
2227.098307
 21
1647.270747
 31
0.0
  0
ENDBLK
  5
D9
330
D7
100
AcDbEntity
  8
0
100
AcDbBlockEnd
  0
BLOCK
  5
F9
330
F8
100
AcDbEntity
  8
0
100
AcDbBlockBegin
  2
*X8
 70
     1
 10
0.0
 20
0.0
 30
0.0
  3
*X8
  1

  4
*X4
  0
LINE
  5
FB
330
F8
100
AcDbEntity
  8
LC-004-005-----0
 62
     7
370
    25
100
AcDbLine
 10
1944.6719
 20
1407.270747
 30
0.0
 11
1948.888467999999
 21
1411.487315
 31
0.0
  0
LINE
  5
FC
330
F8
100
AcDbEntity
  8
LC-004-005-----0
 62
     7
370
    25
100
AcDbLine
 10
1931.082324
 20
1407.823306
 30
0.0
 11
1942.435748
 21
1419.17673
 31
0.0
  0
LINE
  5
FD
330
F8
100
AcDbEntity
  8
LC-004-005-----0
 62
     7
370
    25
100
AcDbLine
 10
1920.90985
 20
1411.792967
 30
0.0
 11
1931.545161
 21
1422.428279
 31
0.0
  0
LINE
  5
FE
330
F8
100
AcDbEntity
  8
LC-004-005-----0
 62
     7
370
    25
100
AcDbLine
 10
1907.244904
 20
1412.270158
 30
0.0
 11
1917.880216
 21
1422.905469
 31
0.0
  0
LINE
  5
FF
330
F8
100
AcDbEntity
  8
LC-004-005-----0
 62
     7
370
    25
100
AcDbLine
 10
1893.579959
 20
1412.747348
 30
0.0
 11
1904.215271
 21
1423.38266
 31
0.0
  0
LINE
  5
100
330
F8
100
AcDbEntity
  8
LC-004-005-----0
 62
     7
370
    25
100
AcDbLine
 10
1879.915014
 20
1413.224538
 30
0.0
 11
1890.550326
 21
1423.85985
 31
0.0
  0
LINE
  5
101
330
F8
100
AcDbEntity
  8
LC-004-005-----0
 62
     7
370
    25
100
AcDbLine
 10
1866.250069
 20
1413.701729
 30
0.0
 11
1876.88538
 21
1424.337041
 31
0.0
  0
LINE
  5
102
330
F8
100
AcDbEntity
  8
LC-004-005-----0
 62
     7
370
    25
100
AcDbLine
 10
1852.585124
 20
1414.178919
 30
0.0
 11
1863.220435
 21
1424.814231
 31
0.0
  0
LINE
  5
103
330
F8
100
AcDbEntity
  8
LC-004-005-----0
 62
     7
370
    25
100
AcDbLine
 10
1838.920178
 20
1414.65611
 30
0.0
 11
1849.55549
 21
1425.291421
 31
0.0
  0
LINE
  5
104
330
F8
100
AcDbEntity
  8
LC-004-005-----0
 62
     7
370
    25
100
AcDbLine
 10
1825.255233
 20
1415.1333
 30
0.0
 11
1835.890545
 21
1425.768612
 31
0.0
  0
LINE
  5
105
330
F8
100
AcDbEntity
  8
LC-004-005-----0
 62
     7
370
    25
100
AcDbLine
 10
1811.790339
 20
1415.810542
 30
0.0
 11
1822.2256
 21
1426.245802
 31
0.0
  0
LINE
  5
106
330
F8
100
AcDbEntity
  8
LC-004-005-----0
 62
     7
370
    25
100
AcDbLine
 10
1801.014448
 20
1419.176787
 30
0.0
 11
1809.436984
 21
1427.599322
 31
0.0
  0
LINE
  5
107
330
F8
100
AcDbEntity
  8
LC-004-005-----0
 62
     7
370
    25
100
AcDbLine
 10
1793.532517
 20
1425.836991
 30
0.0
 11
1800.932778
 21
1433.237252
 31
0.0
  0
LINE
  5
108
330
F8
100
AcDbEntity
  8
LC-004-005-----0
 62
     7
370
    25
100
AcDbLine
 10
1788.775667
 20
1435.222277
 30
0.0
 11
1796.153447
 21
1442.600056
 31
0.0
  0
LINE
  5
109
330
F8
100
AcDbEntity
  8
LC-004-005-----0
 62
     7
370
    25
100
AcDbLine
 10
1785.793518
 20
1446.382263
 30
0.0
 11
1793.519749
 21
1454.108494
 31
0.0
  0
LINE
  5
10A
330
F8
100
AcDbEntity
  8
LC-004-005-----0
 62
     7
370
    25
100
AcDbLine
 10
1783.802444
 20
1458.533325
 30
0.0
 11
1791.865337
 21
1466.596218
 31
0.0
  0
LINE
  5
10B
330
F8
100
AcDbEntity
  8
LC-004-005-----0
 62
     7
370
    25
100
AcDbLine
 10
1782.24281
 20
1471.115827
 30
0.0
 11
1790.318793
 21
1479.191809
 31
0.0
  0
LINE
  5
10C
330
F8
100
AcDbEntity
  8
LC-004-005-----0
 62
     7
370
    25
100
AcDbLine
 10
1780.696266
 20
1483.711418
 30
0.0
 11
1788.772249
 21
1491.787401
 31
0.0
  0
LINE
  5
10D
330
F8
100
AcDbEntity
  8
LC-004-005-----0
 62
     7
370
    25
100
AcDbLine
 10
1779.149722
 20
1496.30701
 30
0.0
 11
1787.225705
 21
1504.382992
 31
0.0
  0
LINE
  5
10E
330
F8
100
AcDbEntity
  8
LC-004-005-----0
 62
     7
370
    25
100
AcDbLine
 10
1777.603178
 20
1508.902601
 30
0.0
 11
1785.67916
 21
1516.978584
 31
0.0
  0
LINE
  5
10F
330
F8
100
AcDbEntity
  8
LC-004-005-----0
 62
     7
370
    25
100
AcDbLine
 10
1776.056634
 20
1521.498193
 30
0.0
 11
1784.132616
 21
1529.574175
 31
0.0
  0
LINE
  5
110
330
F8
100
AcDbEntity
  8
LC-004-005-----0
 62
     7
370
    25
100
AcDbLine
 10
1774.510089999999
 20
1534.093784
 30
0.0
 11
1782.586072
 21
1542.169766
 31
0.0
  0
LINE
  5
111
330
F8
100
AcDbEntity
  8
LC-004-005-----0
 62
     7
370
    25
100
AcDbLine
 10
1772.963545
 20
1546.689375
 30
0.0
 11
1781.039528
 21
1554.765358
 31
0.0
  0
LINE
  5
112
330
F8
100
AcDbEntity
  8
LC-004-005-----0
 62
     7
370
    25
100
AcDbLine
 10
1771.417001
 20
1559.284967
 30
0.0
 11
1779.492984
 21
1567.360949
 31
0.0
  0
LINE
  5
113
330
F8
100
AcDbEntity
  8
LC-004-005-----0
 62
     7
370
    25
100
AcDbLine
 10
1769.870457
 20
1571.880558
 30
0.0
 11
1777.94644
 21
1579.956541
 31
0.0
  0
LINE
  5
114
330
F8
100
AcDbEntity
  8
LC-004-005-----0
 62
     7
370
    25
100
AcDbLine
 10
1768.323913
 20
1584.47615
 30
0.0
 11
1776.399895
 21
1592.552132
 31
0.0
  0
LINE
  5
115
330
F8
100
AcDbEntity
  8
LC-004-005-----0
 62
     7
370
    25
100
AcDbLine
 10
1766.777369
 20
1597.071741
 30
0.0
 11
1774.853351
 21
1605.147724
 31
0.0
  0
LINE
  5
116
330
F8
100
AcDbEntity
  8
LC-004-005-----0
 62
     7
370
    25
100
AcDbLine
 10
1765.230825
 20
1609.667333
 30
0.0
 11
1773.306807
 21
1617.743315
 31
0.0
  0
LINE
  5
117
330
F8
100
AcDbEntity
  8
LC-004-005-----0
 62
     7
370
    25
100
AcDbLine
 10
1763.68428
 20
1622.262924
 30
0.0
 11
1771.760263
 21
1630.338907
 31
0.0
  0
LINE
  5
118
330
F8
100
AcDbEntity
  8
LC-004-005-----0
 62
     7
370
    25
100
AcDbLine
 10
1760.414233
 20
1633.135013
 30
0.0
 11
1770.213719
 21
1642.934498
 31
0.0
  0
LINE
  5
119
330
F8
100
AcDbEntity
  8
LC-004-005-----0
 62
     7
370
    25
100
AcDbLine
 10
1751.948078
 20
1638.810993
 30
0.0
 11
1760.407832
 21
1647.270747
 31
0.0
  0
ENDBLK
  5
FA
330
F8
100
AcDbEntity
  8
0
100
AcDbBlockEnd
  0
BLOCK
  5
196
330
195
100
AcDbEntity
  8
0
100
AcDbBlockBegin
  2
LCDIM1
 70
     0
 10
0.0
 20
0.0
 30
0.0
  3
LCDIM1
  1

  4
LCDIM1
  0
TEXT
  5
198
330
195
100
AcDbEntity
  8
LC-003-003-----0
 62
     7
370
    25
100
AcDbText
 10
1714.108718194708
 20
1158.850297387286
 30
0.0
 40
12.5
  1
 15%%d
 50
-34.225555
  7
LCTX0-400-0-0pDIN-Schrift
 72
     1
 11
1734.779463
 21
1144.788992
 31
0.0
100
AcDbText
  0
LINE
  5
199
330
195
100
AcDbEntity
  8
LC-003-003-----0
 62
     7
370
    25
100
AcDbLine
 10
1774.335593
 20
1120.415405
 30
0.0
 11
1786.806294
 21
1121.270747
 31
0.0
  0
LINE
  5
19A
330
195
100
AcDbEntity
  8
LC-003-003-----0
 62
     7
370
    25
100
AcDbLine
 10
1786.806294
 20
1121.270747
 30
0.0
 11
1774.539143
 21
1123.672205
 31
0.0
  0
LINE
  5
19B
330
195
100
AcDbEntity
  8
LC-003-003-----0
 62
     7
370
    25
100
AcDbLine
 10
1774.539143
 20
1123.672205
 30
0.0
 11
1774.335593
 21
1120.415405
 31
0.0
  0
LINE
  5
19C
330
195
100
AcDbEntity
  8
LC-003-003-----0
 62
     7
370
    25
100
AcDbLine
 10
1774.334305
 20
1120.840523
 30
0.0
 11
1783.562623
 21
1121.473476
 31
0.0
  0
LINE
  5
19D
330
195
100
AcDbEntity
  8
LC-003-003-----0
 62
     7
370
    25
100
AcDbLine
 10
1783.562623
 20
1121.473476
 30
0.0
 11
1774.484932
 21
1123.250555
 31
0.0
  0
LINE
  5
19E
330
195
100
AcDbEntity
  8
LC-003-003-----0
 62
     7
370
    25
100
AcDbLine
 10
1774.333016
 20
1121.265641
 30
0.0
 11
1780.318953
 21
1121.676206
 31
0.0
  0
LINE
  5
19F
330
195
100
AcDbEntity
  8
LC-003-003-----0
 62
     7
370
    25
100
AcDbLine
 10
1780.318953
 20
1121.676206
 30
0.0
 11
1774.430719999999
 21
1122.828905
 31
0.0
  0
LINE
  5
1A0
330
195
100
AcDbEntity
  8
LC-003-003-----0
 62
     7
370
    25
100
AcDbLine
 10
1774.331727
 20
1121.69076
 30
0.0
 11
1777.075282
 21
1121.878935
 31
0.0
  0
LINE
  5
1A1
330
195
100
AcDbEntity
  8
LC-003-003-----0
 62
     7
370
    25
100
AcDbLine
 10
1777.075282
 20
1121.878935
 30
0.0
 11
1774.376508
 21
1122.407256
 31
0.0
  0
LINE
  5
1A2
330
195
100
AcDbEntity
  8
LC-003-003-----0
 62
     7
370
    25
100
AcDbLine
 10
1823.915814
 20
1130.172767
 30
0.0
 11
1812.688199
 21
1124.678164
 31
0.0
  0
LINE
  5
1A3
330
195
100
AcDbEntity
  8
LC-003-003-----0
 62
     7
370
    25
100
AcDbLine
 10
1812.688199
 20
1124.678164
 30
0.0
 11
1824.95535
 21
1127.079622
 31
0.0
  0
LINE
  5
1A4
330
195
100
AcDbEntity
  8
LC-003-003-----0
 62
     7
370
    25
100
AcDbLine
 10
1824.95535
 20
1127.079622
 30
0.0
 11
1823.915814
 21
1130.172767
 31
0.0
  0
LINE
  5
1A5
330
195
100
AcDbEntity
  8
LC-003-003-----0
 62
     7
370
    25
100
AcDbLine
 10
1824.077309
 20
1129.779515
 30
0.0
 11
1815.768873999999
 21
1125.713509
 31
0.0
  0
LINE
  5
1A6
330
195
100
AcDbEntity
  8
LC-003-003-----0
 62
     7
370
    25
100
AcDbLine
 10
1815.768873999999
 20
1125.713509
 30
0.0
 11
1824.846566
 21
1127.490588
 31
0.0
  0
LINE
  5
1A7
330
195
100
AcDbEntity
  8
LC-003-003-----0
 62
     7
370
    25
100
AcDbLine
 10
1824.238805
 20
1129.386264
 30
0.0
 11
1818.849549
 21
1126.748855
 31
0.0
  0
LINE
  5
1A8
330
195
100
AcDbEntity
  8
LC-003-003-----0
 62
     7
370
    25
100
AcDbLine
 10
1818.849549
 20
1126.748855
 30
0.0
 11
1824.737782
 21
1127.901555
 31
0.0
  0
LINE
  5
1A9
330
195
100
AcDbEntity
  8
LC-003-003-----0
 62
     7
370
    25
100
AcDbLine
 10
1824.4003
 20
1128.993013
 30
0.0
 11
1821.930225
 21
1127.7842
 31
0.0
  0
LINE
  5
1AA
330
195
100
AcDbEntity
  8
LC-003-003-----0
 62
     7
370
    25
100
AcDbLine
 10
1821.930225
 20
1127.7842
 30
0.0
 11
1824.628998
 21
1128.312521
 31
0.0
  0
ARC
  5
1AC
330
195
100
AcDbEntity
  8
LC-005-003-MTG-0
 62
     7
370
    25
100
AcDbCircle
 10
1786.806294
 20
1221.270747
 30
0.0
 40
100.0000000000024
100
AcDbArc
 50
226.273436
 51
294.926246
  0
ENDBLK
  5
197
330
195
100
AcDbEntity
  8
0
100
AcDbBlockEnd
  0
BLOCK
  5
1BA
330
1B0
100
AcDbEntity
  8
0
100
AcDbBlockBegin
  2
*D10
 70
     1
 10
0.0
 20
0.0
 30
0.0
  3
*D10
  1

  0
LINE
  5
1B1
330
1B0
100
AcDbEntity
  8
LC-003-003-----0
 62
     2
370
    -2
100
AcDbLine
 10
1709.681294
 20
1647.270747
 30
0.0
 11
1566.0
 21
1647.270747
 31
0.0
  0
LINE
  5
1B2
330
1B0
100
AcDbEntity
  8
LC-003-003-----0
 62
     2
370
    -2
100
AcDbLine
 10
1726.806294
 20
1407.270747
 30
0.0
 11
1566.0
 21
1407.270747
 31
0.0
  0
LINE
  5
1B3
330
1B0
100
AcDbEntity
  8
LC-003-003-----0
 62
     2
370
    -2
100
AcDbLine
 10
1575.0
 20
1634.770747
 30
0.0
 11
1575.0
 21
1419.770747
 31
0.0
  0
SOLID
  5
1B4
330
1B0
100
AcDbEntity
  8
LC-003-003-----0
 62
     2
100
AcDbTrace
 10
1577.083333
 20
1634.770747
 30
0.0
 11
1572.916667
 21
1634.770747
 31
0.0
 12
1575.0
 22
1647.270747
 32
0.0
 13
1575.0
 23
1647.270747
 33
0.0
  0
SOLID
  5
1B5
330
1B0
100
AcDbEntity
  8
LC-003-003-----0
 62
     2
100
AcDbTrace
 10
1572.916667
 20
1419.770747
 30
0.0
 11
1577.083333
 21
1419.770747
 31
0.0
 12
1575.0
 22
1407.270747
 32
0.0
 13
1575.0
 23
1407.270747
 33
0.0
  0
MTEXT
  5
1B6
330
1B0
100
AcDbEntity
  8
LC-003-003-----0
 62
     2
100
AcDbMText
 10
1560.0
 20
1527.270747
 30
0.0
 40
12.5
 41
0.0
 71
     5
 72
     1
  1
\A1;240
  7
LCTX0-400-0-0pDIN-Schrift
 11
0.0000000000000001
 21
1.0
 31
0.0
 73
     1
 44
1.0
1001
ACAD
1000
MTEXTBEGIN
1070
    73
1070
     1
1070
    44
1040
1.0
1070
    74
1070
     0
1000
MTEXTEND
  0
POINT
  5
1B7
330
1B0
100
AcDbEntity
  8
Defpoints
 62
     0
100
AcDbPoint
 10
1709.681294
 20
1647.270747
 30
0.0
  0
POINT
  5
1B8
330
1B0
100
AcDbEntity
  8
Defpoints
 62
     0
100
AcDbPoint
 10
1726.806294
 20
1407.270747
 30
0.0
  0
POINT
  5
1B9
330
1B0
100
AcDbEntity
  8
Defpoints
 62
     0
100
AcDbPoint
 10
1575.0
 20
1407.270747
 30
0.0
  0
ENDBLK
  5
1BB
330
1B0
100
AcDbEntity
  8
0
100
AcDbBlockEnd
  0
BLOCK
  5
1C8
330
1BD
100
AcDbEntity
  8
0
100
AcDbBlockBegin
  2
*D11
 70
     1
 10
0.0
 20
0.0
 30
0.0
  3
*D11
  1

  0
LINE
  5
1BE
330
1BD
100
AcDbEntity
  8
LC-003-003-----0
 62
     2
370
    -2
100
AcDbLine
 10
1766.806294
 20
752.395747
 30
0.0
 11
1666.0
 21
752.395747
 31
0.0
  0
LINE
  5
1BF
330
1BD
100
AcDbEntity
  8
LC-003-003-----0
 62
     2
370
    -2
100
AcDbLine
 10
1766.806294
 20
303.145747
 30
0.0
 11
1666.0
 21
303.145747
 31
0.0
  0
LINE
  5
1C0
330
1BD
100
AcDbEntity
  8
LC-003-003-----0
 62
     2
370
    -2
100
AcDbLine
 10
1675.0
 20
739.895747
 30
0.0
 11
1675.0
 21
567.770746
 31
0.0
  0
LINE
  5
1C1
330
1BD
100
AcDbEntity
  8
LC-003-003-----0
 62
     2
370
    -2
100
AcDbLine
 10
1675.0
 20
315.645747
 30
0.0
 11
1675.0
 21
487.7707469999999
 31
0.0
  0
SOLID
  5
1C2
330
1BD
100
AcDbEntity
  8
LC-003-003-----0
 62
     2
100
AcDbTrace
 10
1677.083333
 20
739.895747
 30
0.0
 11
1672.916667
 21
739.895747
 31
0.0
 12
1675.0
 22
752.395747
 32
0.0
 13
1675.0
 23
752.395747
 33
0.0
  0
SOLID
  5
1C3
330
1BD
100
AcDbEntity
  8
LC-003-003-----0
 62
     2
100
AcDbTrace
 10
1672.916667
 20
315.645747
 30
0.0
 11
1677.083333
 21
315.645747
 31
0.0
 12
1675.0
 22
303.145747
 32
0.0
 13
1675.0
 23
303.145747
 33
0.0
  0
MTEXT
  5
1C4
330
1BD
100
AcDbEntity
  8
LC-003-003-----0
 62
     2
100
AcDbMText
 10
1660.0
 20
527.770747
 30
0.0
 40
12.5
 41
0.0
 71
     5
 72
     1
  1
\A1;449,25
  7
LCTX0-400-0-0pDIN-Schrift
 11
0.0000000000000001
 21
1.0
 31
0.0
 73
     1
 44
1.0
1001
ACAD
1000
MTEXTBEGIN
1070
    73
1070
     1
1070
    44
1040
1.0
1070
    74
1070
     0
1000
MTEXTEND
  0
POINT
  5
1C5
330
1BD
100
AcDbEntity
  8
Defpoints
 62
     0
100
AcDbPoint
 10
1766.806294
 20
752.395747
 30
0.0
  0
POINT
  5
1C6
330
1BD
100
AcDbEntity
  8
Defpoints
 62
     0
100
AcDbPoint
 10
1766.806294
 20
303.145747
 30
0.0
  0
POINT
  5
1C7
330
1BD
100
AcDbEntity
  8
Defpoints
 62
     0
100
AcDbPoint
 10
1675.0
 20
303.145747
 30
0.0
  0
ENDBLK
  5
1C9
330
1BD
100
AcDbEntity
  8
0
100
AcDbBlockEnd
  0
BLOCK
  5
1D5
330
1CB
100
AcDbEntity
  8
0
100
AcDbBlockBegin
  2
*D12
 70
     1
 10
0.0
 20
0.0
 30
0.0
  3
*D12
  1

  0
LINE
  5
1CC
330
1CB
100
AcDbEntity
  8
LC-003-003-----0
 62
     2
370
    -2
100
AcDbLine
 10
1806.806294
 20
263.145747
 30
0.0
 11
1806.806294
 21
141.0
 31
0.0
  0
LINE
  5
1CD
330
1CB
100
AcDbEntity
  8
LC-003-003-----0
 62
     2
370
    -2
100
AcDbLine
 10
2181.806294
 20
263.145747
 30
0.0
 11
2181.806294
 21
141.0
 31
0.0
  0
LINE
  5
1CE
330
1CB
100
AcDbEntity
  8
LC-003-003-----0
 62
     2
370
    -2
100
AcDbLine
 10
1819.306294
 20
150.0
 30
0.0
 11
2169.306294
 21
150.0
 31
0.0
  0
SOLID
  5
1CF
330
1CB
100
AcDbEntity
  8
LC-003-003-----0
 62
     2
100
AcDbTrace
 10
1819.306294
 20
152.083333
 30
0.0
 11
1819.306294
 21
147.916667
 31
0.0
 12
1806.806294
 22
150.0
 32
0.0
 13
1806.806294
 23
150.0
 33
0.0
  0
SOLID
  5
1D0
330
1CB
100
AcDbEntity
  8
LC-003-003-----0
 62
     2
100
AcDbTrace
 10
2169.306294
 20
147.916667
 30
0.0
 11
2169.306294
 21
152.083333
 31
0.0
 12
2181.806294
 22
150.0
 32
0.0
 13
2181.806294
 23
150.0
 33
0.0
  0
MTEXT
  5
1D1
330
1CB
100
AcDbEntity
  8
LC-003-003-----0
 62
     2
100
AcDbMText
 10
1994.306294
 20
165.0
 30
0.0
 40
12.5
 41
0.0
 71
     5
 72
     1
  1
\A1;375
  7
LCTX0-400-0-0pDIN-Schrift
 73
     1
 44
1.0
1001
ACAD
1000
MTEXTBEGIN
1070
    73
1070
     1
1070
    44
1040
1.0
1070
    74
1070
     0
1000
MTEXTEND
  0
POINT
  5
1D2
330
1CB
100
AcDbEntity
  8
Defpoints
 62
     0
100
AcDbPoint
 10
1806.806294
 20
263.145747
 30
0.0
  0
POINT
  5
1D3
330
1CB
100
AcDbEntity
  8
Defpoints
 62
     0
100
AcDbPoint
 10
2181.806294
 20
263.145747
 30
0.0
  0
POINT
  5
1D4
330
1CB
100
AcDbEntity
  8
Defpoints
 62
     0
100
AcDbPoint
 10
2181.806294
 20
150.0
 30
0.0
  0
ENDBLK
  5
1D6
330
1CB
100
AcDbEntity
  8
0
100
AcDbBlockEnd
  0
BLOCK
  5
1FF
330
1FE
100
AcDbEntity
  8
0
100
AcDbBlockBegin
  2
*X13
 70
     1
 10
0.0
 20
0.0
 30
0.0
  3
*X13
  1

  4
*X5
  0
LINE
  5
201
330
1FE
100
AcDbEntity
  8
LC-001-002-----0
 62
     7
370
    35
100
AcDbLine
 10
501.461565
 20
1315.0
 30
0.0
 11
511.7304599999999
 21
1315.0
 31
0.0
  0
LINE
  5
202
330
1FE
100
AcDbEntity
  8
LC-001-002-----0
 62
     7
370
    35
100
AcDbLine
 10
501.4747309999999
 20
1315.1
 30
0.0
 11
511.717295
 21
1315.1
 31
0.0
  0
LINE
  5
203
330
1FE
100
AcDbEntity
  8
LC-001-002-----0
 62
     7
370
    35
100
AcDbLine
 10
501.4878959999999
 20
1315.2
 30
0.0
 11
511.7041299999999
 21
1315.2
 31
0.0
  0
LINE
  5
204
330
1FE
100
AcDbEntity
  8
LC-001-002-----0
 62
     7
370
    35
100
AcDbLine
 10
501.501061
 20
1315.3
 30
0.0
 11
511.6909639999999
 21
1315.3
 31
0.0
  0
LINE
  5
205
330
1FE
100
AcDbEntity
  8
LC-001-002-----0
 62
     7
370
    35
100
AcDbLine
 10
501.5142259999999
 20
1315.4
 30
0.0
 11
511.677799
 21
1315.4
 31
0.0
  0
LINE
  5
206
330
1FE
100
AcDbEntity
  8
LC-001-002-----0
 62
     7
370
    35
100
AcDbLine
 10
501.527392
 20
1315.5
 30
0.0
 11
511.6646339999999
 21
1315.5
 31
0.0
  0
LINE
  5
207
330
1FE
100
AcDbEntity
  8
LC-001-002-----0
 62
     7
370
    35
100
AcDbLine
 10
501.540557
 20
1315.6
 30
0.0
 11
511.651469
 21
1315.6
 31
0.0
  0
LINE
  5
208
330
1FE
100
AcDbEntity
  8
LC-001-002-----0
 62
     7
370
    35
100
AcDbLine
 10
501.5537219999999
 20
1315.7
 30
0.0
 11
511.638303
 21
1315.7
 31
0.0
  0
LINE
  5
209
330
1FE
100
AcDbEntity
  8
LC-001-002-----0
 62
     7
370
    35
100
AcDbLine
 10
501.5668869999999
 20
1315.8
 30
0.0
 11
511.625138
 21
1315.8
 31
0.0
  0
LINE
  5
20A
330
1FE
100
AcDbEntity
  8
LC-001-002-----0
 62
     7
370
    35
100
AcDbLine
 10
501.5800529999999
 20
1315.9
 30
0.0
 11
511.611973
 21
1315.9
 31
0.0
  0
LINE
  5
20B
330
1FE
100
AcDbEntity
  8
LC-001-002-----0
 62
     7
370
    35
100
AcDbLine
 10
501.593218
 20
1316.0
 30
0.0
 11
511.598808
 21
1316.0
 31
0.0
  0
LINE
  5
20C
330
1FE
100
AcDbEntity
  8
LC-001-002-----0
 62
     7
370
    35
100
AcDbLine
 10
501.606383
 20
1316.1
 30
0.0
 11
511.585642
 21
1316.1
 31
0.0
  0
LINE
  5
20D
330
1FE
100
AcDbEntity
  8
LC-001-002-----0
 62
     7
370
    35
100
AcDbLine
 10
501.619548
 20
1316.2
 30
0.0
 11
511.5724769999999
 21
1316.2
 31
0.0
  0
LINE
  5
20E
330
1FE
100
AcDbEntity
  8
LC-001-002-----0
 62
     7
370
    35
100
AcDbLine
 10
501.6327139999999
 20
1316.3
 30
0.0
 11
511.559312
 21
1316.3
 31
0.0
  0
LINE
  5
20F
330
1FE
100
AcDbEntity
  8
LC-001-002-----0
 62
     7
370
    35
100
AcDbLine
 10
501.6458789999999
 20
1316.4
 30
0.0
 11
511.5461469999999
 21
1316.4
 31
0.0
  0
LINE
  5
210
330
1FE
100
AcDbEntity
  8
LC-001-002-----0
 62
     7
370
    35
100
AcDbLine
 10
501.659044
 20
1316.5
 30
0.0
 11
511.5329809999999
 21
1316.5
 31
0.0
  0
LINE
  5
211
330
1FE
100
AcDbEntity
  8
LC-001-002-----0
 62
     7
370
    35
100
AcDbLine
 10
501.672209
 20
1316.6
 30
0.0
 11
511.519816
 21
1316.6
 31
0.0
  0
LINE
  5
212
330
1FE
100
AcDbEntity
  8
LC-001-002-----0
 62
     7
370
    35
100
AcDbLine
 10
501.685375
 20
1316.7
 30
0.0
 11
511.506651
 21
1316.7
 31
0.0
  0
LINE
  5
213
330
1FE
100
AcDbEntity
  8
LC-001-002-----0
 62
     7
370
    35
100
AcDbLine
 10
501.69854
 20
1316.8
 30
0.0
 11
511.4934859999999
 21
1316.8
 31
0.0
  0
LINE
  5
214
330
1FE
100
AcDbEntity
  8
LC-001-002-----0
 62
     7
370
    35
100
AcDbLine
 10
501.711705
 20
1316.9
 30
0.0
 11
511.4803199999999
 21
1316.9
 31
0.0
  0
LINE
  5
215
330
1FE
100
AcDbEntity
  8
LC-001-002-----0
 62
     7
370
    35
100
AcDbLine
 10
501.72487
 20
1317.0
 30
0.0
 11
511.4671549999999
 21
1317.0
 31
0.0
  0
LINE
  5
216
330
1FE
100
AcDbEntity
  8
LC-001-002-----0
 62
     7
370
    35
100
AcDbLine
 10
501.738036
 20
1317.1
 30
0.0
 11
511.45399
 21
1317.1
 31
0.0
  0
LINE
  5
217
330
1FE
100
AcDbEntity
  8
LC-001-002-----0
 62
     7
370
    35
100
AcDbLine
 10
501.7512009999999
 20
1317.2
 30
0.0
 11
511.440825
 21
1317.2
 31
0.0
  0
LINE
  5
218
330
1FE
100
AcDbEntity
  8
LC-001-002-----0
 62
     7
370
    35
100
AcDbLine
 10
501.764366
 20
1317.3
 30
0.0
 11
511.427659
 21
1317.3
 31
0.0
  0
LINE
  5
219
330
1FE
100
AcDbEntity
  8
LC-001-002-----0
 62
     7
370
    35
100
AcDbLine
 10
501.7775309999999
 20
1317.4
 30
0.0
 11
511.414494
 21
1317.4
 31
0.0
  0
LINE
  5
21A
330
1FE
100
AcDbEntity
  8
LC-001-002-----0
 62
     7
370
    35
100
AcDbLine
 10
501.7906969999999
 20
1317.5
 30
0.0
 11
511.4013289999999
 21
1317.5
 31
0.0
  0
LINE
  5
21B
330
1FE
100
AcDbEntity
  8
LC-001-002-----0
 62
     7
370
    35
100
AcDbLine
 10
501.803862
 20
1317.6
 30
0.0
 11
511.3881639999999
 21
1317.6
 31
0.0
  0
LINE
  5
21C
330
1FE
100
AcDbEntity
  8
LC-001-002-----0
 62
     7
370
    35
100
AcDbLine
 10
501.8170269999999
 20
1317.7
 30
0.0
 11
511.374998
 21
1317.7
 31
0.0
  0
LINE
  5
21D
330
1FE
100
AcDbEntity
  8
LC-001-002-----0
 62
     7
370
    35
100
AcDbLine
 10
501.8301919999999
 20
1317.8
 30
0.0
 11
511.361833
 21
1317.8
 31
0.0
  0
LINE
  5
21E
330
1FE
100
AcDbEntity
  8
LC-001-002-----0
 62
     7
370
    35
100
AcDbLine
 10
501.8433579999999
 20
1317.9
 30
0.0
 11
511.348668
 21
1317.9
 31
0.0
  0
LINE
  5
21F
330
1FE
100
AcDbEntity
  8
LC-001-002-----0
 62
     7
370
    35
100
AcDbLine
 10
501.856523
 20
1318.0
 30
0.0
 11
511.335503
 21
1318.0
 31
0.0
  0
LINE
  5
220
330
1FE
100
AcDbEntity
  8
LC-001-002-----0
 62
     7
370
    35
100
AcDbLine
 10
501.869688
 20
1318.1
 30
0.0
 11
511.322337
 21
1318.1
 31
0.0
  0
LINE
  5
221
330
1FE
100
AcDbEntity
  8
LC-001-002-----0
 62
     7
370
    35
100
AcDbLine
 10
501.882853
 20
1318.2
 30
0.0
 11
511.3091719999999
 21
1318.2
 31
0.0
  0
LINE
  5
222
330
1FE
100
AcDbEntity
  8
LC-001-002-----0
 62
     7
370
    35
100
AcDbLine
 10
501.896019
 20
1318.3
 30
0.0
 11
511.296007
 21
1318.3
 31
0.0
  0
LINE
  5
223
330
1FE
100
AcDbEntity
  8
LC-001-002-----0
 62
     7
370
    35
100
AcDbLine
 10
501.9091839999999
 20
1318.4
 30
0.0
 11
511.282842
 21
1318.4
 31
0.0
  0
LINE
  5
224
330
1FE
100
AcDbEntity
  8
LC-001-002-----0
 62
     7
370
    35
100
AcDbLine
 10
501.9223489999999
 20
1318.5
 30
0.0
 11
511.269676
 21
1318.5
 31
0.0
  0
LINE
  5
225
330
1FE
100
AcDbEntity
  8
LC-001-002-----0
 62
     7
370
    35
100
AcDbLine
 10
501.935514
 20
1318.6
 30
0.0
 11
511.256511
 21
1318.6
 31
0.0
  0
LINE
  5
226
330
1FE
100
AcDbEntity
  8
LC-001-002-----0
 62
     7
370
    35
100
AcDbLine
 10
501.94868
 20
1318.7
 30
0.0
 11
511.243346
 21
1318.7
 31
0.0
  0
LINE
  5
227
330
1FE
100
AcDbEntity
  8
LC-001-002-----0
 62
     7
370
    35
100
AcDbLine
 10
501.961845
 20
1318.8
 30
0.0
 11
511.2301809999999
 21
1318.8
 31
0.0
  0
LINE
  5
228
330
1FE
100
AcDbEntity
  8
LC-001-002-----0
 62
     7
370
    35
100
AcDbLine
 10
501.9750099999999
 20
1318.9
 30
0.0
 11
511.217015
 21
1318.9
 31
0.0
  0
LINE
  5
229
330
1FE
100
AcDbEntity
  8
LC-001-002-----0
 62
     7
370
    35
100
AcDbLine
 10
501.988175
 20
1319.0
 30
0.0
 11
511.2038499999999
 21
1319.0
 31
0.0
  0
LINE
  5
22A
330
1FE
100
AcDbEntity
  8
LC-001-002-----0
 62
     7
370
    35
100
AcDbLine
 10
502.001341
 20
1319.1
 30
0.0
 11
511.1906849999999
 21
1319.1
 31
0.0
  0
LINE
  5
22B
330
1FE
100
AcDbEntity
  8
LC-001-002-----0
 62
     7
370
    35
100
AcDbLine
 10
502.0145059999999
 20
1319.2
 30
0.0
 11
511.17752
 21
1319.2
 31
0.0
  0
LINE
  5
22C
330
1FE
100
AcDbEntity
  8
LC-001-002-----0
 62
     7
370
    35
100
AcDbLine
 10
502.027671
 20
1319.3
 30
0.0
 11
511.164354
 21
1319.3
 31
0.0
  0
LINE
  5
22D
330
1FE
100
AcDbEntity
  8
LC-001-002-----0
 62
     7
370
    35
100
AcDbLine
 10
502.040836
 20
1319.4
 30
0.0
 11
511.151189
 21
1319.4
 31
0.0
  0
LINE
  5
22E
330
1FE
100
AcDbEntity
  8
LC-001-002-----0
 62
     7
370
    35
100
AcDbLine
 10
502.0540019999999
 20
1319.5
 30
0.0
 11
511.138024
 21
1319.5
 31
0.0
  0
LINE
  5
22F
330
1FE
100
AcDbEntity
  8
LC-001-002-----0
 62
     7
370
    35
100
AcDbLine
 10
502.0671669999999
 20
1319.6
 30
0.0
 11
511.1248589999999
 21
1319.6
 31
0.0
  0
LINE
  5
230
330
1FE
100
AcDbEntity
  8
LC-001-002-----0
 62
     7
370
    35
100
AcDbLine
 10
502.080332
 20
1319.7
 30
0.0
 11
511.1116929999999
 21
1319.7
 31
0.0
  0
LINE
  5
231
330
1FE
100
AcDbEntity
  8
LC-001-002-----0
 62
     7
370
    35
100
AcDbLine
 10
502.0934969999999
 20
1319.8
 30
0.0
 11
511.098528
 21
1319.8
 31
0.0
  0
LINE
  5
232
330
1FE
100
AcDbEntity
  8
LC-001-002-----0
 62
     7
370
    35
100
AcDbLine
 10
502.1066629999999
 20
1319.9
 30
0.0
 11
511.085363
 21
1319.9
 31
0.0
  0
LINE
  5
233
330
1FE
100
AcDbEntity
  8
LC-001-002-----0
 62
     7
370
    35
100
AcDbLine
 10
502.119828
 20
1320.0
 30
0.0
 11
511.072198
 21
1320.0
 31
0.0
  0
LINE
  5
234
330
1FE
100
AcDbEntity
  8
LC-001-002-----0
 62
     7
370
    35
100
AcDbLine
 10
502.1329929999999
 20
1320.1
 30
0.0
 11
511.059032
 21
1320.1
 31
0.0
  0
LINE
  5
235
330
1FE
100
AcDbEntity
  8
LC-001-002-----0
 62
     7
370
    35
100
AcDbLine
 10
502.146158
 20
1320.2
 30
0.0
 11
511.0458669999999
 21
1320.2
 31
0.0
  0
LINE
  5
236
330
1FE
100
AcDbEntity
  8
LC-001-002-----0
 62
     7
370
    35
100
AcDbLine
 10
502.159324
 20
1320.3
 30
0.0
 11
511.0327019999999
 21
1320.3
 31
0.0
  0
LINE
  5
237
330
1FE
100
AcDbEntity
  8
LC-001-002-----0
 62
     7
370
    35
100
AcDbLine
 10
502.1724889999999
 20
1320.4
 30
0.0
 11
511.019537
 21
1320.4
 31
0.0
  0
LINE
  5
238
330
1FE
100
AcDbEntity
  8
LC-001-002-----0
 62
     7
370
    35
100
AcDbLine
 10
502.1856539999999
 20
1320.5
 30
0.0
 11
511.006371
 21
1320.5
 31
0.0
  0
LINE
  5
239
330
1FE
100
AcDbEntity
  8
LC-001-002-----0
 62
     7
370
    35
100
AcDbLine
 10
502.198819
 20
1320.6
 30
0.0
 11
510.993206
 21
1320.6
 31
0.0
  0
LINE
  5
23A
330
1FE
100
AcDbEntity
  8
LC-001-002-----0
 62
     7
370
    35
100
AcDbLine
 10
502.211985
 20
1320.7
 30
0.0
 11
510.980041
 21
1320.7
 31
0.0
  0
LINE
  5
23B
330
1FE
100
AcDbEntity
  8
LC-001-002-----0
 62
     7
370
    35
100
AcDbLine
 10
502.22515
 20
1320.8
 30
0.0
 11
510.9668759999999
 21
1320.8
 31
0.0
  0
LINE
  5
23C
330
1FE
100
AcDbEntity
  8
LC-001-002-----0
 62
     7
370
    35
100
AcDbLine
 10
502.238315
 20
1320.9
 30
0.0
 11
510.9537099999999
 21
1320.9
 31
0.0
  0
LINE
  5
23D
330
1FE
100
AcDbEntity
  8
LC-001-002-----0
 62
     7
370
    35
100
AcDbLine
 10
502.2514799999999
 20
1321.0
 30
0.0
 11
510.940545
 21
1321.0
 31
0.0
  0
LINE
  5
23E
330
1FE
100
AcDbEntity
  8
LC-001-002-----0
 62
     7
370
    35
100
AcDbLine
 10
502.2646459999999
 20
1321.1
 30
0.0
 11
510.9273799999999
 21
1321.1
 31
0.0
  0
LINE
  5
23F
330
1FE
100
AcDbEntity
  8
LC-001-002-----0
 62
     7
370
    35
100
AcDbLine
 10
502.277811
 20
1321.2
 30
0.0
 11
510.914215
 21
1321.2
 31
0.0
  0
LINE
  5
240
330
1FE
100
AcDbEntity
  8
LC-001-002-----0
 62
     7
370
    35
100
AcDbLine
 10
502.290976
 20
1321.3
 30
0.0
 11
510.901049
 21
1321.3
 31
0.0
  0
LINE
  5
241
330
1FE
100
AcDbEntity
  8
LC-001-002-----0
 62
     7
370
    35
100
AcDbLine
 10
502.304141
 20
1321.4
 30
0.0
 11
510.887884
 21
1321.4
 31
0.0
  0
LINE
  5
242
330
1FE
100
AcDbEntity
  8
LC-001-002-----0
 62
     7
370
    35
100
AcDbLine
 10
502.317307
 20
1321.5
 30
0.0
 11
510.874719
 21
1321.5
 31
0.0
  0
LINE
  5
243
330
1FE
100
AcDbEntity
  8
LC-001-002-----0
 62
     7
370
    35
100
AcDbLine
 10
502.3304719999999
 20
1321.6
 30
0.0
 11
510.861554
 21
1321.6
 31
0.0
  0
LINE
  5
244
330
1FE
100
AcDbEntity
  8
LC-001-002-----0
 62
     7
370
    35
100
AcDbLine
 10
502.3436369999999
 20
1321.7
 30
0.0
 11
510.848388
 21
1321.7
 31
0.0
  0
LINE
  5
245
330
1FE
100
AcDbEntity
  8
LC-001-002-----0
 62
     7
370
    35
100
AcDbLine
 10
502.3568019999999
 20
1321.8
 30
0.0
 11
510.835223
 21
1321.8
 31
0.0
  0
LINE
  5
246
330
1FE
100
AcDbEntity
  8
LC-001-002-----0
 62
     7
370
    35
100
AcDbLine
 10
502.369968
 20
1321.9
 30
0.0
 11
510.822058
 21
1321.9
 31
0.0
  0
LINE
  5
247
330
1FE
100
AcDbEntity
  8
LC-001-002-----0
 62
     7
370
    35
100
AcDbLine
 10
502.383133
 20
1322.0
 30
0.0
 11
510.808893
 21
1322.0
 31
0.0
  0
LINE
  5
248
330
1FE
100
AcDbEntity
  8
LC-001-002-----0
 62
     7
370
    35
100
AcDbLine
 10
502.396298
 20
1322.1
 30
0.0
 11
510.7957269999999
 21
1322.1
 31
0.0
  0
LINE
  5
249
330
1FE
100
AcDbEntity
  8
LC-001-002-----0
 62
     7
370
    35
100
AcDbLine
 10
502.409463
 20
1322.2
 30
0.0
 11
510.7825619999999
 21
1322.2
 31
0.0
  0
LINE
  5
24A
330
1FE
100
AcDbEntity
  8
LC-001-002-----0
 62
     7
370
    35
100
AcDbLine
 10
502.422629
 20
1322.3
 30
0.0
 11
510.7693969999999
 21
1322.3
 31
0.0
  0
LINE
  5
24B
330
1FE
100
AcDbEntity
  8
LC-001-002-----0
 62
     7
370
    35
100
AcDbLine
 10
502.435794
 20
1322.4
 30
0.0
 11
510.756232
 21
1322.4
 31
0.0
  0
LINE
  5
24C
330
1FE
100
AcDbEntity
  8
LC-001-002-----0
 62
     7
370
    35
100
AcDbLine
 10
502.4489589999999
 20
1322.5
 30
0.0
 11
510.743066
 21
1322.5
 31
0.0
  0
LINE
  5
24D
330
1FE
100
AcDbEntity
  8
LC-001-002-----0
 62
     7
370
    35
100
AcDbLine
 10
502.462124
 20
1322.6
 30
0.0
 11
510.729901
 21
1322.6
 31
0.0
  0
LINE
  5
24E
330
1FE
100
AcDbEntity
  8
LC-001-002-----0
 62
     7
370
    35
100
AcDbLine
 10
502.47529
 20
1322.7
 30
0.0
 11
510.716736
 21
1322.7
 31
0.0
  0
LINE
  5
24F
330
1FE
100
AcDbEntity
  8
LC-001-002-----0
 62
     7
370
    35
100
AcDbLine
 10
502.488455
 20
1322.8
 30
0.0
 11
510.7035709999999
 21
1322.8
 31
0.0
  0
LINE
  5
250
330
1FE
100
AcDbEntity
  8
LC-001-002-----0
 62
     7
370
    35
100
AcDbLine
 10
502.50162
 20
1322.9
 30
0.0
 11
510.6904049999999
 21
1322.9
 31
0.0
  0
LINE
  5
251
330
1FE
100
AcDbEntity
  8
LC-001-002-----0
 62
     7
370
    35
100
AcDbLine
 10
502.5147849999999
 20
1323.0
 30
0.0
 11
510.67724
 21
1323.0
 31
0.0
  0
LINE
  5
252
330
1FE
100
AcDbEntity
  8
LC-001-002-----0
 62
     7
370
    35
100
AcDbLine
 10
502.5279509999999
 20
1323.1
 30
0.0
 11
510.664075
 21
1323.1
 31
0.0
  0
LINE
  5
253
330
1FE
100
AcDbEntity
  8
LC-001-002-----0
 62
     7
370
    35
100
AcDbLine
 10
502.5411159999999
 20
1323.2
 30
0.0
 11
510.6509099999999
 21
1323.2
 31
0.0
  0
LINE
  5
254
330
1FE
100
AcDbEntity
  8
LC-001-002-----0
 62
     7
370
    35
100
AcDbLine
 10
502.5542809999999
 20
1323.3
 30
0.0
 11
510.6377440000001
 21
1323.3
 31
0.0
  0
LINE
  5
255
330
1FE
100
AcDbEntity
  8
LC-001-002-----0
 62
     7
370
    35
100
AcDbLine
 10
502.567446
 20
1323.4
 30
0.0
 11
510.624579
 21
1323.4
 31
0.0
  0
LINE
  5
256
330
1FE
100
AcDbEntity
  8
LC-001-002-----0
 62
     7
370
    35
100
AcDbLine
 10
502.580612
 20
1323.5
 30
0.0
 11
510.6114139999999
 21
1323.5
 31
0.0
  0
LINE
  5
257
330
1FE
100
AcDbEntity
  8
LC-001-002-----0
 62
     7
370
    35
100
AcDbLine
 10
502.5937769999999
 20
1323.6
 30
0.0
 11
510.598249
 21
1323.6
 31
0.0
  0
LINE
  5
258
330
1FE
100
AcDbEntity
  8
LC-001-002-----0
 62
     7
370
    35
100
AcDbLine
 10
502.6069419999999
 20
1323.7
 30
0.0
 11
510.585083
 21
1323.7
 31
0.0
  0
LINE
  5
259
330
1FE
100
AcDbEntity
  8
LC-001-002-----0
 62
     7
370
    35
100
AcDbLine
 10
502.6201069999999
 20
1323.8
 30
0.0
 11
510.571918
 21
1323.8
 31
0.0
  0
LINE
  5
25A
330
1FE
100
AcDbEntity
  8
LC-001-002-----0
 62
     7
370
    35
100
AcDbLine
 10
502.633273
 20
1323.9
 30
0.0
 11
510.558753
 21
1323.9
 31
0.0
  0
LINE
  5
25B
330
1FE
100
AcDbEntity
  8
LC-001-002-----0
 62
     7
370
    35
100
AcDbLine
 10
502.646438
 20
1324.0
 30
0.0
 11
510.545588
 21
1324.0
 31
0.0
  0
LINE
  5
25C
330
1FE
100
AcDbEntity
  8
LC-001-002-----0
 62
     7
370
    35
100
AcDbLine
 10
502.659603
 20
1324.1
 30
0.0
 11
510.5324219999999
 21
1324.1
 31
0.0
  0
LINE
  5
25D
330
1FE
100
AcDbEntity
  8
LC-001-002-----0
 62
     7
370
    35
100
AcDbLine
 10
502.6727679999999
 20
1324.2
 30
0.0
 11
510.519257
 21
1324.2
 31
0.0
  0
LINE
  5
25E
330
1FE
100
AcDbEntity
  8
LC-001-002-----0
 62
     7
370
    35
100
AcDbLine
 10
502.6859339999999
 20
1324.3
 30
0.0
 11
510.5060919999999
 21
1324.3
 31
0.0
  0
LINE
  5
25F
330
1FE
100
AcDbEntity
  8
LC-001-002-----0
 62
     7
370
    35
100
AcDbLine
 10
502.699099
 20
1324.4
 30
0.0
 11
510.4929269999999
 21
1324.4
 31
0.0
  0
LINE
  5
260
330
1FE
100
AcDbEntity
  8
LC-001-002-----0
 62
     7
370
    35
100
AcDbLine
 10
502.7122639999999
 20
1324.5
 30
0.0
 11
510.479761
 21
1324.5
 31
0.0
  0
LINE
  5
261
330
1FE
100
AcDbEntity
  8
LC-001-002-----0
 62
     7
370
    35
100
AcDbLine
 10
502.725429
 20
1324.6
 30
0.0
 11
510.466596
 21
1324.6
 31
0.0
  0
LINE
  5
262
330
1FE
100
AcDbEntity
  8
LC-001-002-----0
 62
     7
370
    35
100
AcDbLine
 10
502.738595
 20
1324.7
 30
0.0
 11
510.453431
 21
1324.7
 31
0.0
  0
LINE
  5
263
330
1FE
100
AcDbEntity
  8
LC-001-002-----0
 62
     7
370
    35
100
AcDbLine
 10
502.75176
 20
1324.8
 30
0.0
 11
510.4402659999999
 21
1324.8
 31
0.0
  0
LINE
  5
264
330
1FE
100
AcDbEntity
  8
LC-001-002-----0
 62
     7
370
    35
100
AcDbLine
 10
502.764925
 20
1324.9
 30
0.0
 11
510.4270999999999
 21
1324.9
 31
0.0
  0
LINE
  5
265
330
1FE
100
AcDbEntity
  8
LC-001-002-----0
 62
     7
370
    35
100
AcDbLine
 10
502.77809
 20
1325.0
 30
0.0
 11
510.4139349999999
 21
1325.0
 31
0.0
  0
LINE
  5
266
330
1FE
100
AcDbEntity
  8
LC-001-002-----0
 62
     7
370
    35
100
AcDbLine
 10
502.7912559999999
 20
1325.1
 30
0.0
 11
510.40077
 21
1325.1
 31
0.0
  0
LINE
  5
267
330
1FE
100
AcDbEntity
  8
LC-001-002-----0
 62
     7
370
    35
100
AcDbLine
 10
502.804421
 20
1325.2
 30
0.0
 11
510.387605
 21
1325.2
 31
0.0
  0
LINE
  5
268
330
1FE
100
AcDbEntity
  8
LC-001-002-----0
 62
     7
370
    35
100
AcDbLine
 10
502.817586
 20
1325.3
 30
0.0
 11
510.3744389999999
 21
1325.3
 31
0.0
  0
LINE
  5
269
330
1FE
100
AcDbEntity
  8
LC-001-002-----0
 62
     7
370
    35
100
AcDbLine
 10
502.8307509999999
 20
1325.4
 30
0.0
 11
510.361274
 21
1325.4
 31
0.0
  0
LINE
  5
26A
330
1FE
100
AcDbEntity
  8
LC-001-002-----0
 62
     7
370
    35
100
AcDbLine
 10
502.8439169999999
 20
1325.5
 30
0.0
 11
510.3481089999999
 21
1325.5
 31
0.0
  0
LINE
  5
26B
330
1FE
100
AcDbEntity
  8
LC-001-002-----0
 62
     7
370
    35
100
AcDbLine
 10
502.857082
 20
1325.6
 30
0.0
 11
510.334944
 21
1325.6
 31
0.0
  0
LINE
  5
26C
330
1FE
100
AcDbEntity
  8
LC-001-002-----0
 62
     7
370
    35
100
AcDbLine
 10
502.8702469999999
 20
1325.7
 30
0.0
 11
510.321778
 21
1325.7
 31
0.0
  0
LINE
  5
26D
330
1FE
100
AcDbEntity
  8
LC-001-002-----0
 62
     7
370
    35
100
AcDbLine
 10
502.8834119999999
 20
1325.8
 30
0.0
 11
510.308613
 21
1325.8
 31
0.0
  0
LINE
  5
26E
330
1FE
100
AcDbEntity
  8
LC-001-002-----0
 62
     7
370
    35
100
AcDbLine
 10
502.896578
 20
1325.9
 30
0.0
 11
510.295448
 21
1325.9
 31
0.0
  0
LINE
  5
26F
330
1FE
100
AcDbEntity
  8
LC-001-002-----0
 62
     7
370
    35
100
AcDbLine
 10
502.909743
 20
1326.0
 30
0.0
 11
510.282283
 21
1326.0
 31
0.0
  0
LINE
  5
270
330
1FE
100
AcDbEntity
  8
LC-001-002-----0
 62
     7
370
    35
100
AcDbLine
 10
502.922908
 20
1326.1
 30
0.0
 11
510.2691169999999
 21
1326.1
 31
0.0
  0
LINE
  5
271
330
1FE
100
AcDbEntity
  8
LC-001-002-----0
 62
     7
370
    35
100
AcDbLine
 10
502.936073
 20
1326.2
 30
0.0
 11
510.2559519999999
 21
1326.2
 31
0.0
  0
LINE
  5
272
330
1FE
100
AcDbEntity
  8
LC-001-002-----0
 62
     7
370
    35
100
AcDbLine
 10
502.9492389999999
 20
1326.3
 30
0.0
 11
510.242787
 21
1326.3
 31
0.0
  0
LINE
  5
273
330
1FE
100
AcDbEntity
  8
LC-001-002-----0
 62
     7
370
    35
100
AcDbLine
 10
502.9624039999999
 20
1326.4
 30
0.0
 11
510.2296219999999
 21
1326.4
 31
0.0
  0
LINE
  5
274
330
1FE
100
AcDbEntity
  8
LC-001-002-----0
 62
     7
370
    35
100
AcDbLine
 10
502.975569
 20
1326.5
 30
0.0
 11
510.2164559999999
 21
1326.5
 31
0.0
  0
LINE
  5
275
330
1FE
100
AcDbEntity
  8
LC-001-002-----0
 62
     7
370
    35
100
AcDbLine
 10
502.988734
 20
1326.6
 30
0.0
 11
510.203291
 21
1326.6
 31
0.0
  0
LINE
  5
276
330
1FE
100
AcDbEntity
  8
LC-001-002-----0
 62
     7
370
    35
100
AcDbLine
 10
503.0019
 20
1326.7
 30
0.0
 11
510.1901259999999
 21
1326.7
 31
0.0
  0
LINE
  5
277
330
1FE
100
AcDbEntity
  8
LC-001-002-----0
 62
     7
370
    35
100
AcDbLine
 10
503.015065
 20
1326.8
 30
0.0
 11
510.1769609999999
 21
1326.8
 31
0.0
  0
LINE
  5
278
330
1FE
100
AcDbEntity
  8
LC-001-002-----0
 62
     7
370
    35
100
AcDbLine
 10
503.02823
 20
1326.9
 30
0.0
 11
510.1637949999999
 21
1326.9
 31
0.0
  0
LINE
  5
279
330
1FE
100
AcDbEntity
  8
LC-001-002-----0
 62
     7
370
    35
100
AcDbLine
 10
503.041395
 20
1327.0
 30
0.0
 11
510.1506299999999
 21
1327.0
 31
0.0
  0
LINE
  5
27A
330
1FE
100
AcDbEntity
  8
LC-001-002-----0
 62
     7
370
    35
100
AcDbLine
 10
503.054561
 20
1327.1
 30
0.0
 11
510.137465
 21
1327.1
 31
0.0
  0
LINE
  5
27B
330
1FE
100
AcDbEntity
  8
LC-001-002-----0
 62
     7
370
    35
100
AcDbLine
 10
503.067726
 20
1327.2
 30
0.0
 11
510.1243
 21
1327.2
 31
0.0
  0
LINE
  5
27C
330
1FE
100
AcDbEntity
  8
LC-001-002-----0
 62
     7
370
    35
100
AcDbLine
 10
503.080891
 20
1327.3
 30
0.0
 11
510.111134
 21
1327.3
 31
0.0
  0
LINE
  5
27D
330
1FE
100
AcDbEntity
  8
LC-001-002-----0
 62
     7
370
    35
100
AcDbLine
 10
503.0940559999999
 20
1327.4
 30
0.0
 11
510.097969
 21
1327.4
 31
0.0
  0
LINE
  5
27E
330
1FE
100
AcDbEntity
  8
LC-001-002-----0
 62
     7
370
    35
100
AcDbLine
 10
503.1072219999999
 20
1327.5
 30
0.0
 11
510.084804
 21
1327.5
 31
0.0
  0
LINE
  5
27F
330
1FE
100
AcDbEntity
  8
LC-001-002-----0
 62
     7
370
    35
100
AcDbLine
 10
503.1203869999999
 20
1327.6
 30
0.0
 11
510.0716389999999
 21
1327.6
 31
0.0
  0
LINE
  5
280
330
1FE
100
AcDbEntity
  8
LC-001-002-----0
 62
     7
370
    35
100
AcDbLine
 10
503.1335519999999
 20
1327.7
 30
0.0
 11
510.058473
 21
1327.7
 31
0.0
  0
LINE
  5
281
330
1FE
100
AcDbEntity
  8
LC-001-002-----0
 62
     7
370
    35
100
AcDbLine
 10
503.1467169999999
 20
1327.8
 30
0.0
 11
510.045308
 21
1327.8
 31
0.0
  0
LINE
  5
282
330
1FE
100
AcDbEntity
  8
LC-001-002-----0
 62
     7
370
    35
100
AcDbLine
 10
503.159883
 20
1327.9
 30
0.0
 11
510.032143
 21
1327.9
 31
0.0
  0
LINE
  5
283
330
1FE
100
AcDbEntity
  8
LC-001-002-----0
 62
     7
370
    35
100
AcDbLine
 10
503.173048
 20
1328.0
 30
0.0
 11
510.018978
 21
1328.0
 31
0.0
  0
LINE
  5
284
330
1FE
100
AcDbEntity
  8
LC-001-002-----0
 62
     7
370
    35
100
AcDbLine
 10
503.186213
 20
1328.1
 30
0.0
 11
510.0058119999999
 21
1328.1
 31
0.0
  0
LINE
  5
285
330
1FE
100
AcDbEntity
  8
LC-001-002-----0
 62
     7
370
    35
100
AcDbLine
 10
503.199378
 20
1328.2
 30
0.0
 11
509.9926469999999
 21
1328.2
 31
0.0
  0
LINE
  5
286
330
1FE
100
AcDbEntity
  8
LC-001-002-----0
 62
     7
370
    35
100
AcDbLine
 10
503.212544
 20
1328.3
 30
0.0
 11
509.979482
 21
1328.3
 31
0.0
  0
LINE
  5
287
330
1FE
100
AcDbEntity
  8
LC-001-002-----0
 62
     7
370
    35
100
AcDbLine
 10
503.2257089999999
 20
1328.4
 30
0.0
 11
509.966317
 21
1328.4
 31
0.0
  0
LINE
  5
288
330
1FE
100
AcDbEntity
  8
LC-001-002-----0
 62
     7
370
    35
100
AcDbLine
 10
503.238874
 20
1328.5
 30
0.0
 11
509.953151
 21
1328.5
 31
0.0
  0
LINE
  5
289
330
1FE
100
AcDbEntity
  8
LC-001-002-----0
 62
     7
370
    35
100
AcDbLine
 10
503.252039
 20
1328.6
 30
0.0
 11
509.939986
 21
1328.6
 31
0.0
  0
LINE
  5
28A
330
1FE
100
AcDbEntity
  8
LC-001-002-----0
 62
     7
370
    35
100
AcDbLine
 10
503.265205
 20
1328.7
 30
0.0
 11
509.9268209999999
 21
1328.7
 31
0.0
  0
LINE
  5
28B
330
1FE
100
AcDbEntity
  8
LC-001-002-----0
 62
     7
370
    35
100
AcDbLine
 10
503.27837
 20
1328.8
 30
0.0
 11
509.9136559999999
 21
1328.8
 31
0.0
  0
LINE
  5
28C
330
1FE
100
AcDbEntity
  8
LC-001-002-----0
 62
     7
370
    35
100
AcDbLine
 10
503.2915349999999
 20
1328.9
 30
0.0
 11
509.90049
 21
1328.9
 31
0.0
  0
LINE
  5
28D
330
1FE
100
AcDbEntity
  8
LC-001-002-----0
 62
     7
370
    35
100
AcDbLine
 10
503.3047
 20
1329.0
 30
0.0
 11
509.8873249999999
 21
1329.0
 31
0.0
  0
LINE
  5
28E
330
1FE
100
AcDbEntity
  8
LC-001-002-----0
 62
     7
370
    35
100
AcDbLine
 10
503.317866
 20
1329.1
 30
0.0
 11
509.8741599999999
 21
1329.1
 31
0.0
  0
LINE
  5
28F
330
1FE
100
AcDbEntity
  8
LC-001-002-----0
 62
     7
370
    35
100
AcDbLine
 10
503.3310309999999
 20
1329.2
 30
0.0
 11
509.860995
 21
1329.2
 31
0.0
  0
LINE
  5
290
330
1FE
100
AcDbEntity
  8
LC-001-002-----0
 62
     7
370
    35
100
AcDbLine
 10
503.344196
 20
1329.3
 30
0.0
 11
509.847829
 21
1329.3
 31
0.0
  0
LINE
  5
291
330
1FE
100
AcDbEntity
  8
LC-001-002-----0
 62
     7
370
    35
100
AcDbLine
 10
503.357361
 20
1329.4
 30
0.0
 11
509.8346639999999
 21
1329.4
 31
0.0
  0
LINE
  5
292
330
1FE
100
AcDbEntity
  8
LC-001-002-----0
 62
     7
370
    35
100
AcDbLine
 10
503.3705269999999
 20
1329.5
 30
0.0
 11
509.821499
 21
1329.5
 31
0.0
  0
LINE
  5
293
330
1FE
100
AcDbEntity
  8
LC-001-002-----0
 62
     7
370
    35
100
AcDbLine
 10
503.3836919999999
 20
1329.6
 30
0.0
 11
509.808334
 21
1329.6
 31
0.0
  0
LINE
  5
294
330
1FE
100
AcDbEntity
  8
LC-001-002-----0
 62
     7
370
    35
100
AcDbLine
 10
503.3968569999999
 20
1329.7
 30
0.0
 11
509.795168
 21
1329.7
 31
0.0
  0
LINE
  5
295
330
1FE
100
AcDbEntity
  8
LC-001-002-----0
 62
     7
370
    35
100
AcDbLine
 10
503.410022
 20
1329.8
 30
0.0
 11
509.782003
 21
1329.8
 31
0.0
  0
LINE
  5
296
330
1FE
100
AcDbEntity
  8
LC-001-002-----0
 62
     7
370
    35
100
AcDbLine
 10
503.423188
 20
1329.9
 30
0.0
 11
509.768838
 21
1329.9
 31
0.0
  0
LINE
  5
297
330
1FE
100
AcDbEntity
  8
LC-001-002-----0
 62
     7
370
    35
100
AcDbLine
 10
503.436353
 20
1330.0
 30
0.0
 11
509.755673
 21
1330.0
 31
0.0
  0
LINE
  5
298
330
1FE
100
AcDbEntity
  8
LC-001-002-----0
 62
     7
370
    35
100
AcDbLine
 10
503.4495179999999
 20
1330.1
 30
0.0
 11
509.742507
 21
1330.1
 31
0.0
  0
LINE
  5
299
330
1FE
100
AcDbEntity
  8
LC-001-002-----0
 62
     7
370
    35
100
AcDbLine
 10
503.462683
 20
1330.2
 30
0.0
 11
509.7293419999999
 21
1330.2
 31
0.0
  0
LINE
  5
29A
330
1FE
100
AcDbEntity
  8
LC-001-002-----0
 62
     7
370
    35
100
AcDbLine
 10
503.475849
 20
1330.3
 30
0.0
 11
509.7161769999999
 21
1330.3
 31
0.0
  0
LINE
  5
29B
330
1FE
100
AcDbEntity
  8
LC-001-002-----0
 62
     7
370
    35
100
AcDbLine
 10
503.4890139999999
 20
1330.4
 30
0.0
 11
509.703012
 21
1330.4
 31
0.0
  0
LINE
  5
29C
330
1FE
100
AcDbEntity
  8
LC-001-002-----0
 62
     7
370
    35
100
AcDbLine
 10
503.502179
 20
1330.5
 30
0.0
 11
509.689846
 21
1330.5
 31
0.0
  0
LINE
  5
29D
330
1FE
100
AcDbEntity
  8
LC-001-002-----0
 62
     7
370
    35
100
AcDbLine
 10
503.515344
 20
1330.6
 30
0.0
 11
509.676681
 21
1330.6
 31
0.0
  0
LINE
  5
29E
330
1FE
100
AcDbEntity
  8
LC-001-002-----0
 62
     7
370
    35
100
AcDbLine
 10
503.52851
 20
1330.7
 30
0.0
 11
509.6635159999999
 21
1330.7
 31
0.0
  0
LINE
  5
29F
330
1FE
100
AcDbEntity
  8
LC-001-002-----0
 62
     7
370
    35
100
AcDbLine
 10
503.541675
 20
1330.8
 30
0.0
 11
509.6503509999999
 21
1330.8
 31
0.0
  0
LINE
  5
2A0
330
1FE
100
AcDbEntity
  8
LC-001-002-----0
 62
     7
370
    35
100
AcDbLine
 10
503.55484
 20
1330.9
 30
0.0
 11
509.6371849999999
 21
1330.9
 31
0.0
  0
LINE
  5
2A1
330
1FE
100
AcDbEntity
  8
LC-001-002-----0
 62
     7
370
    35
100
AcDbLine
 10
503.5680049999999
 20
1331.0
 30
0.0
 11
509.62402
 21
1331.0
 31
0.0
  0
LINE
  5
2A2
330
1FE
100
AcDbEntity
  8
LC-001-002-----0
 62
     7
370
    35
100
AcDbLine
 10
503.5811709999999
 20
1331.1
 30
0.0
 11
509.6108549999999
 21
1331.1
 31
0.0
  0
LINE
  5
2A3
330
1FE
100
AcDbEntity
  8
LC-001-002-----0
 62
     7
370
    35
100
AcDbLine
 10
503.594336
 20
1331.2
 30
0.0
 11
509.5976900000001
 21
1331.2
 31
0.0
  0
LINE
  5
2A4
330
1FE
100
AcDbEntity
  8
LC-001-002-----0
 62
     7
370
    35
100
AcDbLine
 10
503.6075009999999
 20
1331.3
 30
0.0
 11
509.584524
 21
1331.3
 31
0.0
  0
LINE
  5
2A5
330
1FE
100
AcDbEntity
  8
LC-001-002-----0
 62
     7
370
    35
100
AcDbLine
 10
503.620666
 20
1331.4
 30
0.0
 11
509.5713589999999
 21
1331.4
 31
0.0
  0
LINE
  5
2A6
330
1FE
100
AcDbEntity
  8
LC-001-002-----0
 62
     7
370
    35
100
AcDbLine
 10
503.633832
 20
1331.5
 30
0.0
 11
509.558194
 21
1331.5
 31
0.0
  0
LINE
  5
2A7
330
1FE
100
AcDbEntity
  8
LC-001-002-----0
 62
     7
370
    35
100
AcDbLine
 10
503.6469969999999
 20
1331.6
 30
0.0
 11
509.545029
 21
1331.6
 31
0.0
  0
LINE
  5
2A8
330
1FE
100
AcDbEntity
  8
LC-001-002-----0
 62
     7
370
    35
100
AcDbLine
 10
503.6601619999999
 20
1331.7
 30
0.0
 11
509.531863
 21
1331.7
 31
0.0
  0
LINE
  5
2A9
330
1FE
100
AcDbEntity
  8
LC-001-002-----0
 62
     7
370
    35
100
AcDbLine
 10
503.673327
 20
1331.8
 30
0.0
 11
509.518698
 21
1331.8
 31
0.0
  0
LINE
  5
2AA
330
1FE
100
AcDbEntity
  8
LC-001-002-----0
 62
     7
370
    35
100
AcDbLine
 10
503.686493
 20
1331.9
 30
0.0
 11
509.505533
 21
1331.9
 31
0.0
  0
LINE
  5
2AB
330
1FE
100
AcDbEntity
  8
LC-001-002-----0
 62
     7
370
    35
100
AcDbLine
 10
503.699658
 20
1332.0
 30
0.0
 11
509.4923679999999
 21
1332.0
 31
0.0
  0
LINE
  5
2AC
330
1FE
100
AcDbEntity
  8
LC-001-002-----0
 62
     7
370
    35
100
AcDbLine
 10
503.712823
 20
1332.1
 30
0.0
 11
509.4792019999998
 21
1332.1
 31
0.0
  0
LINE
  5
2AD
330
1FE
100
AcDbEntity
  8
LC-001-002-----0
 62
     7
370
    35
100
AcDbLine
 10
503.7259879999999
 20
1332.2
 30
0.0
 11
509.466037
 21
1332.2
 31
0.0
  0
LINE
  5
2AE
330
1FE
100
AcDbEntity
  8
LC-001-002-----0
 62
     7
370
    35
100
AcDbLine
 10
503.7391539999999
 20
1332.3
 30
0.0
 11
509.4528719999999
 21
1332.3
 31
0.0
  0
LINE
  5
2AF
330
1FE
100
AcDbEntity
  8
LC-001-002-----0
 62
     7
370
    35
100
AcDbLine
 10
503.752319
 20
1332.4
 30
0.0
 11
509.439707
 21
1332.4
 31
0.0
  0
LINE
  5
2B0
330
1FE
100
AcDbEntity
  8
LC-001-002-----0
 62
     7
370
    35
100
AcDbLine
 10
503.765484
 20
1332.5
 30
0.0
 11
509.426541
 21
1332.5
 31
0.0
  0
LINE
  5
2B1
330
1FE
100
AcDbEntity
  8
LC-001-002-----0
 62
     7
370
    35
100
AcDbLine
 10
503.778649
 20
1332.6
 30
0.0
 11
509.413376
 21
1332.6
 31
0.0
  0
LINE
  5
2B2
330
1FE
100
AcDbEntity
  8
LC-001-002-----0
 62
     7
370
    35
100
AcDbLine
 10
503.791815
 20
1332.7
 30
0.0
 11
509.4002109999999
 21
1332.7
 31
0.0
  0
LINE
  5
2B3
330
1FE
100
AcDbEntity
  8
LC-001-002-----0
 62
     7
370
    35
100
AcDbLine
 10
503.80498
 20
1332.8
 30
0.0
 11
509.3870459999999
 21
1332.8
 31
0.0
  0
LINE
  5
2B4
330
1FE
100
AcDbEntity
  8
LC-001-002-----0
 62
     7
370
    35
100
AcDbLine
 10
503.818145
 20
1332.9
 30
0.0
 11
509.3738799999999
 21
1332.9
 31
0.0
  0
LINE
  5
2B5
330
1FE
100
AcDbEntity
  8
LC-001-002-----0
 62
     7
370
    35
100
AcDbLine
 10
503.8313099999999
 20
1333.0
 30
0.0
 11
509.360715
 21
1333.0
 31
0.0
  0
LINE
  5
2B6
330
1FE
100
AcDbEntity
  8
LC-001-002-----0
 62
     7
370
    35
100
AcDbLine
 10
503.8444759999999
 20
1333.1
 30
0.0
 11
509.34755
 21
1333.1
 31
0.0
  0
LINE
  5
2B7
330
1FE
100
AcDbEntity
  8
LC-001-002-----0
 62
     7
370
    35
100
AcDbLine
 10
503.857641
 20
1333.2
 30
0.0
 11
509.3343849999999
 21
1333.2
 31
0.0
  0
LINE
  5
2B8
330
1FE
100
AcDbEntity
  8
LC-001-002-----0
 62
     7
370
    35
100
AcDbLine
 10
503.8708059999999
 20
1333.3
 30
0.0
 11
509.321219
 21
1333.3
 31
0.0
  0
LINE
  5
2B9
330
1FE
100
AcDbEntity
  8
LC-001-002-----0
 62
     7
370
    35
100
AcDbLine
 10
503.8839709999999
 20
1333.4
 30
0.0
 11
509.308054
 21
1333.4
 31
0.0
  0
LINE
  5
2BA
330
1FE
100
AcDbEntity
  8
LC-001-002-----0
 62
     7
370
    35
100
AcDbLine
 10
503.8971369999999
 20
1333.5
 30
0.0
 11
509.2948889999999
 21
1333.5
 31
0.0
  0
LINE
  5
2BB
330
1FE
100
AcDbEntity
  8
LC-001-002-----0
 62
     7
370
    35
100
AcDbLine
 10
503.9103019999999
 20
1333.6
 30
0.0
 11
509.281724
 21
1333.6
 31
0.0
  0
LINE
  5
2BC
330
1FE
100
AcDbEntity
  8
LC-001-002-----0
 62
     7
370
    35
100
AcDbLine
 10
503.9234669999999
 20
1333.7
 30
0.0
 11
509.268558
 21
1333.7
 31
0.0
  0
LINE
  5
2BD
330
1FE
100
AcDbEntity
  8
LC-001-002-----0
 62
     7
370
    35
100
AcDbLine
 10
503.936632
 20
1333.8
 30
0.0
 11
509.255393
 21
1333.8
 31
0.0
  0
LINE
  5
2BE
330
1FE
100
AcDbEntity
  8
LC-001-002-----0
 62
     7
370
    35
100
AcDbLine
 10
503.949798
 20
1333.9
 30
0.0
 11
509.242228
 21
1333.9
 31
0.0
  0
LINE
  5
2BF
330
1FE
100
AcDbEntity
  8
LC-001-002-----0
 62
     7
370
    35
100
AcDbLine
 10
503.962963
 20
1334.0
 30
0.0
 11
509.2290629999999
 21
1334.0
 31
0.0
  0
LINE
  5
2C0
330
1FE
100
AcDbEntity
  8
LC-001-002-----0
 62
     7
370
    35
100
AcDbLine
 10
503.976128
 20
1334.1
 30
0.0
 11
509.2158969999999
 21
1334.1
 31
0.0
  0
LINE
  5
2C1
330
1FE
100
AcDbEntity
  8
LC-001-002-----0
 62
     7
370
    35
100
AcDbLine
 10
503.9892929999999
 20
1334.2
 30
0.0
 11
509.202732
 21
1334.2
 31
0.0
  0
LINE
  5
2C2
330
1FE
100
AcDbEntity
  8
LC-001-002-----0
 62
     7
370
    35
100
AcDbLine
 10
504.0024589999999
 20
1334.3
 30
0.0
 11
509.189567
 21
1334.3
 31
0.0
  0
LINE
  5
2C3
330
1FE
100
AcDbEntity
  8
LC-001-002-----0
 62
     7
370
    35
100
AcDbLine
 10
504.0156239999999
 20
1334.4
 30
0.0
 11
509.1764019999999
 21
1334.4
 31
0.0
  0
LINE
  5
2C4
330
1FE
100
AcDbEntity
  8
LC-001-002-----0
 62
     7
370
    35
100
AcDbLine
 10
504.028789
 20
1334.5
 30
0.0
 11
509.163236
 21
1334.5
 31
0.0
  0
LINE
  5
2C5
330
1FE
100
AcDbEntity
  8
LC-001-002-----0
 62
     7
370
    35
100
AcDbLine
 10
504.041954
 20
1334.6
 30
0.0
 11
509.150071
 21
1334.6
 31
0.0
  0
LINE
  5
2C6
330
1FE
100
AcDbEntity
  8
LC-001-002-----0
 62
     7
370
    35
100
AcDbLine
 10
504.05512
 20
1334.7
 30
0.0
 11
509.1369059999999
 21
1334.7
 31
0.0
  0
LINE
  5
2C7
330
1FE
100
AcDbEntity
  8
LC-001-002-----0
 62
     7
370
    35
100
AcDbLine
 10
504.0682849999999
 20
1334.8
 30
0.0
 11
509.1237409999999
 21
1334.8
 31
0.0
  0
LINE
  5
2C8
330
1FE
100
AcDbEntity
  8
LC-001-002-----0
 62
     7
370
    35
100
AcDbLine
 10
504.08145
 20
1334.9
 30
0.0
 11
509.1105749999999
 21
1334.9
 31
0.0
  0
LINE
  5
2C9
330
1FE
100
AcDbEntity
  8
LC-001-002-----0
 62
     7
370
    35
100
AcDbLine
 10
504.094615
 20
1335.0
 30
0.0
 11
509.0974099999999
 21
1335.0
 31
0.0
  0
LINE
  5
2CA
330
1FE
100
AcDbEntity
  8
LC-001-002-----0
 62
     7
370
    35
100
AcDbLine
 10
504.1077809999999
 20
1335.1
 30
0.0
 11
509.084245
 21
1335.1
 31
0.0
  0
LINE
  5
2CB
330
1FE
100
AcDbEntity
  8
LC-001-002-----0
 62
     7
370
    35
100
AcDbLine
 10
504.120946
 20
1335.2
 30
0.0
 11
509.07108
 21
1335.2
 31
0.0
  0
LINE
  5
2CC
330
1FE
100
AcDbEntity
  8
LC-001-002-----0
 62
     7
370
    35
100
AcDbLine
 10
504.134111
 20
1335.3
 30
0.0
 11
509.057914
 21
1335.3
 31
0.0
  0
LINE
  5
2CD
330
1FE
100
AcDbEntity
  8
LC-001-002-----0
 62
     7
370
    35
100
AcDbLine
 10
504.1472759999999
 20
1335.4
 30
0.0
 11
509.044749
 21
1335.4
 31
0.0
  0
LINE
  5
2CE
330
1FE
100
AcDbEntity
  8
LC-001-002-----0
 62
     7
370
    35
100
AcDbLine
 10
504.1604419999999
 20
1335.5
 30
0.0
 11
509.031584
 21
1335.5
 31
0.0
  0
LINE
  5
2CF
330
1FE
100
AcDbEntity
  8
LC-001-002-----0
 62
     7
370
    35
100
AcDbLine
 10
504.1736069999999
 20
1335.6
 30
0.0
 11
509.018419
 21
1335.6
 31
0.0
  0
LINE
  5
2D0
330
1FE
100
AcDbEntity
  8
LC-001-002-----0
 62
     7
370
    35
100
AcDbLine
 10
504.1867719999999
 20
1335.7
 30
0.0
 11
509.005253
 21
1335.7
 31
0.0
  0
LINE
  5
2D1
330
1FE
100
AcDbEntity
  8
LC-001-002-----0
 62
     7
370
    35
100
AcDbLine
 10
504.199937
 20
1335.8
 30
0.0
 11
508.992088
 21
1335.8
 31
0.0
  0
LINE
  5
2D2
330
1FE
100
AcDbEntity
  8
LC-001-002-----0
 62
     7
370
    35
100
AcDbLine
 10
504.213103
 20
1335.9
 30
0.0
 11
508.978923
 21
1335.9
 31
0.0
  0
LINE
  5
2D3
330
1FE
100
AcDbEntity
  8
LC-001-002-----0
 62
     7
370
    35
100
AcDbLine
 10
504.2262679999999
 20
1336.0
 30
0.0
 11
508.9657579999999
 21
1336.0
 31
0.0
  0
LINE
  5
2D4
330
1FE
100
AcDbEntity
  8
LC-001-002-----0
 62
     7
370
    35
100
AcDbLine
 10
504.239433
 20
1336.1
 30
0.0
 11
508.9525919999999
 21
1336.1
 31
0.0
  0
LINE
  5
2D5
330
1FE
100
AcDbEntity
  8
LC-001-002-----0
 62
     7
370
    35
100
AcDbLine
 10
504.252598
 20
1336.2
 30
0.0
 11
508.9394269999999
 21
1336.2
 31
0.0
  0
LINE
  5
2D6
330
1FE
100
AcDbEntity
  8
LC-001-002-----0
 62
     7
370
    35
100
AcDbLine
 10
504.2657639999999
 20
1336.3
 30
0.0
 11
508.926262
 21
1336.3
 31
0.0
  0
LINE
  5
2D7
330
1FE
100
AcDbEntity
  8
LC-001-002-----0
 62
     7
370
    35
100
AcDbLine
 10
504.2789289999999
 20
1336.4
 30
0.0
 11
508.913097
 21
1336.4
 31
0.0
  0
LINE
  5
2D8
330
1FE
100
AcDbEntity
  8
LC-001-002-----0
 62
     7
370
    35
100
AcDbLine
 10
504.292094
 20
1336.5
 30
0.0
 11
508.899931
 21
1336.5
 31
0.0
  0
LINE
  5
2D9
330
1FE
100
AcDbEntity
  8
LC-001-002-----0
 62
     7
370
    35
100
AcDbLine
 10
504.305259
 20
1336.6
 30
0.0
 11
508.886766
 21
1336.6
 31
0.0
  0
LINE
  5
2DA
330
1FE
100
AcDbEntity
  8
LC-001-002-----0
 62
     7
370
    35
100
AcDbLine
 10
504.318425
 20
1336.7
 30
0.0
 11
508.8736009999999
 21
1336.7
 31
0.0
  0
LINE
  5
2DB
330
1FE
100
AcDbEntity
  8
LC-001-002-----0
 62
     7
370
    35
100
AcDbLine
 10
504.33159
 20
1336.8
 30
0.0
 11
508.860436
 21
1336.8
 31
0.0
  0
LINE
  5
2DC
330
1FE
100
AcDbEntity
  8
LC-001-002-----0
 62
     7
370
    35
100
AcDbLine
 10
504.3447549999999
 20
1336.9
 30
0.0
 11
508.84727
 21
1336.9
 31
0.0
  0
LINE
  5
2DD
330
1FE
100
AcDbEntity
  8
LC-001-002-----0
 62
     7
370
    35
100
AcDbLine
 10
504.35792
 20
1337.0
 30
0.0
 11
508.8341049999999
 21
1337.0
 31
0.0
  0
LINE
  5
2DE
330
1FE
100
AcDbEntity
  8
LC-001-002-----0
 62
     7
370
    35
100
AcDbLine
 10
504.371086
 20
1337.1
 30
0.0
 11
508.8209400000001
 21
1337.1
 31
0.0
  0
LINE
  5
2DF
330
1FE
100
AcDbEntity
  8
LC-001-002-----0
 62
     7
370
    35
100
AcDbLine
 10
504.3842509999999
 20
1337.2
 30
0.0
 11
508.807775
 21
1337.2
 31
0.0
  0
LINE
  5
2E0
330
1FE
100
AcDbEntity
  8
LC-001-002-----0
 62
     7
370
    35
100
AcDbLine
 10
504.397416
 20
1337.3
 30
0.0
 11
508.7946089999999
 21
1337.3
 31
0.0
  0
LINE
  5
2E1
330
1FE
100
AcDbEntity
  8
LC-001-002-----0
 62
     7
370
    35
100
AcDbLine
 10
504.4105809999999
 20
1337.4
 30
0.0
 11
508.781444
 21
1337.4
 31
0.0
  0
LINE
  5
2E2
330
1FE
100
AcDbEntity
  8
LC-001-002-----0
 62
     7
370
    35
100
AcDbLine
 10
504.4237469999999
 20
1337.5
 30
0.0
 11
508.768279
 21
1337.5
 31
0.0
  0
LINE
  5
2E3
330
1FE
100
AcDbEntity
  8
LC-001-002-----0
 62
     7
370
    35
100
AcDbLine
 10
504.4369119999999
 20
1337.6
 30
0.0
 11
508.755114
 21
1337.6
 31
0.0
  0
LINE
  5
2E4
330
1FE
100
AcDbEntity
  8
LC-001-002-----0
 62
     7
370
    35
100
AcDbLine
 10
504.4500769999999
 20
1337.7
 30
0.0
 11
508.741948
 21
1337.7
 31
0.0
  0
LINE
  5
2E5
330
1FE
100
AcDbEntity
  8
LC-001-002-----0
 62
     7
370
    35
100
AcDbLine
 10
504.463242
 20
1337.8
 30
0.0
 11
508.728783
 21
1337.8
 31
0.0
  0
LINE
  5
2E6
330
1FE
100
AcDbEntity
  8
LC-001-002-----0
 62
     7
370
    35
100
AcDbLine
 10
504.476408
 20
1337.9
 30
0.0
 11
508.715618
 21
1337.9
 31
0.0
  0
LINE
  5
2E7
330
1FE
100
AcDbEntity
  8
LC-001-002-----0
 62
     7
370
    35
100
AcDbLine
 10
504.489573
 20
1338.0
 30
0.0
 11
508.702453
 21
1338.0
 31
0.0
  0
LINE
  5
2E8
330
1FE
100
AcDbEntity
  8
LC-001-002-----0
 62
     7
370
    35
100
AcDbLine
 10
504.5027379999999
 20
1338.1
 30
0.0
 11
508.689287
 21
1338.1
 31
0.0
  0
LINE
  5
2E9
330
1FE
100
AcDbEntity
  8
LC-001-002-----0
 62
     7
370
    35
100
AcDbLine
 10
504.515903
 20
1338.2
 30
0.0
 11
508.6761219999999
 21
1338.2
 31
0.0
  0
LINE
  5
2EA
330
1FE
100
AcDbEntity
  8
LC-001-002-----0
 62
     7
370
    35
100
AcDbLine
 10
504.529069
 20
1338.3
 30
0.0
 11
508.662957
 21
1338.3
 31
0.0
  0
LINE
  5
2EB
330
1FE
100
AcDbEntity
  8
LC-001-002-----0
 62
     7
370
    35
100
AcDbLine
 10
504.542234
 20
1338.4
 30
0.0
 11
508.649792
 21
1338.4
 31
0.0
  0
LINE
  5
2EC
330
1FE
100
AcDbEntity
  8
LC-001-002-----0
 62
     7
370
    35
100
AcDbLine
 10
504.555399
 20
1338.5
 30
0.0
 11
508.636626
 21
1338.5
 31
0.0
  0
LINE
  5
2ED
330
1FE
100
AcDbEntity
  8
LC-001-002-----0
 62
     7
370
    35
100
AcDbLine
 10
504.568564
 20
1338.6
 30
0.0
 11
508.6234609999999
 21
1338.6
 31
0.0
  0
LINE
  5
2EE
330
1FE
100
AcDbEntity
  8
LC-001-002-----0
 62
     7
370
    35
100
AcDbLine
 10
504.58173
 20
1338.7
 30
0.0
 11
508.6102959999999
 21
1338.7
 31
0.0
  0
LINE
  5
2EF
330
1FE
100
AcDbEntity
  8
LC-001-002-----0
 62
     7
370
    35
100
AcDbLine
 10
504.594895
 20
1338.8
 30
0.0
 11
508.5971309999999
 21
1338.8
 31
0.0
  0
LINE
  5
2F0
330
1FE
100
AcDbEntity
  8
LC-001-002-----0
 62
     7
370
    35
100
AcDbLine
 10
504.6080599999999
 20
1338.9
 30
0.0
 11
508.583965
 21
1338.9
 31
0.0
  0
LINE
  5
2F1
330
1FE
100
AcDbEntity
  8
LC-001-002-----0
 62
     7
370
    35
100
AcDbLine
 10
504.6212249999999
 20
1339.0
 30
0.0
 11
508.5708
 21
1339.0
 31
0.0
  0
LINE
  5
2F2
330
1FE
100
AcDbEntity
  8
LC-001-002-----0
 62
     7
370
    35
100
AcDbLine
 10
504.634391
 20
1339.1
 30
0.0
 11
508.5576349999999
 21
1339.1
 31
0.0
  0
LINE
  5
2F3
330
1FE
100
AcDbEntity
  8
LC-001-002-----0
 62
     7
370
    35
100
AcDbLine
 10
504.6475559999999
 20
1339.2
 30
0.0
 11
508.54447
 21
1339.2
 31
0.0
  0
LINE
  5
2F4
330
1FE
100
AcDbEntity
  8
LC-001-002-----0
 62
     7
370
    35
100
AcDbLine
 10
504.660721
 20
1339.3
 30
0.0
 11
508.5313039999999
 21
1339.3
 31
0.0
  0
LINE
  5
2F5
330
1FE
100
AcDbEntity
  8
LC-001-002-----0
 62
     7
370
    35
100
AcDbLine
 10
504.673886
 20
1339.4
 30
0.0
 11
508.5181389999999
 21
1339.4
 31
0.0
  0
LINE
  5
2F6
330
1FE
100
AcDbEntity
  8
LC-001-002-----0
 62
     7
370
    35
100
AcDbLine
 10
504.6870519999999
 20
1339.5
 30
0.0
 11
508.504974
 21
1339.5
 31
0.0
  0
LINE
  5
2F7
330
1FE
100
AcDbEntity
  8
LC-001-002-----0
 62
     7
370
    35
100
AcDbLine
 10
504.7002169999999
 20
1339.6
 30
0.0
 11
508.491809
 21
1339.6
 31
0.0
  0
LINE
  5
2F8
330
1FE
100
AcDbEntity
  8
LC-001-002-----0
 62
     7
370
    35
100
AcDbLine
 10
504.7133819999999
 20
1339.7
 30
0.0
 11
508.478643
 21
1339.7
 31
0.0
  0
LINE
  5
2F9
330
1FE
100
AcDbEntity
  8
LC-001-002-----0
 62
     7
370
    35
100
AcDbLine
 10
504.726547
 20
1339.8
 30
0.0
 11
508.465478
 21
1339.8
 31
0.0
  0
LINE
  5
2FA
330
1FE
100
AcDbEntity
  8
LC-001-002-----0
 62
     7
370
    35
100
AcDbLine
 10
504.739713
 20
1339.9
 30
0.0
 11
508.452313
 21
1339.9
 31
0.0
  0
LINE
  5
2FB
330
1FE
100
AcDbEntity
  8
LC-001-002-----0
 62
     7
370
    35
100
AcDbLine
 10
504.752878
 20
1340.0
 30
0.0
 11
508.439148
 21
1340.0
 31
0.0
  0
LINE
  5
2FC
330
1FE
100
AcDbEntity
  8
LC-001-002-----0
 62
     7
370
    35
100
AcDbLine
 10
504.7660429999999
 20
1340.1
 30
0.0
 11
508.425982
 21
1340.1
 31
0.0
  0
LINE
  5
2FD
330
1FE
100
AcDbEntity
  8
LC-001-002-----0
 62
     7
370
    35
100
AcDbLine
 10
504.7792079999999
 20
1340.2
 30
0.0
 11
508.412817
 21
1340.2
 31
0.0
  0
LINE
  5
2FE
330
1FE
100
AcDbEntity
  8
LC-001-002-----0
 62
     7
370
    35
100
AcDbLine
 10
504.7923739999999
 20
1340.3
 30
0.0
 11
508.3996519999999
 21
1340.3
 31
0.0
  0
LINE
  5
2FF
330
1FE
100
AcDbEntity
  8
LC-001-002-----0
 62
     7
370
    35
100
AcDbLine
 10
504.805539
 20
1340.4
 30
0.0
 11
508.386487
 21
1340.4
 31
0.0
  0
LINE
  5
300
330
1FE
100
AcDbEntity
  8
LC-001-002-----0
 62
     7
370
    35
100
AcDbLine
 10
504.818704
 20
1340.5
 30
0.0
 11
508.373321
 21
1340.5
 31
0.0
  0
LINE
  5
301
330
1FE
100
AcDbEntity
  8
LC-001-002-----0
 62
     7
370
    35
100
AcDbLine
 10
504.831869
 20
1340.6
 30
0.0
 11
508.3601559999999
 21
1340.6
 31
0.0
  0
LINE
  5
302
330
1FE
100
AcDbEntity
  8
LC-001-002-----0
 62
     7
370
    35
100
AcDbLine
 10
504.8450349999999
 20
1340.7
 30
0.0
 11
508.3469909999999
 21
1340.7
 31
0.0
  0
LINE
  5
303
330
1FE
100
AcDbEntity
  8
LC-001-002-----0
 62
     7
370
    35
100
AcDbLine
 10
504.8582
 20
1340.8
 30
0.0
 11
508.3338259999999
 21
1340.8
 31
0.0
  0
LINE
  5
304
330
1FE
100
AcDbEntity
  8
LC-001-002-----0
 62
     7
370
    35
100
AcDbLine
 10
504.871365
 20
1340.9
 30
0.0
 11
508.3206599999999
 21
1340.9
 31
0.0
  0
LINE
  5
305
330
1FE
100
AcDbEntity
  8
LC-001-002-----0
 62
     7
370
    35
100
AcDbLine
 10
504.8845299999999
 20
1341.0
 30
0.0
 11
508.307495
 21
1341.0
 31
0.0
  0
LINE
  5
306
330
1FE
100
AcDbEntity
  8
LC-001-002-----0
 62
     7
370
    35
100
AcDbLine
 10
504.897696
 20
1341.1
 30
0.0
 11
508.29433
 21
1341.1
 31
0.0
  0
LINE
  5
307
330
1FE
100
AcDbEntity
  8
LC-001-002-----0
 62
     7
370
    35
100
AcDbLine
 10
504.910861
 20
1341.2
 30
0.0
 11
508.281165
 21
1341.2
 31
0.0
  0
LINE
  5
308
330
1FE
100
AcDbEntity
  8
LC-001-002-----0
 62
     7
370
    35
100
AcDbLine
 10
504.9240259999999
 20
1341.3
 30
0.0
 11
508.267999
 21
1341.3
 31
0.0
  0
LINE
  5
309
330
1FE
100
AcDbEntity
  8
LC-001-002-----0
 62
     7
370
    35
100
AcDbLine
 10
504.937191
 20
1341.4
 30
0.0
 11
508.2548339999999
 21
1341.4
 31
0.0
  0
LINE
  5
30A
330
1FE
100
AcDbEntity
  8
LC-001-002-----0
 62
     7
370
    35
100
AcDbLine
 10
504.950357
 20
1341.5
 30
0.0
 11
508.241669
 21
1341.5
 31
0.0
  0
LINE
  5
30B
330
1FE
100
AcDbEntity
  8
LC-001-002-----0
 62
     7
370
    35
100
AcDbLine
 10
504.9635219999999
 20
1341.6
 30
0.0
 11
508.228504
 21
1341.6
 31
0.0
  0
LINE
  5
30C
330
1FE
100
AcDbEntity
  8
LC-001-002-----0
 62
     7
370
    35
100
AcDbLine
 10
504.976687
 20
1341.7
 30
0.0
 11
508.215338
 21
1341.7
 31
0.0
  0
LINE
  5
30D
330
1FE
100
AcDbEntity
  8
LC-001-002-----0
 62
     7
370
    35
100
AcDbLine
 10
504.9898519999999
 20
1341.8
 30
0.0
 11
508.2021730000001
 21
1341.8
 31
0.0
  0
LINE
  5
30E
330
1FE
100
AcDbEntity
  8
LC-001-002-----0
 62
     7
370
    35
100
AcDbLine
 10
505.003018
 20
1341.9
 30
0.0
 11
508.1890079999999
 21
1341.9
 31
0.0
  0
LINE
  5
30F
330
1FE
100
AcDbEntity
  8
LC-001-002-----0
 62
     7
370
    35
100
AcDbLine
 10
505.016183
 20
1342.0
 30
0.0
 11
508.1758429999999
 21
1342.0
 31
0.0
  0
LINE
  5
310
330
1FE
100
AcDbEntity
  8
LC-001-002-----0
 62
     7
370
    35
100
AcDbLine
 10
505.029348
 20
1342.1
 30
0.0
 11
508.1626769999999
 21
1342.1
 31
0.0
  0
LINE
  5
311
330
1FE
100
AcDbEntity
  8
LC-001-002-----0
 62
     7
370
    35
100
AcDbLine
 10
505.0425129999999
 20
1342.2
 30
0.0
 11
508.149512
 21
1342.2
 31
0.0
  0
LINE
  5
312
330
1FE
100
AcDbEntity
  8
LC-001-002-----0
 62
     7
370
    35
100
AcDbLine
 10
505.0556789999999
 20
1342.3
 30
0.0
 11
508.136347
 21
1342.3
 31
0.0
  0
LINE
  5
313
330
1FE
100
AcDbEntity
  8
LC-001-002-----0
 62
     7
370
    35
100
AcDbLine
 10
505.068844
 20
1342.4
 30
0.0
 11
508.123182
 21
1342.4
 31
0.0
  0
LINE
  5
314
330
1FE
100
AcDbEntity
  8
LC-001-002-----0
 62
     7
370
    35
100
AcDbLine
 10
505.082009
 20
1342.5
 30
0.0
 11
508.110016
 21
1342.5
 31
0.0
  0
LINE
  5
315
330
1FE
100
AcDbEntity
  8
LC-001-002-----0
 62
     7
370
    35
100
AcDbLine
 10
505.095174
 20
1342.6
 30
0.0
 11
508.0968509999999
 21
1342.6
 31
0.0
  0
LINE
  5
316
330
1FE
100
AcDbEntity
  8
LC-001-002-----0
 62
     7
370
    35
100
AcDbLine
 10
505.1083389999999
 20
1342.7
 30
0.0
 11
508.083686
 21
1342.7
 31
0.0
  0
LINE
  5
317
330
1FE
100
AcDbEntity
  8
LC-001-002-----0
 62
     7
370
    35
100
AcDbLine
 10
505.1215049999999
 20
1342.8
 30
0.0
 11
508.0705209999999
 21
1342.8
 31
0.0
  0
LINE
  5
318
330
1FE
100
AcDbEntity
  8
LC-001-002-----0
 62
     7
370
    35
100
AcDbLine
 10
505.13467
 20
1342.9
 30
0.0
 11
508.0573549999999
 21
1342.9
 31
0.0
  0
LINE
  5
319
330
1FE
100
AcDbEntity
  8
LC-001-002-----0
 62
     7
370
    35
100
AcDbLine
 10
505.147835
 20
1343.0
 30
0.0
 11
508.04419
 21
1343.0
 31
0.0
  0
LINE
  5
31A
330
1FE
100
AcDbEntity
  8
LC-001-002-----0
 62
     7
370
    35
100
AcDbLine
 10
505.161
 20
1343.1
 30
0.0
 11
508.031025
 21
1343.1
 31
0.0
  0
LINE
  5
31B
330
1FE
100
AcDbEntity
  8
LC-001-002-----0
 62
     7
370
    35
100
AcDbLine
 10
505.174166
 20
1343.2
 30
0.0
 11
508.0178599999999
 21
1343.2
 31
0.0
  0
LINE
  5
31C
330
1FE
100
AcDbEntity
  8
LC-001-002-----0
 62
     7
370
    35
100
AcDbLine
 10
505.1873309999999
 20
1343.3
 30
0.0
 11
508.004694
 21
1343.3
 31
0.0
  0
LINE
  5
31D
330
1FE
100
AcDbEntity
  8
LC-001-002-----0
 62
     7
370
    35
100
AcDbLine
 10
505.2004959999999
 20
1343.4
 30
0.0
 11
507.991529
 21
1343.4
 31
0.0
  0
LINE
  5
31E
330
1FE
100
AcDbEntity
  8
LC-001-002-----0
 62
     7
370
    35
100
AcDbLine
 10
505.213661
 20
1343.5
 30
0.0
 11
507.9783639999999
 21
1343.5
 31
0.0
  0
LINE
  5
31F
330
1FE
100
AcDbEntity
  8
LC-001-002-----0
 62
     7
370
    35
100
AcDbLine
 10
505.2268269999999
 20
1343.6
 30
0.0
 11
507.965199
 21
1343.6
 31
0.0
  0
LINE
  5
320
330
1FE
100
AcDbEntity
  8
LC-001-002-----0
 62
     7
370
    35
100
AcDbLine
 10
505.239992
 20
1343.7
 30
0.0
 11
507.952033
 21
1343.7
 31
0.0
  0
LINE
  5
321
330
1FE
100
AcDbEntity
  8
LC-001-002-----0
 62
     7
370
    35
100
AcDbLine
 10
505.253157
 20
1343.8
 30
0.0
 11
507.938868
 21
1343.8
 31
0.0
  0
LINE
  5
322
330
1FE
100
AcDbEntity
  8
LC-001-002-----0
 62
     7
370
    35
100
AcDbLine
 10
505.2663219999999
 20
1343.9
 30
0.0
 11
507.9257029999999
 21
1343.9
 31
0.0
  0
LINE
  5
323
330
1FE
100
AcDbEntity
  8
LC-001-002-----0
 62
     7
370
    35
100
AcDbLine
 10
505.279488
 20
1344.0
 30
0.0
 11
507.9125379999999
 21
1344.0
 31
0.0
  0
LINE
  5
324
330
1FE
100
AcDbEntity
  8
LC-001-002-----0
 62
     7
370
    35
100
AcDbLine
 10
505.292653
 20
1344.1
 30
0.0
 11
507.8993719999999
 21
1344.1
 31
0.0
  0
LINE
  5
325
330
1FE
100
AcDbEntity
  8
LC-001-002-----0
 62
     7
370
    35
100
AcDbLine
 10
505.3058179999999
 20
1344.2
 30
0.0
 11
507.886207
 21
1344.2
 31
0.0
  0
LINE
  5
326
330
1FE
100
AcDbEntity
  8
LC-001-002-----0
 62
     7
370
    35
100
AcDbLine
 10
505.3189829999999
 20
1344.3
 30
0.0
 11
507.873042
 21
1344.3
 31
0.0
  0
LINE
  5
327
330
1FE
100
AcDbEntity
  8
LC-001-002-----0
 62
     7
370
    35
100
AcDbLine
 10
505.332149
 20
1344.4
 30
0.0
 11
507.859877
 21
1344.4
 31
0.0
  0
LINE
  5
328
330
1FE
100
AcDbEntity
  8
LC-001-002-----0
 62
     7
370
    35
100
AcDbLine
 10
505.345314
 20
1344.5
 30
0.0
 11
507.846711
 21
1344.5
 31
0.0
  0
LINE
  5
329
330
1FE
100
AcDbEntity
  8
LC-001-002-----0
 62
     7
370
    35
100
AcDbLine
 10
505.358479
 20
1344.6
 30
0.0
 11
507.8335459999999
 21
1344.6
 31
0.0
  0
LINE
  5
32A
330
1FE
100
AcDbEntity
  8
LC-001-002-----0
 62
     7
370
    35
100
AcDbLine
 10
505.371644
 20
1344.7
 30
0.0
 11
507.8203809999999
 21
1344.7
 31
0.0
  0
LINE
  5
32B
330
1FE
100
AcDbEntity
  8
LC-001-002-----0
 62
     7
370
    35
100
AcDbLine
 10
505.3848099999999
 20
1344.8
 30
0.0
 11
507.807216
 21
1344.8
 31
0.0
  0
LINE
  5
32C
330
1FE
100
AcDbEntity
  8
LC-001-002-----0
 62
     7
370
    35
100
AcDbLine
 10
505.3979749999999
 20
1344.9
 30
0.0
 11
507.79405
 21
1344.9
 31
0.0
  0
LINE
  5
32D
330
1FE
100
AcDbEntity
  8
LC-001-002-----0
 62
     7
370
    35
100
AcDbLine
 10
505.41114
 20
1345.0
 30
0.0
 11
507.7808849999999
 21
1345.0
 31
0.0
  0
LINE
  5
32E
330
1FE
100
AcDbEntity
  8
LC-001-002-----0
 62
     7
370
    35
100
AcDbLine
 10
505.424305
 20
1345.1
 30
0.0
 11
507.76772
 21
1345.1
 31
0.0
  0
LINE
  5
32F
330
1FE
100
AcDbEntity
  8
LC-001-002-----0
 62
     7
370
    35
100
AcDbLine
 10
505.437471
 20
1345.2
 30
0.0
 11
507.7545549999999
 21
1345.2
 31
0.0
  0
LINE
  5
330
330
1FE
100
AcDbEntity
  8
LC-001-002-----0
 62
     7
370
    35
100
AcDbLine
 10
505.450636
 20
1345.3
 30
0.0
 11
507.7413889999999
 21
1345.3
 31
0.0
  0
LINE
  5
331
330
1FE
100
AcDbEntity
  8
LC-001-002-----0
 62
     7
370
    35
100
AcDbLine
 10
505.4638009999999
 20
1345.4
 30
0.0
 11
507.728224
 21
1345.4
 31
0.0
  0
LINE
  5
332
330
1FE
100
AcDbEntity
  8
LC-001-002-----0
 62
     7
370
    35
100
AcDbLine
 10
505.4769659999999
 20
1345.5
 30
0.0
 11
507.715059
 21
1345.5
 31
0.0
  0
LINE
  5
333
330
1FE
100
AcDbEntity
  8
LC-001-002-----0
 62
     7
370
    35
100
AcDbLine
 10
505.4901319999999
 20
1345.6
 30
0.0
 11
507.701894
 21
1345.6
 31
0.0
  0
LINE
  5
334
330
1FE
100
AcDbEntity
  8
LC-001-002-----0
 62
     7
370
    35
100
AcDbLine
 10
505.503297
 20
1345.7
 30
0.0
 11
507.688728
 21
1345.7
 31
0.0
  0
LINE
  5
335
330
1FE
100
AcDbEntity
  8
LC-001-002-----0
 62
     7
370
    35
100
AcDbLine
 10
505.516462
 20
1345.8
 30
0.0
 11
507.675563
 21
1345.8
 31
0.0
  0
LINE
  5
336
330
1FE
100
AcDbEntity
  8
LC-001-002-----0
 62
     7
370
    35
100
AcDbLine
 10
505.5296269999999
 20
1345.9
 30
0.0
 11
507.662398
 21
1345.9
 31
0.0
  0
LINE
  5
337
330
1FE
100
AcDbEntity
  8
LC-001-002-----0
 62
     7
370
    35
100
AcDbLine
 10
505.5427929999999
 20
1346.0
 30
0.0
 11
507.6492329999999
 21
1346.0
 31
0.0
  0
LINE
  5
338
330
1FE
100
AcDbEntity
  8
LC-001-002-----0
 62
     7
370
    35
100
AcDbLine
 10
505.555958
 20
1346.1
 30
0.0
 11
507.6360669999999
 21
1346.1
 31
0.0
  0
LINE
  5
339
330
1FE
100
AcDbEntity
  8
LC-001-002-----0
 62
     7
370
    35
100
AcDbLine
 10
505.569123
 20
1346.2
 30
0.0
 11
507.6229019999999
 21
1346.2
 31
0.0
  0
LINE
  5
33A
330
1FE
100
AcDbEntity
  8
LC-001-002-----0
 62
     7
370
    35
100
AcDbLine
 10
505.582288
 20
1346.3
 30
0.0
 11
507.609737
 21
1346.3
 31
0.0
  0
LINE
  5
33B
330
1FE
100
AcDbEntity
  8
LC-001-002-----0
 62
     7
370
    35
100
AcDbLine
 10
505.595454
 20
1346.4
 30
0.0
 11
507.596572
 21
1346.4
 31
0.0
  0
LINE
  5
33C
330
1FE
100
AcDbEntity
  8
LC-001-002-----0
 62
     7
370
    35
100
AcDbLine
 10
505.608619
 20
1346.5
 30
0.0
 11
507.583406
 21
1346.5
 31
0.0
  0
LINE
  5
33D
330
1FE
100
AcDbEntity
  8
LC-001-002-----0
 62
     7
370
    35
100
AcDbLine
 10
505.621784
 20
1346.6
 30
0.0
 11
507.5702409999999
 21
1346.6
 31
0.0
  0
LINE
  5
33E
330
1FE
100
AcDbEntity
  8
LC-001-002-----0
 62
     7
370
    35
100
AcDbLine
 10
505.634949
 20
1346.7
 30
0.0
 11
507.5570759999999
 21
1346.7
 31
0.0
  0
LINE
  5
33F
330
1FE
100
AcDbEntity
  8
LC-001-002-----0
 62
     7
370
    35
100
AcDbLine
 10
505.648115
 20
1346.8
 30
0.0
 11
507.543911
 21
1346.8
 31
0.0
  0
LINE
  5
340
330
1FE
100
AcDbEntity
  8
LC-001-002-----0
 62
     7
370
    35
100
AcDbLine
 10
505.6612799999999
 20
1346.9
 30
0.0
 11
507.530745
 21
1346.9
 31
0.0
  0
LINE
  5
341
330
1FE
100
AcDbEntity
  8
LC-001-002-----0
 62
     7
370
    35
100
AcDbLine
 10
505.674445
 20
1347.0
 30
0.0
 11
507.51758
 21
1347.0
 31
0.0
  0
LINE
  5
342
330
1FE
100
AcDbEntity
  8
LC-001-002-----0
 62
     7
370
    35
100
AcDbLine
 10
505.6876099999999
 20
1347.1
 30
0.0
 11
507.504415
 21
1347.1
 31
0.0
  0
LINE
  5
343
330
1FE
100
AcDbEntity
  8
LC-001-002-----0
 62
     7
370
    35
100
AcDbLine
 10
505.7007759999999
 20
1347.2
 30
0.0
 11
507.4912499999999
 21
1347.2
 31
0.0
  0
LINE
  5
344
330
1FE
100
AcDbEntity
  8
LC-001-002-----0
 62
     7
370
    35
100
AcDbLine
 10
505.713941
 20
1347.3
 30
0.0
 11
507.4780839999999
 21
1347.3
 31
0.0
  0
LINE
  5
345
330
1FE
100
AcDbEntity
  8
LC-001-002-----0
 62
     7
370
    35
100
AcDbLine
 10
505.7271059999999
 20
1347.4
 30
0.0
 11
507.464919
 21
1347.4
 31
0.0
  0
LINE
  5
346
330
1FE
100
AcDbEntity
  8
LC-001-002-----0
 62
     7
370
    35
100
AcDbLine
 10
505.7402709999999
 20
1347.5
 30
0.0
 11
507.451754
 21
1347.5
 31
0.0
  0
LINE
  5
347
330
1FE
100
AcDbEntity
  8
LC-001-002-----0
 62
     7
370
    35
100
AcDbLine
 10
505.7534369999999
 20
1347.6
 30
0.0
 11
507.438589
 21
1347.6
 31
0.0
  0
LINE
  5
348
330
1FE
100
AcDbEntity
  8
LC-001-002-----0
 62
     7
370
    35
100
AcDbLine
 10
505.766602
 20
1347.7
 30
0.0
 11
507.425423
 21
1347.7
 31
0.0
  0
LINE
  5
349
330
1FE
100
AcDbEntity
  8
LC-001-002-----0
 62
     7
370
    35
100
AcDbLine
 10
505.779767
 20
1347.8
 30
0.0
 11
507.412258
 21
1347.8
 31
0.0
  0
LINE
  5
34A
330
1FE
100
AcDbEntity
  8
LC-001-002-----0
 62
     7
370
    35
100
AcDbLine
 10
505.792932
 20
1347.9
 30
0.0
 11
507.3990929999999
 21
1347.9
 31
0.0
  0
LINE
  5
34B
330
1FE
100
AcDbEntity
  8
LC-001-002-----0
 62
     7
370
    35
100
AcDbLine
 10
505.806098
 20
1348.0
 30
0.0
 11
507.385928
 21
1348.0
 31
0.0
  0
LINE
  5
34C
330
1FE
100
AcDbEntity
  8
LC-001-002-----0
 62
     7
370
    35
100
AcDbLine
 10
505.8192629999999
 20
1348.1
 30
0.0
 11
507.372762
 21
1348.1
 31
0.0
  0
LINE
  5
34D
330
1FE
100
AcDbEntity
  8
LC-001-002-----0
 62
     7
370
    35
100
AcDbLine
 10
505.832428
 20
1348.2
 30
0.0
 11
507.3595969999999
 21
1348.2
 31
0.0
  0
LINE
  5
34E
330
1FE
100
AcDbEntity
  8
LC-001-002-----0
 62
     7
370
    35
100
AcDbLine
 10
505.845593
 20
1348.3
 30
0.0
 11
507.346432
 21
1348.3
 31
0.0
  0
LINE
  5
34F
330
1FE
100
AcDbEntity
  8
LC-001-002-----0
 62
     7
370
    35
100
AcDbLine
 10
505.858759
 20
1348.4
 30
0.0
 11
507.333267
 21
1348.4
 31
0.0
  0
LINE
  5
350
330
1FE
100
AcDbEntity
  8
LC-001-002-----0
 62
     7
370
    35
100
AcDbLine
 10
505.871924
 20
1348.5
 30
0.0
 11
507.320101
 21
1348.5
 31
0.0
  0
LINE
  5
351
330
1FE
100
AcDbEntity
  8
LC-001-002-----0
 62
     7
370
    35
100
AcDbLine
 10
505.885089
 20
1348.6
 30
0.0
 11
507.3069359999999
 21
1348.6
 31
0.0
  0
LINE
  5
352
330
1FE
100
AcDbEntity
  8
LC-001-002-----0
 62
     7
370
    35
100
AcDbLine
 10
505.898254
 20
1348.7
 30
0.0
 11
507.2937709999999
 21
1348.7
 31
0.0
  0
LINE
  5
353
330
1FE
100
AcDbEntity
  8
LC-001-002-----0
 62
     7
370
    35
100
AcDbLine
 10
505.91142
 20
1348.8
 30
0.0
 11
507.2806059999999
 21
1348.8
 31
0.0
  0
LINE
  5
354
330
1FE
100
AcDbEntity
  8
LC-001-002-----0
 62
     7
370
    35
100
AcDbLine
 10
505.9245849999999
 20
1348.9
 30
0.0
 11
507.26744
 21
1348.9
 31
0.0
  0
LINE
  5
355
330
1FE
100
AcDbEntity
  8
LC-001-002-----0
 62
     7
370
    35
100
AcDbLine
 10
505.93775
 20
1349.0
 30
0.0
 11
507.254275
 21
1349.0
 31
0.0
  0
LINE
  5
356
330
1FE
100
AcDbEntity
  8
LC-001-002-----0
 62
     7
370
    35
100
AcDbLine
 10
505.950915
 20
1349.1
 30
0.0
 11
507.2411099999999
 21
1349.1
 31
0.0
  0
LINE
  5
357
330
1FE
100
AcDbEntity
  8
LC-001-002-----0
 62
     7
370
    35
100
AcDbLine
 10
505.9640809999999
 20
1349.2
 30
0.0
 11
507.227945
 21
1349.2
 31
0.0
  0
LINE
  5
358
330
1FE
100
AcDbEntity
  8
LC-001-002-----0
 62
     7
370
    35
100
AcDbLine
 10
505.9772459999999
 20
1349.3
 30
0.0
 11
507.214779
 21
1349.3
 31
0.0
  0
LINE
  5
359
330
1FE
100
AcDbEntity
  8
LC-001-002-----0
 62
     7
370
    35
100
AcDbLine
 10
505.990411
 20
1349.4
 30
0.0
 11
507.2016139999999
 21
1349.4
 31
0.0
  0
LINE
  5
35A
330
1FE
100
AcDbEntity
  8
LC-001-002-----0
 62
     7
370
    35
100
AcDbLine
 10
506.0035759999999
 20
1349.5
 30
0.0
 11
507.188449
 21
1349.5
 31
0.0
  0
LINE
  5
35B
330
1FE
100
AcDbEntity
  8
LC-001-002-----0
 62
     7
370
    35
100
AcDbLine
 10
506.0167419999999
 20
1349.6
 30
0.0
 11
507.175284
 21
1349.6
 31
0.0
  0
LINE
  5
35C
330
1FE
100
AcDbEntity
  8
LC-001-002-----0
 62
     7
370
    35
100
AcDbLine
 10
506.029907
 20
1349.7
 30
0.0
 11
507.162118
 21
1349.7
 31
0.0
  0
LINE
  5
35D
330
1FE
100
AcDbEntity
  8
LC-001-002-----0
 62
     7
370
    35
100
AcDbLine
 10
506.043072
 20
1349.8
 30
0.0
 11
507.148953
 21
1349.8
 31
0.0
  0
LINE
  5
35E
330
1FE
100
AcDbEntity
  8
LC-001-002-----0
 62
     7
370
    35
100
AcDbLine
 10
506.056237
 20
1349.9
 30
0.0
 11
507.1357879999999
 21
1349.9
 31
0.0
  0
LINE
  5
35F
330
1FE
100
AcDbEntity
  8
LC-001-002-----0
 62
     7
370
    35
100
AcDbLine
 10
506.069403
 20
1350.0
 30
0.0
 11
507.122623
 21
1350.0
 31
0.0
  0
LINE
  5
360
330
1FE
100
AcDbEntity
  8
LC-001-002-----0
 62
     7
370
    35
100
AcDbLine
 10
506.0825679999999
 20
1350.1
 30
0.0
 11
507.109457
 21
1350.1
 31
0.0
  0
LINE
  5
361
330
1FE
100
AcDbEntity
  8
LC-001-002-----0
 62
     7
370
    35
100
AcDbLine
 10
506.0957329999999
 20
1350.2
 30
0.0
 11
507.096292
 21
1350.2
 31
0.0
  0
LINE
  5
362
330
1FE
100
AcDbEntity
  8
LC-001-002-----0
 62
     7
370
    35
100
AcDbLine
 10
506.108898
 20
1350.3
 30
0.0
 11
507.0831269999999
 21
1350.3
 31
0.0
  0
LINE
  5
363
330
1FE
100
AcDbEntity
  8
LC-001-002-----0
 62
     7
370
    35
100
AcDbLine
 10
506.122064
 20
1350.4
 30
0.0
 11
507.069962
 21
1350.4
 31
0.0
  0
LINE
  5
364
330
1FE
100
AcDbEntity
  8
LC-001-002-----0
 62
     7
370
    35
100
AcDbLine
 10
506.135229
 20
1350.5
 30
0.0
 11
507.0567959999999
 21
1350.5
 31
0.0
  0
LINE
  5
365
330
1FE
100
AcDbEntity
  8
LC-001-002-----0
 62
     7
370
    35
100
AcDbLine
 10
506.148394
 20
1350.6
 30
0.0
 11
507.0436309999999
 21
1350.6
 31
0.0
  0
LINE
  5
366
330
1FE
100
AcDbEntity
  8
LC-001-002-----0
 62
     7
370
    35
100
AcDbLine
 10
506.161559
 20
1350.7
 30
0.0
 11
507.0304659999999
 21
1350.7
 31
0.0
  0
LINE
  5
367
330
1FE
100
AcDbEntity
  8
LC-001-002-----0
 62
     7
370
    35
100
AcDbLine
 10
506.174725
 20
1350.8
 30
0.0
 11
507.0173009999999
 21
1350.8
 31
0.0
  0
LINE
  5
368
330
1FE
100
AcDbEntity
  8
LC-001-002-----0
 62
     7
370
    35
100
AcDbLine
 10
506.18789
 20
1350.9
 30
0.0
 11
507.0041349999999
 21
1350.9
 31
0.0
  0
LINE
  5
369
330
1FE
100
AcDbEntity
  8
LC-001-002-----0
 62
     7
370
    35
100
AcDbLine
 10
506.201055
 20
1351.0
 30
0.0
 11
506.99097
 21
1351.0
 31
0.0
  0
LINE
  5
36A
330
1FE
100
AcDbEntity
  8
LC-001-002-----0
 62
     7
370
    35
100
AcDbLine
 10
506.21422
 20
1351.1
 30
0.0
 11
506.977805
 21
1351.1
 31
0.0
  0
LINE
  5
36B
330
1FE
100
AcDbEntity
  8
LC-001-002-----0
 62
     7
370
    35
100
AcDbLine
 10
506.227386
 20
1351.2
 30
0.0
 11
506.96464
 21
1351.2
 31
0.0
  0
LINE
  5
36C
330
1FE
100
AcDbEntity
  8
LC-001-002-----0
 62
     7
370
    35
100
AcDbLine
 10
506.2405509999999
 20
1351.3
 30
0.0
 11
506.951474
 21
1351.3
 31
0.0
  0
LINE
  5
36D
330
1FE
100
AcDbEntity
  8
LC-001-002-----0
 62
     7
370
    35
100
AcDbLine
 10
506.2537159999999
 20
1351.4
 30
0.0
 11
506.938309
 21
1351.4
 31
0.0
  0
LINE
  5
36E
330
1FE
100
AcDbEntity
  8
LC-001-002-----0
 62
     7
370
    35
100
AcDbLine
 10
506.2668809999999
 20
1351.5
 30
0.0
 11
506.925144
 21
1351.5
 31
0.0
  0
LINE
  5
36F
330
1FE
100
AcDbEntity
  8
LC-001-002-----0
 62
     7
370
    35
100
AcDbLine
 10
506.2800469999999
 20
1351.6
 30
0.0
 11
506.911979
 21
1351.6
 31
0.0
  0
LINE
  5
370
330
1FE
100
AcDbEntity
  8
LC-001-002-----0
 62
     7
370
    35
100
AcDbLine
 10
506.293212
 20
1351.7
 30
0.0
 11
506.898813
 21
1351.7
 31
0.0
  0
LINE
  5
371
330
1FE
100
AcDbEntity
  8
LC-001-002-----0
 62
     7
370
    35
100
AcDbLine
 10
506.3063769999999
 20
1351.8
 30
0.0
 11
506.885648
 21
1351.8
 31
0.0
  0
LINE
  5
372
330
1FE
100
AcDbEntity
  8
LC-001-002-----0
 62
     7
370
    35
100
AcDbLine
 10
506.319542
 20
1351.9
 30
0.0
 11
506.8724829999999
 21
1351.9
 31
0.0
  0
LINE
  5
373
330
1FE
100
AcDbEntity
  8
LC-001-002-----0
 62
     7
370
    35
100
AcDbLine
 10
506.332708
 20
1352.0
 30
0.0
 11
506.8593179999999
 21
1352.0
 31
0.0
  0
LINE
  5
374
330
1FE
100
AcDbEntity
  8
LC-001-002-----0
 62
     7
370
    35
100
AcDbLine
 10
506.345873
 20
1352.1
 30
0.0
 11
506.8461519999999
 21
1352.1
 31
0.0
  0
LINE
  5
375
330
1FE
100
AcDbEntity
  8
LC-001-002-----0
 62
     7
370
    35
100
AcDbLine
 10
506.3590379999999
 20
1352.2
 30
0.0
 11
506.832987
 21
1352.2
 31
0.0
  0
LINE
  5
376
330
1FE
100
AcDbEntity
  8
LC-001-002-----0
 62
     7
370
    35
100
AcDbLine
 10
506.372203
 20
1352.3
 30
0.0
 11
506.819822
 21
1352.3
 31
0.0
  0
LINE
  5
377
330
1FE
100
AcDbEntity
  8
LC-001-002-----0
 62
     7
370
    35
100
AcDbLine
 10
506.385369
 20
1352.4
 30
0.0
 11
506.806657
 21
1352.4
 31
0.0
  0
LINE
  5
378
330
1FE
100
AcDbEntity
  8
LC-001-002-----0
 62
     7
370
    35
100
AcDbLine
 10
506.398534
 20
1352.5
 30
0.0
 11
506.7934909999999
 21
1352.5
 31
0.0
  0
LINE
  5
379
330
1FE
100
AcDbEntity
  8
LC-001-002-----0
 62
     7
370
    35
100
AcDbLine
 10
506.411699
 20
1352.6
 30
0.0
 11
506.7803259999999
 21
1352.6
 31
0.0
  0
LINE
  5
37A
330
1FE
100
AcDbEntity
  8
LC-001-002-----0
 62
     7
370
    35
100
AcDbLine
 10
506.4248639999999
 20
1352.7
 30
0.0
 11
506.767161
 21
1352.7
 31
0.0
  0
LINE
  5
37B
330
1FE
100
AcDbEntity
  8
LC-001-002-----0
 62
     7
370
    35
100
AcDbLine
 10
506.4380299999999
 20
1352.8
 30
0.0
 11
506.7539959999999
 21
1352.8
 31
0.0
  0
LINE
  5
37C
330
1FE
100
AcDbEntity
  8
LC-001-002-----0
 62
     7
370
    35
100
AcDbLine
 10
506.451195
 20
1352.9
 30
0.0
 11
506.7408299999999
 21
1352.9
 31
0.0
  0
LINE
  5
37D
330
1FE
100
AcDbEntity
  8
LC-001-002-----0
 62
     7
370
    35
100
AcDbLine
 10
506.4643599999999
 20
1353.0
 30
0.0
 11
506.7276650000001
 21
1353.0
 31
0.0
  0
LINE
  5
37E
330
1FE
100
AcDbEntity
  8
LC-001-002-----0
 62
     7
370
    35
100
AcDbLine
 10
506.477525
 20
1353.1
 30
0.0
 11
506.7145
 21
1353.1
 31
0.0
  0
LINE
  5
37F
330
1FE
100
AcDbEntity
  8
LC-001-002-----0
 62
     7
370
    35
100
AcDbLine
 10
506.490691
 20
1353.2
 30
0.0
 11
506.7013349999999
 21
1353.2
 31
0.0
  0
LINE
  5
380
330
1FE
100
AcDbEntity
  8
LC-001-002-----0
 62
     7
370
    35
100
AcDbLine
 10
506.5038559999999
 20
1353.3
 30
0.0
 11
506.688169
 21
1353.3
 31
0.0
  0
LINE
  5
381
330
1FE
100
AcDbEntity
  8
LC-001-002-----0
 62
     7
370
    35
100
AcDbLine
 10
506.5170209999999
 20
1353.4
 30
0.0
 11
506.675004
 21
1353.4
 31
0.0
  0
LINE
  5
382
330
1FE
100
AcDbEntity
  8
LC-001-002-----0
 62
     7
370
    35
100
AcDbLine
 10
506.5301859999999
 20
1353.5
 30
0.0
 11
506.661839
 21
1353.5
 31
0.0
  0
LINE
  5
383
330
1FE
100
AcDbEntity
  8
LC-001-002-----0
 62
     7
370
    35
100
AcDbLine
 10
506.543352
 20
1353.6
 30
0.0
 11
506.648674
 21
1353.6
 31
0.0
  0
LINE
  5
384
330
1FE
100
AcDbEntity
  8
LC-001-002-----0
 62
     7
370
    35
100
AcDbLine
 10
506.556517
 20
1353.7
 30
0.0
 11
506.635508
 21
1353.7
 31
0.0
  0
LINE
  5
385
330
1FE
100
AcDbEntity
  8
LC-001-002-----0
 62
     7
370
    35
100
AcDbLine
 10
506.569682
 20
1353.8
 30
0.0
 11
506.6223429999999
 21
1353.8
 31
0.0
  0
LINE
  5
386
330
1FE
100
AcDbEntity
  8
LC-001-002-----0
 62
     7
370
    35
100
AcDbLine
 10
506.5828469999999
 20
1353.9
 30
0.0
 11
506.609178
 21
1353.9
 31
0.0
  0
ENDBLK
  5
200
330
1FE
100
AcDbEntity
  8
0
100
AcDbBlockEnd
  0
BLOCK
  5
389
330
388
100
AcDbEntity
  8
0
100
AcDbBlockBegin
  2
*X14
 70
     1
 10
0.0
 20
0.0
 30
0.0
  3
*X14
  1

  4
*X6
  0
LINE
  5
38B
330
388
100
AcDbEntity
  8
LC-001-002-----0
 62
     7
370
    35
100
AcDbLine
 10
566.5874579999999
 20
1249.9
 30
0.0
 11
566.857667
 21
1249.9
 31
0.0
  0
LINE
  5
38C
330
388
100
AcDbEntity
  8
LC-001-002-----0
 62
     7
370
    35
100
AcDbLine
 10
566.5874579999999
 20
1250.0
 30
0.0
 11
567.617242
 21
1250.0
 31
0.0
  0
LINE
  5
38D
330
388
100
AcDbEntity
  8
LC-001-002-----0
 62
     7
370
    35
100
AcDbLine
 10
566.5874579999999
 20
1250.1
 30
0.0
 11
568.3768169999999
 21
1250.1
 31
0.0
  0
LINE
  5
38E
330
388
100
AcDbEntity
  8
LC-001-002-----0
 62
     7
370
    35
100
AcDbLine
 10
566.5874579999999
 20
1250.2
 30
0.0
 11
569.136393
 21
1250.2
 31
0.0
  0
LINE
  5
38F
330
388
100
AcDbEntity
  8
LC-001-002-----0
 62
     7
370
    35
100
AcDbLine
 10
566.5874579999999
 20
1250.3
 30
0.0
 11
569.8959679999999
 21
1250.3
 31
0.0
  0
LINE
  5
390
330
388
100
AcDbEntity
  8
LC-001-002-----0
 62
     7
370
    35
100
AcDbLine
 10
566.5874579999999
 20
1250.4
 30
0.0
 11
570.655544
 21
1250.4
 31
0.0
  0
LINE
  5
391
330
388
100
AcDbEntity
  8
LC-001-002-----0
 62
     7
370
    35
100
AcDbLine
 10
566.5874579999999
 20
1250.5
 30
0.0
 11
571.4151189999999
 21
1250.5
 31
0.0
  0
LINE
  5
392
330
388
100
AcDbEntity
  8
LC-001-002-----0
 62
     7
370
    35
100
AcDbLine
 10
566.5874579999999
 20
1250.6
 30
0.0
 11
572.174694
 21
1250.6
 31
0.0
  0
LINE
  5
393
330
388
100
AcDbEntity
  8
LC-001-002-----0
 62
     7
370
    35
100
AcDbLine
 10
566.5874579999999
 20
1250.7
 30
0.0
 11
572.93427
 21
1250.7
 31
0.0
  0
LINE
  5
394
330
388
100
AcDbEntity
  8
LC-001-002-----0
 62
     7
370
    35
100
AcDbLine
 10
566.5874579999999
 20
1250.8
 30
0.0
 11
573.693845
 21
1250.8
 31
0.0
  0
LINE
  5
395
330
388
100
AcDbEntity
  8
LC-001-002-----0
 62
     7
370
    35
100
AcDbLine
 10
566.5874579999999
 20
1250.9
 30
0.0
 11
574.453421
 21
1250.9
 31
0.0
  0
LINE
  5
396
330
388
100
AcDbEntity
  8
LC-001-002-----0
 62
     7
370
    35
100
AcDbLine
 10
566.5874579999999
 20
1251.0
 30
0.0
 11
575.2129959999999
 21
1251.0
 31
0.0
  0
LINE
  5
397
330
388
100
AcDbEntity
  8
LC-001-002-----0
 62
     7
370
    35
100
AcDbLine
 10
566.5874579999999
 20
1251.1
 30
0.0
 11
575.972571
 21
1251.1
 31
0.0
  0
LINE
  5
398
330
388
100
AcDbEntity
  8
LC-001-002-----0
 62
     7
370
    35
100
AcDbLine
 10
566.5874579999999
 20
1251.2
 30
0.0
 11
576.7321469999999
 21
1251.2
 31
0.0
  0
LINE
  5
399
330
388
100
AcDbEntity
  8
LC-001-002-----0
 62
     7
370
    35
100
AcDbLine
 10
566.5874579999999
 20
1251.3
 30
0.0
 11
577.4917219999999
 21
1251.3
 31
0.0
  0
LINE
  5
39A
330
388
100
AcDbEntity
  8
LC-001-002-----0
 62
     7
370
    35
100
AcDbLine
 10
566.5874579999999
 20
1251.4
 30
0.0
 11
578.2512979999999
 21
1251.4
 31
0.0
  0
LINE
  5
39B
330
388
100
AcDbEntity
  8
LC-001-002-----0
 62
     7
370
    35
100
AcDbLine
 10
566.5874579999999
 20
1251.5
 30
0.0
 11
579.010873
 21
1251.5
 31
0.0
  0
LINE
  5
39C
330
388
100
AcDbEntity
  8
LC-001-002-----0
 62
     7
370
    35
100
AcDbLine
 10
566.5874579999999
 20
1251.6
 30
0.0
 11
579.770449
 21
1251.6
 31
0.0
  0
LINE
  5
39D
330
388
100
AcDbEntity
  8
LC-001-002-----0
 62
     7
370
    35
100
AcDbLine
 10
566.5874579999999
 20
1251.7
 30
0.0
 11
580.530024
 21
1251.7
 31
0.0
  0
LINE
  5
39E
330
388
100
AcDbEntity
  8
LC-001-002-----0
 62
     7
370
    35
100
AcDbLine
 10
566.5874579999999
 20
1251.8
 30
0.0
 11
581.289599
 21
1251.8
 31
0.0
  0
LINE
  5
39F
330
388
100
AcDbEntity
  8
LC-001-002-----0
 62
     7
370
    35
100
AcDbLine
 10
566.5874579999999
 20
1251.9
 30
0.0
 11
582.049175
 21
1251.9
 31
0.0
  0
LINE
  5
3A0
330
388
100
AcDbEntity
  8
LC-001-002-----0
 62
     7
370
    35
100
AcDbLine
 10
566.5874579999999
 20
1252.0
 30
0.0
 11
582.80875
 21
1252.0
 31
0.0
  0
LINE
  5
3A1
330
388
100
AcDbEntity
  8
LC-001-002-----0
 62
     7
370
    35
100
AcDbLine
 10
566.5874579999999
 20
1252.1
 30
0.0
 11
583.5683259999999
 21
1252.1
 31
0.0
  0
LINE
  5
3A2
330
388
100
AcDbEntity
  8
LC-001-002-----0
 62
     7
370
    35
100
AcDbLine
 10
566.5874579999999
 20
1252.2
 30
0.0
 11
584.3279009999999
 21
1252.2
 31
0.0
  0
LINE
  5
3A3
330
388
100
AcDbEntity
  8
LC-001-002-----0
 62
     7
370
    35
100
AcDbLine
 10
566.5874579999999
 20
1252.3
 30
0.0
 11
585.0874759999999
 21
1252.3
 31
0.0
  0
LINE
  5
3A4
330
388
100
AcDbEntity
  8
LC-001-002-----0
 62
     7
370
    35
100
AcDbLine
 10
566.5874579999999
 20
1252.4
 30
0.0
 11
585.847052
 21
1252.4
 31
0.0
  0
LINE
  5
3A5
330
388
100
AcDbEntity
  8
LC-001-002-----0
 62
     7
370
    35
100
AcDbLine
 10
566.5874579999999
 20
1252.5
 30
0.0
 11
586.606627
 21
1252.5
 31
0.0
  0
LINE
  5
3A6
330
388
100
AcDbEntity
  8
LC-001-002-----0
 62
     7
370
    35
100
AcDbLine
 10
566.5874579999999
 20
1252.6
 30
0.0
 11
587.366203
 21
1252.6
 31
0.0
  0
LINE
  5
3A7
330
388
100
AcDbEntity
  8
LC-001-002-----0
 62
     7
370
    35
100
AcDbLine
 10
566.5874579999999
 20
1252.7
 30
0.0
 11
588.1257780000001
 21
1252.7
 31
0.0
  0
LINE
  5
3A8
330
388
100
AcDbEntity
  8
LC-001-002-----0
 62
     7
370
    35
100
AcDbLine
 10
566.5874579999999
 20
1252.8
 30
0.0
 11
588.885353
 21
1252.8
 31
0.0
  0
LINE
  5
3A9
330
388
100
AcDbEntity
  8
LC-001-002-----0
 62
     7
370
    35
100
AcDbLine
 10
566.5874579999999
 20
1252.9
 30
0.0
 11
589.644929
 21
1252.9
 31
0.0
  0
LINE
  5
3AA
330
388
100
AcDbEntity
  8
LC-001-002-----0
 62
     7
370
    35
100
AcDbLine
 10
566.5874579999999
 20
1253.0
 30
0.0
 11
590.4045039999999
 21
1253.0
 31
0.0
  0
LINE
  5
3AB
330
388
100
AcDbEntity
  8
LC-001-002-----0
 62
     7
370
    35
100
AcDbLine
 10
566.5874579999999
 20
1253.1
 30
0.0
 11
591.1640799999999
 21
1253.1
 31
0.0
  0
LINE
  5
3AC
330
388
100
AcDbEntity
  8
LC-001-002-----0
 62
     7
370
    35
100
AcDbLine
 10
566.5874579999999
 20
1253.2
 30
0.0
 11
591.9236549999999
 21
1253.2
 31
0.0
  0
LINE
  5
3AD
330
388
100
AcDbEntity
  8
LC-001-002-----0
 62
     7
370
    35
100
AcDbLine
 10
566.5874579999999
 20
1253.3
 30
0.0
 11
592.6832309999999
 21
1253.3
 31
0.0
  0
LINE
  5
3AE
330
388
100
AcDbEntity
  8
LC-001-002-----0
 62
     7
370
    35
100
AcDbLine
 10
566.5874579999999
 20
1253.4
 30
0.0
 11
593.4428059999999
 21
1253.4
 31
0.0
  0
LINE
  5
3AF
330
388
100
AcDbEntity
  8
LC-001-002-----0
 62
     7
370
    35
100
AcDbLine
 10
566.5874579999999
 20
1253.5
 30
0.0
 11
594.2023809999999
 21
1253.5
 31
0.0
  0
LINE
  5
3B0
330
388
100
AcDbEntity
  8
LC-001-002-----0
 62
     7
370
    35
100
AcDbLine
 10
566.5874579999999
 20
1253.6
 30
0.0
 11
594.961957
 21
1253.6
 31
0.0
  0
LINE
  5
3B1
330
388
100
AcDbEntity
  8
LC-001-002-----0
 62
     7
370
    35
100
AcDbLine
 10
566.5874579999999
 20
1253.7
 30
0.0
 11
595.721532
 21
1253.7
 31
0.0
  0
LINE
  5
3B2
330
388
100
AcDbEntity
  8
LC-001-002-----0
 62
     7
370
    35
100
AcDbLine
 10
566.5874579999999
 20
1253.8
 30
0.0
 11
596.481108
 21
1253.8
 31
0.0
  0
LINE
  5
3B3
330
388
100
AcDbEntity
  8
LC-001-002-----0
 62
     7
370
    35
100
AcDbLine
 10
566.5874579999999
 20
1253.9
 30
0.0
 11
597.2406829999999
 21
1253.9
 31
0.0
  0
LINE
  5
3B4
330
388
100
AcDbEntity
  8
LC-001-002-----0
 62
     7
370
    35
100
AcDbLine
 10
566.5874579999999
 20
1254.0
 30
0.0
 11
598.000258
 21
1254.0
 31
0.0
  0
LINE
  5
3B5
330
388
100
AcDbEntity
  8
LC-001-002-----0
 62
     7
370
    35
100
AcDbLine
 10
566.5874579999999
 20
1254.1
 30
0.0
 11
598.7598339999999
 21
1254.1
 31
0.0
  0
LINE
  5
3B6
330
388
100
AcDbEntity
  8
LC-001-002-----0
 62
     7
370
    35
100
AcDbLine
 10
566.5874579999999
 20
1254.2
 30
0.0
 11
599.519409
 21
1254.2
 31
0.0
  0
LINE
  5
3B7
330
388
100
AcDbEntity
  8
LC-001-002-----0
 62
     7
370
    35
100
AcDbLine
 10
566.5874579999999
 20
1254.3
 30
0.0
 11
600.2789849999999
 21
1254.3
 31
0.0
  0
LINE
  5
3B8
330
388
100
AcDbEntity
  8
LC-001-002-----0
 62
     7
370
    35
100
AcDbLine
 10
566.5874579999999
 20
1254.4
 30
0.0
 11
601.0385599999999
 21
1254.4
 31
0.0
  0
LINE
  5
3B9
330
388
100
AcDbEntity
  8
LC-001-002-----0
 62
     7
370
    35
100
AcDbLine
 10
566.5874579999999
 20
1254.5
 30
0.0
 11
601.798135
 21
1254.5
 31
0.0
  0
LINE
  5
3BA
330
388
100
AcDbEntity
  8
LC-001-002-----0
 62
     7
370
    35
100
AcDbLine
 10
566.5874579999999
 20
1254.6
 30
0.0
 11
602.557711
 21
1254.6
 31
0.0
  0
LINE
  5
3BB
330
388
100
AcDbEntity
  8
LC-001-002-----0
 62
     7
370
    35
100
AcDbLine
 10
566.5874579999999
 20
1254.7
 30
0.0
 11
603.317286
 21
1254.7
 31
0.0
  0
LINE
  5
3BC
330
388
100
AcDbEntity
  8
LC-001-002-----0
 62
     7
370
    35
100
AcDbLine
 10
566.5874579999999
 20
1254.8
 30
0.0
 11
604.076862
 21
1254.8
 31
0.0
  0
LINE
  5
3BD
330
388
100
AcDbEntity
  8
LC-001-002-----0
 62
     7
370
    35
100
AcDbLine
 10
566.5874579999999
 20
1254.9
 30
0.0
 11
604.836437
 21
1254.9
 31
0.0
  0
LINE
  5
3BE
330
388
100
AcDbEntity
  8
LC-001-002-----0
 62
     7
370
    35
100
AcDbLine
 10
566.5874579999999
 20
1255.1
 30
0.0
 11
604.836438
 21
1255.1
 31
0.0
  0
LINE
  5
3BF
330
388
100
AcDbEntity
  8
LC-001-002-----0
 62
     7
370
    35
100
AcDbLine
 10
566.5874579999999
 20
1255.2
 30
0.0
 11
604.076862
 21
1255.2
 31
0.0
  0
LINE
  5
3C0
330
388
100
AcDbEntity
  8
LC-001-002-----0
 62
     7
370
    35
100
AcDbLine
 10
566.5874579999999
 20
1255.3
 30
0.0
 11
603.3172869999999
 21
1255.3
 31
0.0
  0
LINE
  5
3C1
330
388
100
AcDbEntity
  8
LC-001-002-----0
 62
     7
370
    35
100
AcDbLine
 10
566.5874579999999
 20
1255.4
 30
0.0
 11
602.557711
 21
1255.4
 31
0.0
  0
LINE
  5
3C2
330
388
100
AcDbEntity
  8
LC-001-002-----0
 62
     7
370
    35
100
AcDbLine
 10
566.5874579999999
 20
1255.5
 30
0.0
 11
601.798136
 21
1255.5
 31
0.0
  0
LINE
  5
3C3
330
388
100
AcDbEntity
  8
LC-001-002-----0
 62
     7
370
    35
100
AcDbLine
 10
566.5874579999999
 20
1255.6
 30
0.0
 11
601.0385610000001
 21
1255.6
 31
0.0
  0
LINE
  5
3C4
330
388
100
AcDbEntity
  8
LC-001-002-----0
 62
     7
370
    35
100
AcDbLine
 10
566.5874579999999
 20
1255.7
 30
0.0
 11
600.2789849999999
 21
1255.7
 31
0.0
  0
LINE
  5
3C5
330
388
100
AcDbEntity
  8
LC-001-002-----0
 62
     7
370
    35
100
AcDbLine
 10
566.5874579999999
 20
1255.8
 30
0.0
 11
599.5194099999999
 21
1255.8
 31
0.0
  0
LINE
  5
3C6
330
388
100
AcDbEntity
  8
LC-001-002-----0
 62
     7
370
    35
100
AcDbLine
 10
566.5874579999999
 20
1255.9
 30
0.0
 11
598.7598339999999
 21
1255.9
 31
0.0
  0
LINE
  5
3C7
330
388
100
AcDbEntity
  8
LC-001-002-----0
 62
     7
370
    35
100
AcDbLine
 10
566.5874579999999
 20
1256.0
 30
0.0
 11
598.000259
 21
1256.0
 31
0.0
  0
LINE
  5
3C8
330
388
100
AcDbEntity
  8
LC-001-002-----0
 62
     7
370
    35
100
AcDbLine
 10
566.5874579999999
 20
1256.1
 30
0.0
 11
597.2406829999999
 21
1256.1
 31
0.0
  0
LINE
  5
3C9
330
388
100
AcDbEntity
  8
LC-001-002-----0
 62
     7
370
    35
100
AcDbLine
 10
566.5874579999999
 20
1256.2
 30
0.0
 11
596.481108
 21
1256.2
 31
0.0
  0
LINE
  5
3CA
330
388
100
AcDbEntity
  8
LC-001-002-----0
 62
     7
370
    35
100
AcDbLine
 10
566.5874579999999
 20
1256.3
 30
0.0
 11
595.721533
 21
1256.3
 31
0.0
  0
LINE
  5
3CB
330
388
100
AcDbEntity
  8
LC-001-002-----0
 62
     7
370
    35
100
AcDbLine
 10
566.5874579999999
 20
1256.4
 30
0.0
 11
594.961957
 21
1256.4
 31
0.0
  0
LINE
  5
3CC
330
388
100
AcDbEntity
  8
LC-001-002-----0
 62
     7
370
    35
100
AcDbLine
 10
566.5874579999999
 20
1256.5
 30
0.0
 11
594.2023820000001
 21
1256.5
 31
0.0
  0
LINE
  5
3CD
330
388
100
AcDbEntity
  8
LC-001-002-----0
 62
     7
370
    35
100
AcDbLine
 10
566.5874579999999
 20
1256.6
 30
0.0
 11
593.4428059999999
 21
1256.6
 31
0.0
  0
LINE
  5
3CE
330
388
100
AcDbEntity
  8
LC-001-002-----0
 62
     7
370
    35
100
AcDbLine
 10
566.5874579999999
 20
1256.7
 30
0.0
 11
592.6832309999999
 21
1256.7
 31
0.0
  0
LINE
  5
3CF
330
388
100
AcDbEntity
  8
LC-001-002-----0
 62
     7
370
    35
100
AcDbLine
 10
566.5874579999999
 20
1256.8
 30
0.0
 11
591.9236559999999
 21
1256.8
 31
0.0
  0
LINE
  5
3D0
330
388
100
AcDbEntity
  8
LC-001-002-----0
 62
     7
370
    35
100
AcDbLine
 10
566.5874579999999
 20
1256.9
 30
0.0
 11
591.1640799999999
 21
1256.9
 31
0.0
  0
LINE
  5
3D1
330
388
100
AcDbEntity
  8
LC-001-002-----0
 62
     7
370
    35
100
AcDbLine
 10
566.5874579999999
 20
1257.0
 30
0.0
 11
590.4045049999999
 21
1257.0
 31
0.0
  0
LINE
  5
3D2
330
388
100
AcDbEntity
  8
LC-001-002-----0
 62
     7
370
    35
100
AcDbLine
 10
566.5874579999999
 20
1257.1
 30
0.0
 11
589.644929
 21
1257.1
 31
0.0
  0
LINE
  5
3D3
330
388
100
AcDbEntity
  8
LC-001-002-----0
 62
     7
370
    35
100
AcDbLine
 10
566.5874579999999
 20
1257.2
 30
0.0
 11
588.885354
 21
1257.2
 31
0.0
  0
LINE
  5
3D4
330
388
100
AcDbEntity
  8
LC-001-002-----0
 62
     7
370
    35
100
AcDbLine
 10
566.5874579999999
 20
1257.3
 30
0.0
 11
588.1257789999999
 21
1257.3
 31
0.0
  0
LINE
  5
3D5
330
388
100
AcDbEntity
  8
LC-001-002-----0
 62
     7
370
    35
100
AcDbLine
 10
566.5874579999999
 20
1257.4
 30
0.0
 11
587.366203
 21
1257.4
 31
0.0
  0
LINE
  5
3D6
330
388
100
AcDbEntity
  8
LC-001-002-----0
 62
     7
370
    35
100
AcDbLine
 10
566.5874579999999
 20
1257.5
 30
0.0
 11
586.606628
 21
1257.5
 31
0.0
  0
LINE
  5
3D7
330
388
100
AcDbEntity
  8
LC-001-002-----0
 62
     7
370
    35
100
AcDbLine
 10
566.5874579999999
 20
1257.6
 30
0.0
 11
585.847052
 21
1257.6
 31
0.0
  0
LINE
  5
3D8
330
388
100
AcDbEntity
  8
LC-001-002-----0
 62
     7
370
    35
100
AcDbLine
 10
566.5874579999999
 20
1257.7
 30
0.0
 11
585.0874769999999
 21
1257.7
 31
0.0
  0
LINE
  5
3D9
330
388
100
AcDbEntity
  8
LC-001-002-----0
 62
     7
370
    35
100
AcDbLine
 10
566.5874579999999
 20
1257.8
 30
0.0
 11
584.3279019999999
 21
1257.8
 31
0.0
  0
LINE
  5
3DA
330
388
100
AcDbEntity
  8
LC-001-002-----0
 62
     7
370
    35
100
AcDbLine
 10
566.5874579999999
 20
1257.9
 30
0.0
 11
583.5683259999999
 21
1257.9
 31
0.0
  0
LINE
  5
3DB
330
388
100
AcDbEntity
  8
LC-001-002-----0
 62
     7
370
    35
100
AcDbLine
 10
566.5874579999999
 20
1258.0
 30
0.0
 11
582.808751
 21
1258.0
 31
0.0
  0
LINE
  5
3DC
330
388
100
AcDbEntity
  8
LC-001-002-----0
 62
     7
370
    35
100
AcDbLine
 10
566.5874579999999
 20
1258.1
 30
0.0
 11
582.049175
 21
1258.1
 31
0.0
  0
LINE
  5
3DD
330
388
100
AcDbEntity
  8
LC-001-002-----0
 62
     7
370
    35
100
AcDbLine
 10
566.5874579999999
 20
1258.2
 30
0.0
 11
581.2895999999999
 21
1258.2
 31
0.0
  0
LINE
  5
3DE
330
388
100
AcDbEntity
  8
LC-001-002-----0
 62
     7
370
    35
100
AcDbLine
 10
566.5874579999999
 20
1258.3
 30
0.0
 11
580.530024
 21
1258.3
 31
0.0
  0
LINE
  5
3DF
330
388
100
AcDbEntity
  8
LC-001-002-----0
 62
     7
370
    35
100
AcDbLine
 10
566.5874579999999
 20
1258.4
 30
0.0
 11
579.770449
 21
1258.4
 31
0.0
  0
LINE
  5
3E0
330
388
100
AcDbEntity
  8
LC-001-002-----0
 62
     7
370
    35
100
AcDbLine
 10
566.5874579999999
 20
1258.5
 30
0.0
 11
579.010874
 21
1258.5
 31
0.0
  0
LINE
  5
3E1
330
388
100
AcDbEntity
  8
LC-001-002-----0
 62
     7
370
    35
100
AcDbLine
 10
566.5874579999999
 20
1258.6
 30
0.0
 11
578.2512979999999
 21
1258.6
 31
0.0
  0
LINE
  5
3E2
330
388
100
AcDbEntity
  8
LC-001-002-----0
 62
     7
370
    35
100
AcDbLine
 10
566.5874579999999
 20
1258.7
 30
0.0
 11
577.491723
 21
1258.7
 31
0.0
  0
LINE
  5
3E3
330
388
100
AcDbEntity
  8
LC-001-002-----0
 62
     7
370
    35
100
AcDbLine
 10
566.5874579999999
 20
1258.8
 30
0.0
 11
576.7321469999999
 21
1258.8
 31
0.0
  0
LINE
  5
3E4
330
388
100
AcDbEntity
  8
LC-001-002-----0
 62
     7
370
    35
100
AcDbLine
 10
566.5874579999999
 20
1258.9
 30
0.0
 11
575.972572
 21
1258.9
 31
0.0
  0
LINE
  5
3E5
330
388
100
AcDbEntity
  8
LC-001-002-----0
 62
     7
370
    35
100
AcDbLine
 10
566.5874579999999
 20
1259.0
 30
0.0
 11
575.2129969999999
 21
1259.0
 31
0.0
  0
LINE
  5
3E6
330
388
100
AcDbEntity
  8
LC-001-002-----0
 62
     7
370
    35
100
AcDbLine
 10
566.5874579999999
 20
1259.1
 30
0.0
 11
574.453421
 21
1259.1
 31
0.0
  0
LINE
  5
3E7
330
388
100
AcDbEntity
  8
LC-001-002-----0
 62
     7
370
    35
100
AcDbLine
 10
566.5874579999999
 20
1259.2
 30
0.0
 11
573.693846
 21
1259.2
 31
0.0
  0
LINE
  5
3E8
330
388
100
AcDbEntity
  8
LC-001-002-----0
 62
     7
370
    35
100
AcDbLine
 10
566.5874579999999
 20
1259.3
 30
0.0
 11
572.93427
 21
1259.3
 31
0.0
  0
LINE
  5
3E9
330
388
100
AcDbEntity
  8
LC-001-002-----0
 62
     7
370
    35
100
AcDbLine
 10
566.5874579999999
 20
1259.4
 30
0.0
 11
572.174695
 21
1259.4
 31
0.0
  0
LINE
  5
3EA
330
388
100
AcDbEntity
  8
LC-001-002-----0
 62
     7
370
    35
100
AcDbLine
 10
566.5874579999999
 20
1259.5
 30
0.0
 11
571.4151199999999
 21
1259.5
 31
0.0
  0
LINE
  5
3EB
330
388
100
AcDbEntity
  8
LC-001-002-----0
 62
     7
370
    35
100
AcDbLine
 10
566.5874579999999
 20
1259.6
 30
0.0
 11
570.655544
 21
1259.6
 31
0.0
  0
LINE
  5
3EC
330
388
100
AcDbEntity
  8
LC-001-002-----0
 62
     7
370
    35
100
AcDbLine
 10
566.5874579999999
 20
1259.7
 30
0.0
 11
569.895969
 21
1259.7
 31
0.0
  0
LINE
  5
3ED
330
388
100
AcDbEntity
  8
LC-001-002-----0
 62
     7
370
    35
100
AcDbLine
 10
566.5874579999999
 20
1259.8
 30
0.0
 11
569.136393
 21
1259.8
 31
0.0
  0
LINE
  5
3EE
330
388
100
AcDbEntity
  8
LC-001-002-----0
 62
     7
370
    35
100
AcDbLine
 10
566.5874579999999
 20
1259.9
 30
0.0
 11
568.3768179999999
 21
1259.9
 31
0.0
  0
LINE
  5
3EF
330
388
100
AcDbEntity
  8
LC-001-002-----0
 62
     7
370
    35
100
AcDbLine
 10
566.5874579999999
 20
1260.0
 30
0.0
 11
567.617242
 21
1260.0
 31
0.0
  0
LINE
  5
3F0
330
388
100
AcDbEntity
  8
LC-001-002-----0
 62
     7
370
    35
100
AcDbLine
 10
566.5874579999999
 20
1260.1
 30
0.0
 11
566.857667
 21
1260.1
 31
0.0
  0
ENDBLK
  5
38A
330
388
100
AcDbEntity
  8
0
100
AcDbBlockEnd
  0
BLOCK
  5
3F6
330
3F5
100
AcDbEntity
  8
0
100
AcDbBlockBegin
  2
*X15
 70
     1
 10
0.0
 20
0.0
 30
0.0
  3
*X15
  1

  4
*X7
  0
LINE
  5
3F8
330
3F5
100
AcDbEntity
  8
LC-001-002-----0
 62
     7
370
    35
100
AcDbLine
 10
506.5960129999999
 20
1240.2
 30
0.0
 11
509.0373239999999
 21
1240.2
 31
0.0
  0
LINE
  5
3F9
330
3F5
100
AcDbEntity
  8
LC-001-002-----0
 62
     7
370
    35
100
AcDbLine
 10
506.5960129999999
 20
1240.4
 30
0.0
 11
510.0369429999999
 21
1240.4
 31
0.0
  0
LINE
  5
3FA
330
3F5
100
AcDbEntity
  8
LC-001-002-----0
 62
     7
370
    35
100
AcDbLine
 10
506.5960129999999
 20
1240.6
 30
0.0
 11
510.796013
 21
1240.6
 31
0.0
  0
LINE
  5
3FB
330
3F5
100
AcDbEntity
  8
LC-001-002-----0
 62
     7
370
    35
100
AcDbLine
 10
506.5960129999999
 20
1240.8
 30
0.0
 11
511.4292309999999
 21
1240.8
 31
0.0
  0
LINE
  5
3FC
330
3F5
100
AcDbEntity
  8
LC-001-002-----0
 62
     7
370
    35
100
AcDbLine
 10
506.5960129999999
 20
1241.0
 30
0.0
 11
511.981178
 21
1241.0
 31
0.0
  0
LINE
  5
3FD
330
3F5
100
AcDbEntity
  8
LC-001-002-----0
 62
     7
370
    35
100
AcDbLine
 10
506.5960129999999
 20
1241.2
 30
0.0
 11
512.474788
 21
1241.2
 31
0.0
  0
LINE
  5
3FE
330
3F5
100
AcDbEntity
  8
LC-001-002-----0
 62
     7
370
    35
100
AcDbLine
 10
506.5960129999999
 20
1241.4
 30
0.0
 11
512.9237299999999
 21
1241.4
 31
0.0
  0
LINE
  5
3FF
330
3F5
100
AcDbEntity
  8
LC-001-002-----0
 62
     7
370
    35
100
AcDbLine
 10
506.5960129999999
 20
1241.6
 30
0.0
 11
513.336933
 21
1241.6
 31
0.0
  0
LINE
  5
400
330
3F5
100
AcDbEntity
  8
LC-001-002-----0
 62
     7
370
    35
100
AcDbLine
 10
506.5960129999999
 20
1241.8
 30
0.0
 11
513.7206179999999
 21
1241.8
 31
0.0
  0
LINE
  5
401
330
3F5
100
AcDbEntity
  8
LC-001-002-----0
 62
     7
370
    35
100
AcDbLine
 10
506.5960129999999
 20
1242.0
 30
0.0
 11
514.0793269999999
 21
1242.0
 31
0.0
  0
LINE
  5
402
330
3F5
100
AcDbEntity
  8
LC-001-002-----0
 62
     7
370
    35
100
AcDbLine
 10
506.5960129999999
 20
1242.2
 30
0.0
 11
514.416499
 21
1242.2
 31
0.0
  0
LINE
  5
403
330
3F5
100
AcDbEntity
  8
LC-001-002-----0
 62
     7
370
    35
100
AcDbLine
 10
506.5960129999999
 20
1242.4
 30
0.0
 11
514.734809
 21
1242.4
 31
0.0
  0
LINE
  5
404
330
3F5
100
AcDbEntity
  8
LC-001-002-----0
 62
     7
370
    35
100
AcDbLine
 10
506.5960129999999
 20
1242.6
 30
0.0
 11
515.036392
 21
1242.6
 31
0.0
  0
LINE
  5
405
330
3F5
100
AcDbEntity
  8
LC-001-002-----0
 62
     7
370
    35
100
AcDbLine
 10
506.5960129999999
 20
1242.8
 30
0.0
 11
515.3229819999999
 21
1242.8
 31
0.0
  0
LINE
  5
406
330
3F5
100
AcDbEntity
  8
LC-001-002-----0
 62
     7
370
    35
100
AcDbLine
 10
506.5960129999999
 20
1243.0
 30
0.0
 11
515.5960129999999
 21
1243.0
 31
0.0
  0
LINE
  5
407
330
3F5
100
AcDbEntity
  8
LC-001-002-----0
 62
     7
370
    35
100
AcDbLine
 10
506.5960129999999
 20
1243.2
 30
0.0
 11
515.8566819999999
 21
1243.2
 31
0.0
  0
LINE
  5
408
330
3F5
100
AcDbEntity
  8
LC-001-002-----0
 62
     7
370
    35
100
AcDbLine
 10
506.5960129999999
 20
1243.4
 30
0.0
 11
516.1060069999999
 21
1243.4
 31
0.0
  0
LINE
  5
409
330
3F5
100
AcDbEntity
  8
LC-001-002-----0
 62
     7
370
    35
100
AcDbLine
 10
506.5960129999999
 20
1243.6
 30
0.0
 11
516.3448589999999
 21
1243.6
 31
0.0
  0
LINE
  5
40A
330
3F5
100
AcDbEntity
  8
LC-001-002-----0
 62
     7
370
    35
100
AcDbLine
 10
506.5960129999999
 20
1243.8
 30
0.0
 11
516.573988
 21
1243.8
 31
0.0
  0
LINE
  5
40B
330
3F5
100
AcDbEntity
  8
LC-001-002-----0
 62
     7
370
    35
100
AcDbLine
 10
506.5960129999999
 20
1244.0
 30
0.0
 11
516.794052
 21
1244.0
 31
0.0
  0
LINE
  5
40C
330
3F5
100
AcDbEntity
  8
LC-001-002-----0
 62
     7
370
    35
100
AcDbLine
 10
506.5960129999999
 20
1244.2
 30
0.0
 11
517.005624
 21
1244.2
 31
0.0
  0
LINE
  5
40D
330
3F5
100
AcDbEntity
  8
LC-001-002-----0
 62
     7
370
    35
100
AcDbLine
 10
506.5960129999999
 20
1244.4
 30
0.0
 11
517.209212
 21
1244.4
 31
0.0
  0
LINE
  5
40E
330
3F5
100
AcDbEntity
  8
LC-001-002-----0
 62
     7
370
    35
100
AcDbLine
 10
506.5960129999999
 20
1244.6
 30
0.0
 11
517.4052679999999
 21
1244.6
 31
0.0
  0
LINE
  5
40F
330
3F5
100
AcDbEntity
  8
LC-001-002-----0
 62
     7
370
    35
100
AcDbLine
 10
506.5960129999999
 20
1244.8
 30
0.0
 11
517.594194
 21
1244.8
 31
0.0
  0
LINE
  5
410
330
3F5
100
AcDbEntity
  8
LC-001-002-----0
 62
     7
370
    35
100
AcDbLine
 10
506.5960129999999
 20
1245.0
 30
0.0
 11
517.776353
 21
1245.0
 31
0.0
  0
LINE
  5
411
330
3F5
100
AcDbEntity
  8
LC-001-002-----0
 62
     7
370
    35
100
AcDbLine
 10
506.5960129999999
 20
1245.2
 30
0.0
 11
517.9520679999999
 21
1245.2
 31
0.0
  0
LINE
  5
412
330
3F5
100
AcDbEntity
  8
LC-001-002-----0
 62
     7
370
    35
100
AcDbLine
 10
506.5960129999999
 20
1245.4
 30
0.0
 11
518.121636
 21
1245.4
 31
0.0
  0
LINE
  5
413
330
3F5
100
AcDbEntity
  8
LC-001-002-----0
 62
     7
370
    35
100
AcDbLine
 10
506.5960129999999
 20
1245.6
 30
0.0
 11
518.285324
 21
1245.6
 31
0.0
  0
LINE
  5
414
330
3F5
100
AcDbEntity
  8
LC-001-002-----0
 62
     7
370
    35
100
AcDbLine
 10
506.5960129999999
 20
1245.8
 30
0.0
 11
518.4433749999999
 21
1245.8
 31
0.0
  0
LINE
  5
415
330
3F5
100
AcDbEntity
  8
LC-001-002-----0
 62
     7
370
    35
100
AcDbLine
 10
506.5960129999999
 20
1246.0
 30
0.0
 11
518.5960129999999
 21
1246.0
 31
0.0
  0
LINE
  5
416
330
3F5
100
AcDbEntity
  8
LC-001-002-----0
 62
     7
370
    35
100
AcDbLine
 10
506.5960129999999
 20
1246.2
 30
0.0
 11
518.74344
 21
1246.2
 31
0.0
  0
LINE
  5
417
330
3F5
100
AcDbEntity
  8
LC-001-002-----0
 62
     7
370
    35
100
AcDbLine
 10
506.5960129999999
 20
1246.4
 30
0.0
 11
518.885846
 21
1246.4
 31
0.0
  0
LINE
  5
418
330
3F5
100
AcDbEntity
  8
LC-001-002-----0
 62
     7
370
    35
100
AcDbLine
 10
506.5960129999999
 20
1246.6
 30
0.0
 11
519.0234019999999
 21
1246.6
 31
0.0
  0
LINE
  5
419
330
3F5
100
AcDbEntity
  8
LC-001-002-----0
 62
     7
370
    35
100
AcDbLine
 10
506.5960129999999
 20
1246.8
 30
0.0
 11
519.1562669999999
 21
1246.8
 31
0.0
  0
LINE
  5
41A
330
3F5
100
AcDbEntity
  8
LC-001-002-----0
 62
     7
370
    35
100
AcDbLine
 10
506.5960129999999
 20
1247.0
 30
0.0
 11
519.28459
 21
1247.0
 31
0.0
  0
LINE
  5
41B
330
3F5
100
AcDbEntity
  8
LC-001-002-----0
 62
     7
370
    35
100
AcDbLine
 10
506.5960129999999
 20
1247.2
 30
0.0
 11
519.4085069999999
 21
1247.2
 31
0.0
  0
LINE
  5
41C
330
3F5
100
AcDbEntity
  8
LC-001-002-----0
 62
     7
370
    35
100
AcDbLine
 10
506.5960129999999
 20
1247.4
 30
0.0
 11
519.528143
 21
1247.4
 31
0.0
  0
LINE
  5
41D
330
3F5
100
AcDbEntity
  8
LC-001-002-----0
 62
     7
370
    35
100
AcDbLine
 10
506.5960129999999
 20
1247.6
 30
0.0
 11
519.6436179999999
 21
1247.6
 31
0.0
  0
LINE
  5
41E
330
3F5
100
AcDbEntity
  8
LC-001-002-----0
 62
     7
370
    35
100
AcDbLine
 10
506.5960129999999
 20
1247.8
 30
0.0
 11
519.7550399999999
 21
1247.8
 31
0.0
  0
LINE
  5
41F
330
3F5
100
AcDbEntity
  8
LC-001-002-----0
 62
     7
370
    35
100
AcDbLine
 10
506.5960129999999
 20
1248.0
 30
0.0
 11
519.862512
 21
1248.0
 31
0.0
  0
LINE
  5
420
330
3F5
100
AcDbEntity
  8
LC-001-002-----0
 62
     7
370
    35
100
AcDbLine
 10
506.5960129999999
 20
1248.2
 30
0.0
 11
519.966129
 21
1248.2
 31
0.0
  0
LINE
  5
421
330
3F5
100
AcDbEntity
  8
LC-001-002-----0
 62
     7
370
    35
100
AcDbLine
 10
506.5960129999999
 20
1248.4
 30
0.0
 11
520.0659789999999
 21
1248.4
 31
0.0
  0
LINE
  5
422
330
3F5
100
AcDbEntity
  8
LC-001-002-----0
 62
     7
370
    35
100
AcDbLine
 10
506.5960129999999
 20
1248.6
 30
0.0
 11
520.162147
 21
1248.6
 31
0.0
  0
LINE
  5
423
330
3F5
100
AcDbEntity
  8
LC-001-002-----0
 62
     7
370
    35
100
AcDbLine
 10
506.5960129999999
 20
1248.8
 30
0.0
 11
520.2547099999999
 21
1248.8
 31
0.0
  0
LINE
  5
424
330
3F5
100
AcDbEntity
  8
LC-001-002-----0
 62
     7
370
    35
100
AcDbLine
 10
506.5960129999999
 20
1249.0
 30
0.0
 11
520.34374
 21
1249.0
 31
0.0
  0
LINE
  5
425
330
3F5
100
AcDbEntity
  8
LC-001-002-----0
 62
     7
370
    35
100
AcDbLine
 10
506.5960129999999
 20
1249.2
 30
0.0
 11
520.429306
 21
1249.2
 31
0.0
  0
LINE
  5
426
330
3F5
100
AcDbEntity
  8
LC-001-002-----0
 62
     7
370
    35
100
AcDbLine
 10
506.5960129999999
 20
1249.4
 30
0.0
 11
520.511472
 21
1249.4
 31
0.0
  0
LINE
  5
427
330
3F5
100
AcDbEntity
  8
LC-001-002-----0
 62
     7
370
    35
100
AcDbLine
 10
506.5960129999999
 20
1249.6
 30
0.0
 11
520.5902969999999
 21
1249.6
 31
0.0
  0
LINE
  5
428
330
3F5
100
AcDbEntity
  8
LC-001-002-----0
 62
     7
370
    35
100
AcDbLine
 10
506.5960129999999
 20
1249.8
 30
0.0
 11
520.665839
 21
1249.8
 31
0.0
  0
LINE
  5
429
330
3F5
100
AcDbEntity
  8
LC-001-002-----0
 62
     7
370
    35
100
AcDbLine
 10
506.5960129999999
 20
1250.0
 30
0.0
 11
520.738148
 21
1250.0
 31
0.0
  0
LINE
  5
42A
330
3F5
100
AcDbEntity
  8
LC-001-002-----0
 62
     7
370
    35
100
AcDbLine
 10
506.5960129999999
 20
1250.2
 30
0.0
 11
520.807276
 21
1250.2
 31
0.0
  0
LINE
  5
42B
330
3F5
100
AcDbEntity
  8
LC-001-002-----0
 62
     7
370
    35
100
AcDbLine
 10
506.5960129999999
 20
1250.4
 30
0.0
 11
520.8732669999999
 21
1250.4
 31
0.0
  0
LINE
  5
42C
330
3F5
100
AcDbEntity
  8
LC-001-002-----0
 62
     7
370
    35
100
AcDbLine
 10
506.5960129999999
 20
1250.6
 30
0.0
 11
520.936166
 21
1250.6
 31
0.0
  0
LINE
  5
42D
330
3F5
100
AcDbEntity
  8
LC-001-002-----0
 62
     7
370
    35
100
AcDbLine
 10
506.5960129999999
 20
1250.8
 30
0.0
 11
520.9960129999999
 21
1250.8
 31
0.0
  0
LINE
  5
42E
330
3F5
100
AcDbEntity
  8
LC-001-002-----0
 62
     7
370
    35
100
AcDbLine
 10
506.5960129999999
 20
1251.0
 30
0.0
 11
521.052845
 21
1251.0
 31
0.0
  0
LINE
  5
42F
330
3F5
100
AcDbEntity
  8
LC-001-002-----0
 62
     7
370
    35
100
AcDbLine
 10
506.5960129999999
 20
1251.2
 30
0.0
 11
521.106698
 21
1251.2
 31
0.0
  0
LINE
  5
430
330
3F5
100
AcDbEntity
  8
LC-001-002-----0
 62
     7
370
    35
100
AcDbLine
 10
506.5960129999999
 20
1251.4
 30
0.0
 11
521.1576059999999
 21
1251.4
 31
0.0
  0
LINE
  5
431
330
3F5
100
AcDbEntity
  8
LC-001-002-----0
 62
     7
370
    35
100
AcDbLine
 10
506.5960129999999
 20
1251.6
 30
0.0
 11
521.205599
 21
1251.6
 31
0.0
  0
LINE
  5
432
330
3F5
100
AcDbEntity
  8
LC-001-002-----0
 62
     7
370
    35
100
AcDbLine
 10
506.5960129999999
 20
1251.8
 30
0.0
 11
521.2507049999999
 21
1251.8
 31
0.0
  0
LINE
  5
433
330
3F5
100
AcDbEntity
  8
LC-001-002-----0
 62
     7
370
    35
100
AcDbLine
 10
506.5960129999999
 20
1252.0
 30
0.0
 11
521.292951
 21
1252.0
 31
0.0
  0
LINE
  5
434
330
3F5
100
AcDbEntity
  8
LC-001-002-----0
 62
     7
370
    35
100
AcDbLine
 10
506.5960129999999
 20
1252.2
 30
0.0
 11
521.3323619999999
 21
1252.2
 31
0.0
  0
LINE
  5
435
330
3F5
100
AcDbEntity
  8
LC-001-002-----0
 62
     7
370
    35
100
AcDbLine
 10
506.5960129999999
 20
1252.4
 30
0.0
 11
521.368961
 21
1252.4
 31
0.0
  0
LINE
  5
436
330
3F5
100
AcDbEntity
  8
LC-001-002-----0
 62
     7
370
    35
100
AcDbLine
 10
506.5960129999999
 20
1252.6
 30
0.0
 11
521.4027679999999
 21
1252.6
 31
0.0
  0
LINE
  5
437
330
3F5
100
AcDbEntity
  8
LC-001-002-----0
 62
     7
370
    35
100
AcDbLine
 10
506.5960129999999
 20
1252.8
 30
0.0
 11
521.4338019999998
 21
1252.8
 31
0.0
  0
LINE
  5
438
330
3F5
100
AcDbEntity
  8
LC-001-002-----0
 62
     7
370
    35
100
AcDbLine
 10
506.5960129999999
 20
1253.0
 30
0.0
 11
521.462081
 21
1253.0
 31
0.0
  0
LINE
  5
439
330
3F5
100
AcDbEntity
  8
LC-001-002-----0
 62
     7
370
    35
100
AcDbLine
 10
506.5960129999999
 20
1253.2
 30
0.0
 11
521.4876209999999
 21
1253.2
 31
0.0
  0
LINE
  5
43A
330
3F5
100
AcDbEntity
  8
LC-001-002-----0
 62
     7
370
    35
100
AcDbLine
 10
506.5960129999999
 20
1253.4
 30
0.0
 11
521.5104349999998
 21
1253.4
 31
0.0
  0
LINE
  5
43B
330
3F5
100
AcDbEntity
  8
LC-001-002-----0
 62
     7
370
    35
100
AcDbLine
 10
506.5960129999999
 20
1253.6
 30
0.0
 11
521.530536
 21
1253.6
 31
0.0
  0
LINE
  5
43C
330
3F5
100
AcDbEntity
  8
LC-001-002-----0
 62
     7
370
    35
100
AcDbLine
 10
506.5960129999999
 20
1253.8
 30
0.0
 11
521.547936
 21
1253.8
 31
0.0
  0
LINE
  5
43D
330
3F5
100
AcDbEntity
  8
LC-001-002-----0
 62
     7
370
    35
100
AcDbLine
 10
506.5960129999999
 20
1254.0
 30
0.0
 11
521.5626419999999
 21
1254.0
 31
0.0
  0
LINE
  5
43E
330
3F5
100
AcDbEntity
  8
LC-001-002-----0
 62
     7
370
    35
100
AcDbLine
 10
506.5960129999999
 20
1254.2
 30
0.0
 11
521.5746639999999
 21
1254.2
 31
0.0
  0
LINE
  5
43F
330
3F5
100
AcDbEntity
  8
LC-001-002-----0
 62
     7
370
    35
100
AcDbLine
 10
506.5960129999999
 20
1254.4
 30
0.0
 11
521.584008
 21
1254.4
 31
0.0
  0
LINE
  5
440
330
3F5
100
AcDbEntity
  8
LC-001-002-----0
 62
     7
370
    35
100
AcDbLine
 10
506.5960129999999
 20
1254.6
 30
0.0
 11
521.590678
 21
1254.6
 31
0.0
  0
LINE
  5
441
330
3F5
100
AcDbEntity
  8
LC-001-002-----0
 62
     7
370
    35
100
AcDbLine
 10
506.5960129999999
 20
1254.8
 30
0.0
 11
521.594679
 21
1254.8
 31
0.0
  0
LINE
  5
442
330
3F5
100
AcDbEntity
  8
LC-001-002-----0
 62
     7
370
    35
100
AcDbLine
 10
506.5960129999999
 20
1255.0
 30
0.0
 11
521.596013
 21
1255.0
 31
0.0
  0
ENDBLK
  5
3F7
330
3F5
100
AcDbEntity
  8
0
100
AcDbBlockEnd
  0
BLOCK
  5
462
330
457
100
AcDbEntity
  8
0
100
AcDbBlockBegin
  2
*D16
 70
     1
 10
0.0
 20
0.0
 30
0.0
  3
*D16
  1

  0
LINE
  5
458
330
457
100
AcDbEntity
  8
LC-003-003-----0
 62
     2
370
    -2
100
AcDbLine
 10
279.096013
 20
1010.375
 30
0.0
 11
141.0
 21
1010.375
 31
0.0
  0
LINE
  5
459
330
457
100
AcDbEntity
  8
LC-003-003-----0
 62
     2
370
    -2
100
AcDbLine
 10
279.096013
 20
1499.625
 30
0.0
 11
141.0
 21
1499.625
 31
0.0
  0
LINE
  5
45A
330
457
100
AcDbEntity
  8
LC-003-003-----0
 62
     2
370
    -2
100
AcDbLine
 10
150.0
 20
1022.875
 30
0.0
 11
150.0
 21
1215.000001
 31
0.0
  0
LINE
  5
45B
330
457
100
AcDbEntity
  8
LC-003-003-----0
 62
     2
370
    -2
100
AcDbLine
 10
150.0
 20
1487.125
 30
0.0
 11
150.0
 21
1294.999999
 31
0.0
  0
SOLID
  5
45C
330
457
100
AcDbEntity
  8
LC-003-003-----0
 62
     2
100
AcDbTrace
 10
147.916667
 20
1022.875
 30
0.0
 11
152.083333
 21
1022.875
 31
0.0
 12
150.0
 22
1010.375
 32
0.0
 13
150.0
 23
1010.375
 33
0.0
  0
SOLID
  5
45D
330
457
100
AcDbEntity
  8
LC-003-003-----0
 62
     2
100
AcDbTrace
 10
152.083333
 20
1487.125
 30
0.0
 11
147.916667
 21
1487.125
 31
0.0
 12
150.0
 22
1499.625
 32
0.0
 13
150.0
 23
1499.625
 33
0.0
  0
MTEXT
  5
45E
330
457
100
AcDbEntity
  8
LC-003-003-----0
 62
     2
100
AcDbMText
 10
135.0
 20
1255.0
 30
0.0
 40
12.5
 41
0.0
 71
     5
 72
     1
  1
\A1;489,25
  7
LCTX0-400-0-0pDIN-Schrift
 11
0.0000000000000001
 21
1.0
 31
0.0
 73
     1
 44
1.0
1001
ACAD
1000
MTEXTBEGIN
1070
    73
1070
     1
1070
    44
1040
1.0
1070
    74
1070
     0
1000
MTEXTEND
  0
POINT
  5
45F
330
457
100
AcDbEntity
  8
Defpoints
 62
     0
100
AcDbPoint
 10
279.096013
 20
1010.375
 30
0.0
  0
POINT
  5
460
330
457
100
AcDbEntity
  8
Defpoints
 62
     0
100
AcDbPoint
 10
279.096013
 20
1499.625
 30
0.0
  0
POINT
  5
461
330
457
100
AcDbEntity
  8
Defpoints
 62
     0
100
AcDbPoint
 10
150.0
 20
1499.625
 30
0.0
  0
ENDBLK
  5
463
330
457
100
AcDbEntity
  8
0
100
AcDbBlockEnd
  0
BLOCK
  5
46F
330
465
100
AcDbEntity
  8
0
100
AcDbBlockBegin
  2
*D17
 70
     1
 10
0.0
 20
0.0
 30
0.0
  3
*D17
  1

  0
LINE
  5
466
330
465
100
AcDbEntity
  8
LC-003-003-----0
 62
     2
370
    -2
100
AcDbLine
 10
299.096013
 20
990.375
 30
0.0
 11
299.096013
 21
841.0
 31
0.0
  0
LINE
  5
467
330
465
100
AcDbEntity
  8
LC-003-003-----0
 62
     2
370
    -2
100
AcDbLine
 10
714.0960129999999
 20
990.375
 30
0.0
 11
714.0960129999999
 21
841.0
 31
0.0
  0
LINE
  5
468
330
465
100
AcDbEntity
  8
LC-003-003-----0
 62
     2
370
    -2
100
AcDbLine
 10
311.596013
 20
850.0
 30
0.0
 11
701.5960129999999
 21
850.0
 31
0.0
  0
SOLID
  5
469
330
465
100
AcDbEntity
  8
LC-003-003-----0
 62
     2
100
AcDbTrace
 10
311.596013
 20
852.083333
 30
0.0
 11
311.596013
 21
847.9166669999999
 31
0.0
 12
299.096013
 22
850.0
 32
0.0
 13
299.096013
 23
850.0
 33
0.0
  0
SOLID
  5
46A
330
465
100
AcDbEntity
  8
LC-003-003-----0
 62
     2
100
AcDbTrace
 10
701.5960129999999
 20
847.9166669999999
 30
0.0
 11
701.5960129999999
 21
852.083333
 31
0.0
 12
714.0960129999999
 22
850.0
 32
0.0
 13
714.0960129999999
 23
850.0
 33
0.0
  0
MTEXT
  5
46B
330
465
100
AcDbEntity
  8
LC-003-003-----0
 62
     2
100
AcDbMText
 10
506.5960129999999
 20
865.0
 30
0.0
 40
12.5
 41
0.0
 71
     5
 72
     1
  1
\A1;415
  7
LCTX0-400-0-0pDIN-Schrift
 73
     1
 44
1.0
1001
ACAD
1000
MTEXTBEGIN
1070
    73
1070
     1
1070
    44
1040
1.0
1070
    74
1070
     0
1000
MTEXTEND
  0
POINT
  5
46C
330
465
100
AcDbEntity
  8
Defpoints
 62
     0
100
AcDbPoint
 10
299.096013
 20
990.375
 30
0.0
  0
POINT
  5
46D
330
465
100
AcDbEntity
  8
Defpoints
 62
     0
100
AcDbPoint
 10
714.0960129999999
 20
990.375
 30
0.0
  0
POINT
  5
46E
330
465
100
AcDbEntity
  8
Defpoints
 62
     0
100
AcDbPoint
 10
714.0960129999999
 20
850.0
 30
0.0
  0
ENDBLK
  5
470
330
465
100
AcDbEntity
  8
0
100
AcDbBlockEnd
  0
BLOCK
  5
4A0
330
495
100
AcDbEntity
  8
0
100
AcDbBlockBegin
  2
*D18
 70
     1
 10
0.0
 20
0.0
 30
0.0
  3
*D18
  1

  0
LINE
  5
496
330
495
100
AcDbEntity
  8
LC-003-003-----0
 62
     2
370
    -2
100
AcDbLine
 10
279.096013
 20
1010.375
 30
0.0
 11
191.0
 21
1010.375
 31
0.0
  0
LINE
  5
497
330
495
100
AcDbEntity
  8
LC-003-003-----0
 62
     2
370
    -2
100
AcDbLine
 10
279.096013
 20
1255.0
 30
0.0
 11
191.0
 21
1255.0
 31
0.0
  0
LINE
  5
498
330
495
100
AcDbEntity
  8
LC-003-003-----0
 62
     2
370
    -2
100
AcDbLine
 10
200.0
 20
1022.875
 30
0.0
 11
200.0
 21
1078.175001
 31
0.0
  0
LINE
  5
499
330
495
100
AcDbEntity
  8
LC-003-003-----0
 62
     2
370
    -2
100
AcDbLine
 10
200.0
 20
1242.5
 30
0.0
 11
200.0
 21
1187.199999
 31
0.0
  0
SOLID
  5
49A
330
495
100
AcDbEntity
  8
LC-003-003-----0
 62
     2
100
AcDbTrace
 10
197.916667
 20
1022.875
 30
0.0
 11
202.083333
 21
1022.875
 31
0.0
 12
200.0
 22
1010.375
 32
0.0
 13
200.0
 23
1010.375
 33
0.0
  0
SOLID
  5
49B
330
495
100
AcDbEntity
  8
LC-003-003-----0
 62
     2
100
AcDbTrace
 10
202.083333
 20
1242.5
 30
0.0
 11
197.916667
 21
1242.5
 31
0.0
 12
200.0
 22
1255.0
 32
0.0
 13
200.0
 23
1255.0
 33
0.0
  0
MTEXT
  5
49C
330
495
100
AcDbEntity
  8
LC-003-003-----0
 62
     2
100
AcDbMText
 10
185.0
 20
1132.6875
 30
0.0
 40
12.5
 41
0.0
 71
     5
 72
     1
  1
(\A1;244,625)
  7
LCTX0-400-0-0pDIN-Schrift
 11
0.0000000000000001
 21
1.0
 31
0.0
 73
     1
 44
1.0
1001
ACAD
1000
MTEXTBEGIN
1070
    73
1070
     1
1070
    44
1040
1.0
1070
    74
1070
     0
1000
MTEXTEND
  0
POINT
  5
49D
330
495
100
AcDbEntity
  8
Defpoints
 62
     0
100
AcDbPoint
 10
279.096013
 20
1010.375
 30
0.0
  0
POINT
  5
49E
330
495
100
AcDbEntity
  8
Defpoints
 62
     0
100
AcDbPoint
 10
279.096013
 20
1255.0
 30
0.0
  0
POINT
  5
49F
330
495
100
AcDbEntity
  8
Defpoints
 62
     0
100
AcDbPoint
 10
200.0
 20
1255.0
 30
0.0
  0
ENDBLK
  5
4A1
330
495
100
AcDbEntity
  8
0
100
AcDbBlockEnd
  0
BLOCK
  5
4AE
330
4A3
100
AcDbEntity
  8
0
100
AcDbBlockBegin
  2
*D19
 70
     1
 10
0.0
 20
0.0
 30
0.0
  3
*D19
  1

  0
LINE
  5
4A4
330
4A3
100
AcDbEntity
  8
LC-003-003-----0
 62
     2
370
    -2
100
AcDbLine
 10
279.096013
 20
1499.625
 30
0.0
 11
191.0
 21
1499.625
 31
0.0
  0
LINE
  5
4A5
330
4A3
100
AcDbEntity
  8
LC-003-003-----0
 62
     2
370
    -2
100
AcDbLine
 10
279.096013
 20
1255.0
 30
0.0
 11
191.0
 21
1255.0
 31
0.0
  0
LINE
  5
4A6
330
4A3
100
AcDbEntity
  8
LC-003-003-----0
 62
     2
370
    -2
100
AcDbLine
 10
200.0
 20
1487.125
 30
0.0
 11
200.0
 21
1431.824999
 31
0.0
  0
LINE
  5
4A7
330
4A3
100
AcDbEntity
  8
LC-003-003-----0
 62
     2
370
    -2
100
AcDbLine
 10
200.0
 20
1267.5
 30
0.0
 11
200.0
 21
1322.800001
 31
0.0
  0
SOLID
  5
4A8
330
4A3
100
AcDbEntity
  8
LC-003-003-----0
 62
     2
100
AcDbTrace
 10
202.083333
 20
1487.125
 30
0.0
 11
197.916667
 21
1487.125
 31
0.0
 12
200.0
 22
1499.625
 32
0.0
 13
200.0
 23
1499.625
 33
0.0
  0
SOLID
  5
4A9
330
4A3
100
AcDbEntity
  8
LC-003-003-----0
 62
     2
100
AcDbTrace
 10
197.916667
 20
1267.5
 30
0.0
 11
202.083333
 21
1267.5
 31
0.0
 12
200.0
 22
1255.0
 32
0.0
 13
200.0
 23
1255.0
 33
0.0
  0
MTEXT
  5
4AA
330
4A3
100
AcDbEntity
  8
LC-003-003-----0
 62
     2
100
AcDbMText
 10
185.0
 20
1377.3125
 30
0.0
 40
12.5
 41
0.0
 71
     5
 72
     1
  1
(\A1;244,625)
  7
LCTX0-400-0-0pDIN-Schrift
 11
0.0000000000000001
 21
1.0
 31
0.0
 73
     1
 44
1.0
1001
ACAD
1000
MTEXTBEGIN
1070
    73
1070
     1
1070
    44
1040
1.0
1070
    74
1070
     0
1000
MTEXTEND
  0
POINT
  5
4AB
330
4A3
100
AcDbEntity
  8
Defpoints
 62
     0
100
AcDbPoint
 10
279.096013
 20
1499.625
 30
0.0
  0
POINT
  5
4AC
330
4A3
100
AcDbEntity
  8
Defpoints
 62
     0
100
AcDbPoint
 10
279.096013
 20
1255.0
 30
0.0
  0
POINT
  5
4AD
330
4A3
100
AcDbEntity
  8
Defpoints
 62
     0
100
AcDbPoint
 10
200.0
 20
1255.0
 30
0.0
  0
ENDBLK
  5
4AF
330
4A3
100
AcDbEntity
  8
0
100
AcDbBlockEnd
  0
BLOCK
  5
4BB
330
4B1
100
AcDbEntity
  8
0
100
AcDbBlockBegin
  2
*D20
 70
     1
 10
0.0
 20
0.0
 30
0.0
  3
*D20
  1

  0
LINE
  5
4B2
330
4B1
100
AcDbEntity
  8
LC-003-003-----0
 62
     2
370
    -2
100
AcDbLine
 10
299.096013
 20
990.375
 30
0.0
 11
299.096013
 21
891.0
 31
0.0
  0
LINE
  5
4B3
330
4B1
100
AcDbEntity
  8
LC-003-003-----0
 62
     2
370
    -2
100
AcDbLine
 10
506.5960129999999
 20
990.375
 30
0.0
 11
506.5960129999999
 21
891.0
 31
0.0
  0
LINE
  5
4B4
330
4B1
100
AcDbEntity
  8
LC-003-003-----0
 62
     2
370
    -2
100
AcDbLine
 10
311.596013
 20
900.0
 30
0.0
 11
494.0960129999999
 21
900.0
 31
0.0
  0
SOLID
  5
4B5
330
4B1
100
AcDbEntity
  8
LC-003-003-----0
 62
     2
100
AcDbTrace
 10
311.596013
 20
902.083333
 30
0.0
 11
311.596013
 21
897.9166669999999
 31
0.0
 12
299.096013
 22
900.0
 32
0.0
 13
299.096013
 23
900.0
 33
0.0
  0
SOLID
  5
4B6
330
4B1
100
AcDbEntity
  8
LC-003-003-----0
 62
     2
100
AcDbTrace
 10
494.0960129999999
 20
897.9166669999999
 30
0.0
 11
494.0960129999999
 21
902.083333
 31
0.0
 12
506.5960129999999
 22
900.0
 32
0.0
 13
506.5960129999999
 23
900.0
 33
0.0
  0
MTEXT
  5
4B7
330
4B1
100
AcDbEntity
  8
LC-003-003-----0
 62
     2
100
AcDbMText
 10
402.846013
 20
915.0
 30
0.0
 40
12.5
 41
0.0
 71
     5
 72
     1
  1
(\A1;207,5)
  7
LCTX0-400-0-0pDIN-Schrift
 73
     1
 44
1.0
1001
ACAD
1000
MTEXTBEGIN
1070
    73
1070
     1
1070
    44
1040
1.0
1070
    74
1070
     0
1000
MTEXTEND
  0
POINT
  5
4B8
330
4B1
100
AcDbEntity
  8
Defpoints
 62
     0
100
AcDbPoint
 10
299.096013
 20
990.375
 30
0.0
  0
POINT
  5
4B9
330
4B1
100
AcDbEntity
  8
Defpoints
 62
     0
100
AcDbPoint
 10
506.5960129999999
 20
990.375
 30
0.0
  0
POINT
  5
4BA
330
4B1
100
AcDbEntity
  8
Defpoints
 62
     0
100
AcDbPoint
 10
506.5960129999999
 20
900.0
 30
0.0
  0
ENDBLK
  5
4BC
330
4B1
100
AcDbEntity
  8
0
100
AcDbBlockEnd
  0
BLOCK
  5
4C8
330
4BE
100
AcDbEntity
  8
0
100
AcDbBlockBegin
  2
*D21
 70
     1
 10
0.0
 20
0.0
 30
0.0
  3
*D21
  1

  0
LINE
  5
4BF
330
4BE
100
AcDbEntity
  8
LC-003-003-----0
 62
     2
370
    -2
100
AcDbLine
 10
714.0960129999999
 20
990.375
 30
0.0
 11
714.0960129999999
 21
891.0
 31
0.0
  0
LINE
  5
4C0
330
4BE
100
AcDbEntity
  8
LC-003-003-----0
 62
     2
370
    -2
100
AcDbLine
 10
506.5960129999999
 20
990.375
 30
0.0
 11
506.5960129999999
 21
891.0
 31
0.0
  0
LINE
  5
4C1
330
4BE
100
AcDbEntity
  8
LC-003-003-----0
 62
     2
370
    -2
100
AcDbLine
 10
701.5960129999999
 20
900.0
 30
0.0
 11
519.0960129999999
 21
900.0
 31
0.0
  0
SOLID
  5
4C2
330
4BE
100
AcDbEntity
  8
LC-003-003-----0
 62
     2
100
AcDbTrace
 10
701.5960129999999
 20
897.9166669999999
 30
0.0
 11
701.5960129999999
 21
902.083333
 31
0.0
 12
714.0960129999999
 22
900.0
 32
0.0
 13
714.0960129999999
 23
900.0
 33
0.0
  0
SOLID
  5
4C3
330
4BE
100
AcDbEntity
  8
LC-003-003-----0
 62
     2
100
AcDbTrace
 10
519.0960129999999
 20
902.083333
 30
0.0
 11
519.0960129999999
 21
897.9166669999999
 31
0.0
 12
506.5960129999999
 22
900.0
 32
0.0
 13
506.5960129999999
 23
900.0
 33
0.0
  0
MTEXT
  5
4C4
330
4BE
100
AcDbEntity
  8
LC-003-003-----0
 62
     2
100
AcDbMText
 10
610.346013
 20
915.0
 30
0.0
 40
12.5
 41
0.0
 71
     5
 72
     1
  1
(\A1;207,5)
  7
LCTX0-400-0-0pDIN-Schrift
 73
     1
 44
1.0
1001
ACAD
1000
MTEXTBEGIN
1070
    73
1070
     1
1070
    44
1040
1.0
1070
    74
1070
     0
1000
MTEXTEND
  0
POINT
  5
4C5
330
4BE
100
AcDbEntity
  8
Defpoints
 62
     0
100
AcDbPoint
 10
714.0960129999999
 20
990.375
 30
0.0
  0
POINT
  5
4C6
330
4BE
100
AcDbEntity
  8
Defpoints
 62
     0
100
AcDbPoint
 10
506.5960129999999
 20
990.375
 30
0.0
  0
POINT
  5
4C7
330
4BE
100
AcDbEntity
  8
Defpoints
 62
     0
100
AcDbPoint
 10
506.5960129999999
 20
900.0
 30
0.0
  0
ENDBLK
  5
4C9
330
4BE
100
AcDbEntity
  8
0
100
AcDbBlockEnd
  0
BLOCK
  5
4FD
330
4FC
100
AcDbEntity
  8
0
100
AcDbBlockBegin
  2
*X22
 70
     1
 10
0.0
 20
0.0
 30
0.0
  3
*X22
  1

  4
*X8
  0
LINE
  5
4FF
330
4FC
100
AcDbEntity
  8
LC-001-002-----0
 62
     7
370
    35
100
AcDbLine
 10
501.461565
 20
290.0
 30
0.0
 11
511.7304599999999
 21
290.0
 31
0.0
  0
LINE
  5
500
330
4FC
100
AcDbEntity
  8
LC-001-002-----0
 62
     7
370
    35
100
AcDbLine
 10
501.4747309999999
 20
290.1
 30
0.0
 11
511.717295
 21
290.1
 31
0.0
  0
LINE
  5
501
330
4FC
100
AcDbEntity
  8
LC-001-002-----0
 62
     7
370
    35
100
AcDbLine
 10
501.4878959999999
 20
290.2
 30
0.0
 11
511.7041299999999
 21
290.2
 31
0.0
  0
LINE
  5
502
330
4FC
100
AcDbEntity
  8
LC-001-002-----0
 62
     7
370
    35
100
AcDbLine
 10
501.501061
 20
290.3
 30
0.0
 11
511.6909639999999
 21
290.3
 31
0.0
  0
LINE
  5
503
330
4FC
100
AcDbEntity
  8
LC-001-002-----0
 62
     7
370
    35
100
AcDbLine
 10
501.5142259999999
 20
290.4
 30
0.0
 11
511.677799
 21
290.4
 31
0.0
  0
LINE
  5
504
330
4FC
100
AcDbEntity
  8
LC-001-002-----0
 62
     7
370
    35
100
AcDbLine
 10
501.527392
 20
290.5
 30
0.0
 11
511.6646339999999
 21
290.5
 31
0.0
  0
LINE
  5
505
330
4FC
100
AcDbEntity
  8
LC-001-002-----0
 62
     7
370
    35
100
AcDbLine
 10
501.540557
 20
290.6
 30
0.0
 11
511.651469
 21
290.6
 31
0.0
  0
LINE
  5
506
330
4FC
100
AcDbEntity
  8
LC-001-002-----0
 62
     7
370
    35
100
AcDbLine
 10
501.5537219999999
 20
290.7
 30
0.0
 11
511.638303
 21
290.7
 31
0.0
  0
LINE
  5
507
330
4FC
100
AcDbEntity
  8
LC-001-002-----0
 62
     7
370
    35
100
AcDbLine
 10
501.5668869999999
 20
290.8
 30
0.0
 11
511.625138
 21
290.8
 31
0.0
  0
LINE
  5
508
330
4FC
100
AcDbEntity
  8
LC-001-002-----0
 62
     7
370
    35
100
AcDbLine
 10
501.5800529999999
 20
290.9
 30
0.0
 11
511.611973
 21
290.9
 31
0.0
  0
LINE
  5
509
330
4FC
100
AcDbEntity
  8
LC-001-002-----0
 62
     7
370
    35
100
AcDbLine
 10
501.593218
 20
291.0
 30
0.0
 11
511.598808
 21
291.0
 31
0.0
  0
LINE
  5
50A
330
4FC
100
AcDbEntity
  8
LC-001-002-----0
 62
     7
370
    35
100
AcDbLine
 10
501.606383
 20
291.1000000000001
 30
0.0
 11
511.585642
 21
291.1000000000001
 31
0.0
  0
LINE
  5
50B
330
4FC
100
AcDbEntity
  8
LC-001-002-----0
 62
     7
370
    35
100
AcDbLine
 10
501.619548
 20
291.2
 30
0.0
 11
511.5724769999999
 21
291.2
 31
0.0
  0
LINE
  5
50C
330
4FC
100
AcDbEntity
  8
LC-001-002-----0
 62
     7
370
    35
100
AcDbLine
 10
501.6327139999999
 20
291.3
 30
0.0
 11
511.559312
 21
291.3
 31
0.0
  0
LINE
  5
50D
330
4FC
100
AcDbEntity
  8
LC-001-002-----0
 62
     7
370
    35
100
AcDbLine
 10
501.6458789999999
 20
291.4
 30
0.0
 11
511.5461469999999
 21
291.4
 31
0.0
  0
LINE
  5
50E
330
4FC
100
AcDbEntity
  8
LC-001-002-----0
 62
     7
370
    35
100
AcDbLine
 10
501.659044
 20
291.5
 30
0.0
 11
511.5329809999999
 21
291.5
 31
0.0
  0
LINE
  5
50F
330
4FC
100
AcDbEntity
  8
LC-001-002-----0
 62
     7
370
    35
100
AcDbLine
 10
501.672209
 20
291.6
 30
0.0
 11
511.519816
 21
291.6
 31
0.0
  0
LINE
  5
510
330
4FC
100
AcDbEntity
  8
LC-001-002-----0
 62
     7
370
    35
100
AcDbLine
 10
501.685375
 20
291.7
 30
0.0
 11
511.506651
 21
291.7
 31
0.0
  0
LINE
  5
511
330
4FC
100
AcDbEntity
  8
LC-001-002-----0
 62
     7
370
    35
100
AcDbLine
 10
501.69854
 20
291.8
 30
0.0
 11
511.4934859999999
 21
291.8
 31
0.0
  0
LINE
  5
512
330
4FC
100
AcDbEntity
  8
LC-001-002-----0
 62
     7
370
    35
100
AcDbLine
 10
501.711705
 20
291.9
 30
0.0
 11
511.4803199999999
 21
291.9
 31
0.0
  0
LINE
  5
513
330
4FC
100
AcDbEntity
  8
LC-001-002-----0
 62
     7
370
    35
100
AcDbLine
 10
501.72487
 20
292.0
 30
0.0
 11
511.4671549999999
 21
292.0
 31
0.0
  0
LINE
  5
514
330
4FC
100
AcDbEntity
  8
LC-001-002-----0
 62
     7
370
    35
100
AcDbLine
 10
501.738036
 20
292.1
 30
0.0
 11
511.45399
 21
292.1
 31
0.0
  0
LINE
  5
515
330
4FC
100
AcDbEntity
  8
LC-001-002-----0
 62
     7
370
    35
100
AcDbLine
 10
501.7512009999999
 20
292.2
 30
0.0
 11
511.440825
 21
292.2
 31
0.0
  0
LINE
  5
516
330
4FC
100
AcDbEntity
  8
LC-001-002-----0
 62
     7
370
    35
100
AcDbLine
 10
501.764366
 20
292.3
 30
0.0
 11
511.427659
 21
292.3
 31
0.0
  0
LINE
  5
517
330
4FC
100
AcDbEntity
  8
LC-001-002-----0
 62
     7
370
    35
100
AcDbLine
 10
501.7775309999999
 20
292.4
 30
0.0
 11
511.414494
 21
292.4
 31
0.0
  0
LINE
  5
518
330
4FC
100
AcDbEntity
  8
LC-001-002-----0
 62
     7
370
    35
100
AcDbLine
 10
501.7906969999999
 20
292.5
 30
0.0
 11
511.4013289999999
 21
292.5
 31
0.0
  0
LINE
  5
519
330
4FC
100
AcDbEntity
  8
LC-001-002-----0
 62
     7
370
    35
100
AcDbLine
 10
501.803862
 20
292.6
 30
0.0
 11
511.3881639999999
 21
292.6
 31
0.0
  0
LINE
  5
51A
330
4FC
100
AcDbEntity
  8
LC-001-002-----0
 62
     7
370
    35
100
AcDbLine
 10
501.8170269999999
 20
292.7
 30
0.0
 11
511.374998
 21
292.7
 31
0.0
  0
LINE
  5
51B
330
4FC
100
AcDbEntity
  8
LC-001-002-----0
 62
     7
370
    35
100
AcDbLine
 10
501.8301919999999
 20
292.8
 30
0.0
 11
511.361833
 21
292.8
 31
0.0
  0
LINE
  5
51C
330
4FC
100
AcDbEntity
  8
LC-001-002-----0
 62
     7
370
    35
100
AcDbLine
 10
501.8433579999999
 20
292.9
 30
0.0
 11
511.348668
 21
292.9
 31
0.0
  0
LINE
  5
51D
330
4FC
100
AcDbEntity
  8
LC-001-002-----0
 62
     7
370
    35
100
AcDbLine
 10
501.856523
 20
293.0
 30
0.0
 11
511.335503
 21
293.0
 31
0.0
  0
LINE
  5
51E
330
4FC
100
AcDbEntity
  8
LC-001-002-----0
 62
     7
370
    35
100
AcDbLine
 10
501.869688
 20
293.1
 30
0.0
 11
511.322337
 21
293.1
 31
0.0
  0
LINE
  5
51F
330
4FC
100
AcDbEntity
  8
LC-001-002-----0
 62
     7
370
    35
100
AcDbLine
 10
501.882853
 20
293.2
 30
0.0
 11
511.3091719999999
 21
293.2
 31
0.0
  0
LINE
  5
520
330
4FC
100
AcDbEntity
  8
LC-001-002-----0
 62
     7
370
    35
100
AcDbLine
 10
501.896019
 20
293.3
 30
0.0
 11
511.296007
 21
293.3
 31
0.0
  0
LINE
  5
521
330
4FC
100
AcDbEntity
  8
LC-001-002-----0
 62
     7
370
    35
100
AcDbLine
 10
501.9091839999999
 20
293.4
 30
0.0
 11
511.282842
 21
293.4
 31
0.0
  0
LINE
  5
522
330
4FC
100
AcDbEntity
  8
LC-001-002-----0
 62
     7
370
    35
100
AcDbLine
 10
501.9223489999999
 20
293.5
 30
0.0
 11
511.269676
 21
293.5
 31
0.0
  0
LINE
  5
523
330
4FC
100
AcDbEntity
  8
LC-001-002-----0
 62
     7
370
    35
100
AcDbLine
 10
501.935514
 20
293.6
 30
0.0
 11
511.256511
 21
293.6
 31
0.0
  0
LINE
  5
524
330
4FC
100
AcDbEntity
  8
LC-001-002-----0
 62
     7
370
    35
100
AcDbLine
 10
501.94868
 20
293.7
 30
0.0
 11
511.243346
 21
293.7
 31
0.0
  0
LINE
  5
525
330
4FC
100
AcDbEntity
  8
LC-001-002-----0
 62
     7
370
    35
100
AcDbLine
 10
501.961845
 20
293.8
 30
0.0
 11
511.2301809999999
 21
293.8
 31
0.0
  0
LINE
  5
526
330
4FC
100
AcDbEntity
  8
LC-001-002-----0
 62
     7
370
    35
100
AcDbLine
 10
501.9750099999999
 20
293.9
 30
0.0
 11
511.217015
 21
293.9
 31
0.0
  0
LINE
  5
527
330
4FC
100
AcDbEntity
  8
LC-001-002-----0
 62
     7
370
    35
100
AcDbLine
 10
501.988175
 20
294.0
 30
0.0
 11
511.2038499999999
 21
294.0
 31
0.0
  0
LINE
  5
528
330
4FC
100
AcDbEntity
  8
LC-001-002-----0
 62
     7
370
    35
100
AcDbLine
 10
502.001341
 20
294.1
 30
0.0
 11
511.1906849999999
 21
294.1
 31
0.0
  0
LINE
  5
529
330
4FC
100
AcDbEntity
  8
LC-001-002-----0
 62
     7
370
    35
100
AcDbLine
 10
502.0145059999999
 20
294.2
 30
0.0
 11
511.17752
 21
294.2
 31
0.0
  0
LINE
  5
52A
330
4FC
100
AcDbEntity
  8
LC-001-002-----0
 62
     7
370
    35
100
AcDbLine
 10
502.027671
 20
294.3
 30
0.0
 11
511.164354
 21
294.3
 31
0.0
  0
LINE
  5
52B
330
4FC
100
AcDbEntity
  8
LC-001-002-----0
 62
     7
370
    35
100
AcDbLine
 10
502.040836
 20
294.4
 30
0.0
 11
511.151189
 21
294.4
 31
0.0
  0
LINE
  5
52C
330
4FC
100
AcDbEntity
  8
LC-001-002-----0
 62
     7
370
    35
100
AcDbLine
 10
502.0540019999999
 20
294.5
 30
0.0
 11
511.138024
 21
294.5
 31
0.0
  0
LINE
  5
52D
330
4FC
100
AcDbEntity
  8
LC-001-002-----0
 62
     7
370
    35
100
AcDbLine
 10
502.0671669999999
 20
294.6
 30
0.0
 11
511.1248589999999
 21
294.6
 31
0.0
  0
LINE
  5
52E
330
4FC
100
AcDbEntity
  8
LC-001-002-----0
 62
     7
370
    35
100
AcDbLine
 10
502.080332
 20
294.7
 30
0.0
 11
511.1116929999999
 21
294.7
 31
0.0
  0
LINE
  5
52F
330
4FC
100
AcDbEntity
  8
LC-001-002-----0
 62
     7
370
    35
100
AcDbLine
 10
502.0934969999999
 20
294.8
 30
0.0
 11
511.098528
 21
294.8
 31
0.0
  0
LINE
  5
530
330
4FC
100
AcDbEntity
  8
LC-001-002-----0
 62
     7
370
    35
100
AcDbLine
 10
502.1066629999999
 20
294.9
 30
0.0
 11
511.085363
 21
294.9
 31
0.0
  0
LINE
  5
531
330
4FC
100
AcDbEntity
  8
LC-001-002-----0
 62
     7
370
    35
100
AcDbLine
 10
502.119828
 20
295.0
 30
0.0
 11
511.072198
 21
295.0
 31
0.0
  0
LINE
  5
532
330
4FC
100
AcDbEntity
  8
LC-001-002-----0
 62
     7
370
    35
100
AcDbLine
 10
502.1329929999999
 20
295.1
 30
0.0
 11
511.059032
 21
295.1
 31
0.0
  0
LINE
  5
533
330
4FC
100
AcDbEntity
  8
LC-001-002-----0
 62
     7
370
    35
100
AcDbLine
 10
502.146158
 20
295.2
 30
0.0
 11
511.0458669999999
 21
295.2
 31
0.0
  0
LINE
  5
534
330
4FC
100
AcDbEntity
  8
LC-001-002-----0
 62
     7
370
    35
100
AcDbLine
 10
502.159324
 20
295.3
 30
0.0
 11
511.0327019999999
 21
295.3
 31
0.0
  0
LINE
  5
535
330
4FC
100
AcDbEntity
  8
LC-001-002-----0
 62
     7
370
    35
100
AcDbLine
 10
502.1724889999999
 20
295.4
 30
0.0
 11
511.019537
 21
295.4
 31
0.0
  0
LINE
  5
536
330
4FC
100
AcDbEntity
  8
LC-001-002-----0
 62
     7
370
    35
100
AcDbLine
 10
502.1856539999999
 20
295.5
 30
0.0
 11
511.006371
 21
295.5
 31
0.0
  0
LINE
  5
537
330
4FC
100
AcDbEntity
  8
LC-001-002-----0
 62
     7
370
    35
100
AcDbLine
 10
502.198819
 20
295.6
 30
0.0
 11
510.993206
 21
295.6
 31
0.0
  0
LINE
  5
538
330
4FC
100
AcDbEntity
  8
LC-001-002-----0
 62
     7
370
    35
100
AcDbLine
 10
502.211985
 20
295.7
 30
0.0
 11
510.980041
 21
295.7
 31
0.0
  0
LINE
  5
539
330
4FC
100
AcDbEntity
  8
LC-001-002-----0
 62
     7
370
    35
100
AcDbLine
 10
502.22515
 20
295.8
 30
0.0
 11
510.9668759999999
 21
295.8
 31
0.0
  0
LINE
  5
53A
330
4FC
100
AcDbEntity
  8
LC-001-002-----0
 62
     7
370
    35
100
AcDbLine
 10
502.238315
 20
295.8999999999999
 30
0.0
 11
510.9537099999999
 21
295.8999999999999
 31
0.0
  0
LINE
  5
53B
330
4FC
100
AcDbEntity
  8
LC-001-002-----0
 62
     7
370
    35
100
AcDbLine
 10
502.2514799999999
 20
296.0
 30
0.0
 11
510.940545
 21
296.0
 31
0.0
  0
LINE
  5
53C
330
4FC
100
AcDbEntity
  8
LC-001-002-----0
 62
     7
370
    35
100
AcDbLine
 10
502.2646459999999
 20
296.1
 30
0.0
 11
510.9273799999999
 21
296.1
 31
0.0
  0
LINE
  5
53D
330
4FC
100
AcDbEntity
  8
LC-001-002-----0
 62
     7
370
    35
100
AcDbLine
 10
502.277811
 20
296.2
 30
0.0
 11
510.914215
 21
296.2
 31
0.0
  0
LINE
  5
53E
330
4FC
100
AcDbEntity
  8
LC-001-002-----0
 62
     7
370
    35
100
AcDbLine
 10
502.290976
 20
296.3
 30
0.0
 11
510.901049
 21
296.3
 31
0.0
  0
LINE
  5
53F
330
4FC
100
AcDbEntity
  8
LC-001-002-----0
 62
     7
370
    35
100
AcDbLine
 10
502.304141
 20
296.4
 30
0.0
 11
510.887884
 21
296.4
 31
0.0
  0
LINE
  5
540
330
4FC
100
AcDbEntity
  8
LC-001-002-----0
 62
     7
370
    35
100
AcDbLine
 10
502.317307
 20
296.5
 30
0.0
 11
510.874719
 21
296.5
 31
0.0
  0
LINE
  5
541
330
4FC
100
AcDbEntity
  8
LC-001-002-----0
 62
     7
370
    35
100
AcDbLine
 10
502.3304719999999
 20
296.6
 30
0.0
 11
510.861554
 21
296.6
 31
0.0
  0
LINE
  5
542
330
4FC
100
AcDbEntity
  8
LC-001-002-----0
 62
     7
370
    35
100
AcDbLine
 10
502.3436369999999
 20
296.7
 30
0.0
 11
510.848388
 21
296.7
 31
0.0
  0
LINE
  5
543
330
4FC
100
AcDbEntity
  8
LC-001-002-----0
 62
     7
370
    35
100
AcDbLine
 10
502.3568019999999
 20
296.8
 30
0.0
 11
510.835223
 21
296.8
 31
0.0
  0
LINE
  5
544
330
4FC
100
AcDbEntity
  8
LC-001-002-----0
 62
     7
370
    35
100
AcDbLine
 10
502.369968
 20
296.9
 30
0.0
 11
510.822058
 21
296.9
 31
0.0
  0
LINE
  5
545
330
4FC
100
AcDbEntity
  8
LC-001-002-----0
 62
     7
370
    35
100
AcDbLine
 10
502.383133
 20
297.0
 30
0.0
 11
510.808893
 21
297.0
 31
0.0
  0
LINE
  5
546
330
4FC
100
AcDbEntity
  8
LC-001-002-----0
 62
     7
370
    35
100
AcDbLine
 10
502.396298
 20
297.1
 30
0.0
 11
510.7957269999999
 21
297.1
 31
0.0
  0
LINE
  5
547
330
4FC
100
AcDbEntity
  8
LC-001-002-----0
 62
     7
370
    35
100
AcDbLine
 10
502.409463
 20
297.2
 30
0.0
 11
510.7825619999999
 21
297.2
 31
0.0
  0
LINE
  5
548
330
4FC
100
AcDbEntity
  8
LC-001-002-----0
 62
     7
370
    35
100
AcDbLine
 10
502.422629
 20
297.3
 30
0.0
 11
510.7693969999999
 21
297.3
 31
0.0
  0
LINE
  5
549
330
4FC
100
AcDbEntity
  8
LC-001-002-----0
 62
     7
370
    35
100
AcDbLine
 10
502.435794
 20
297.4
 30
0.0
 11
510.756232
 21
297.4
 31
0.0
  0
LINE
  5
54A
330
4FC
100
AcDbEntity
  8
LC-001-002-----0
 62
     7
370
    35
100
AcDbLine
 10
502.4489589999999
 20
297.5
 30
0.0
 11
510.743066
 21
297.5
 31
0.0
  0
LINE
  5
54B
330
4FC
100
AcDbEntity
  8
LC-001-002-----0
 62
     7
370
    35
100
AcDbLine
 10
502.462124
 20
297.6
 30
0.0
 11
510.729901
 21
297.6
 31
0.0
  0
LINE
  5
54C
330
4FC
100
AcDbEntity
  8
LC-001-002-----0
 62
     7
370
    35
100
AcDbLine
 10
502.47529
 20
297.7
 30
0.0
 11
510.716736
 21
297.7
 31
0.0
  0
LINE
  5
54D
330
4FC
100
AcDbEntity
  8
LC-001-002-----0
 62
     7
370
    35
100
AcDbLine
 10
502.488455
 20
297.8
 30
0.0
 11
510.7035709999999
 21
297.8
 31
0.0
  0
LINE
  5
54E
330
4FC
100
AcDbEntity
  8
LC-001-002-----0
 62
     7
370
    35
100
AcDbLine
 10
502.50162
 20
297.9
 30
0.0
 11
510.6904049999999
 21
297.9
 31
0.0
  0
LINE
  5
54F
330
4FC
100
AcDbEntity
  8
LC-001-002-----0
 62
     7
370
    35
100
AcDbLine
 10
502.5147849999999
 20
298.0
 30
0.0
 11
510.67724
 21
298.0
 31
0.0
  0
LINE
  5
550
330
4FC
100
AcDbEntity
  8
LC-001-002-----0
 62
     7
370
    35
100
AcDbLine
 10
502.5279509999999
 20
298.1
 30
0.0
 11
510.664075
 21
298.1
 31
0.0
  0
LINE
  5
551
330
4FC
100
AcDbEntity
  8
LC-001-002-----0
 62
     7
370
    35
100
AcDbLine
 10
502.5411159999999
 20
298.2
 30
0.0
 11
510.6509099999999
 21
298.2
 31
0.0
  0
LINE
  5
552
330
4FC
100
AcDbEntity
  8
LC-001-002-----0
 62
     7
370
    35
100
AcDbLine
 10
502.5542809999999
 20
298.3
 30
0.0
 11
510.6377440000001
 21
298.3
 31
0.0
  0
LINE
  5
553
330
4FC
100
AcDbEntity
  8
LC-001-002-----0
 62
     7
370
    35
100
AcDbLine
 10
502.567446
 20
298.4
 30
0.0
 11
510.624579
 21
298.4
 31
0.0
  0
LINE
  5
554
330
4FC
100
AcDbEntity
  8
LC-001-002-----0
 62
     7
370
    35
100
AcDbLine
 10
502.580612
 20
298.5
 30
0.0
 11
510.6114139999999
 21
298.5
 31
0.0
  0
LINE
  5
555
330
4FC
100
AcDbEntity
  8
LC-001-002-----0
 62
     7
370
    35
100
AcDbLine
 10
502.5937769999999
 20
298.6
 30
0.0
 11
510.598249
 21
298.6
 31
0.0
  0
LINE
  5
556
330
4FC
100
AcDbEntity
  8
LC-001-002-----0
 62
     7
370
    35
100
AcDbLine
 10
502.6069419999999
 20
298.7
 30
0.0
 11
510.585083
 21
298.7
 31
0.0
  0
LINE
  5
557
330
4FC
100
AcDbEntity
  8
LC-001-002-----0
 62
     7
370
    35
100
AcDbLine
 10
502.6201069999999
 20
298.8
 30
0.0
 11
510.571918
 21
298.8
 31
0.0
  0
LINE
  5
558
330
4FC
100
AcDbEntity
  8
LC-001-002-----0
 62
     7
370
    35
100
AcDbLine
 10
502.633273
 20
298.9
 30
0.0
 11
510.558753
 21
298.9
 31
0.0
  0
LINE
  5
559
330
4FC
100
AcDbEntity
  8
LC-001-002-----0
 62
     7
370
    35
100
AcDbLine
 10
502.646438
 20
299.0
 30
0.0
 11
510.545588
 21
299.0
 31
0.0
  0
LINE
  5
55A
330
4FC
100
AcDbEntity
  8
LC-001-002-----0
 62
     7
370
    35
100
AcDbLine
 10
502.659603
 20
299.1
 30
0.0
 11
510.5324219999999
 21
299.1
 31
0.0
  0
LINE
  5
55B
330
4FC
100
AcDbEntity
  8
LC-001-002-----0
 62
     7
370
    35
100
AcDbLine
 10
502.6727679999999
 20
299.2
 30
0.0
 11
510.519257
 21
299.2
 31
0.0
  0
LINE
  5
55C
330
4FC
100
AcDbEntity
  8
LC-001-002-----0
 62
     7
370
    35
100
AcDbLine
 10
502.6859339999999
 20
299.3
 30
0.0
 11
510.5060919999999
 21
299.3
 31
0.0
  0
LINE
  5
55D
330
4FC
100
AcDbEntity
  8
LC-001-002-----0
 62
     7
370
    35
100
AcDbLine
 10
502.699099
 20
299.4
 30
0.0
 11
510.4929269999999
 21
299.4
 31
0.0
  0
LINE
  5
55E
330
4FC
100
AcDbEntity
  8
LC-001-002-----0
 62
     7
370
    35
100
AcDbLine
 10
502.7122639999999
 20
299.5
 30
0.0
 11
510.479761
 21
299.5
 31
0.0
  0
LINE
  5
55F
330
4FC
100
AcDbEntity
  8
LC-001-002-----0
 62
     7
370
    35
100
AcDbLine
 10
502.725429
 20
299.6
 30
0.0
 11
510.466596
 21
299.6
 31
0.0
  0
LINE
  5
560
330
4FC
100
AcDbEntity
  8
LC-001-002-----0
 62
     7
370
    35
100
AcDbLine
 10
502.738595
 20
299.7
 30
0.0
 11
510.453431
 21
299.7
 31
0.0
  0
LINE
  5
561
330
4FC
100
AcDbEntity
  8
LC-001-002-----0
 62
     7
370
    35
100
AcDbLine
 10
502.75176
 20
299.8
 30
0.0
 11
510.4402659999999
 21
299.8
 31
0.0
  0
LINE
  5
562
330
4FC
100
AcDbEntity
  8
LC-001-002-----0
 62
     7
370
    35
100
AcDbLine
 10
502.764925
 20
299.9
 30
0.0
 11
510.4270999999999
 21
299.9
 31
0.0
  0
LINE
  5
563
330
4FC
100
AcDbEntity
  8
LC-001-002-----0
 62
     7
370
    35
100
AcDbLine
 10
502.77809
 20
300.0
 30
0.0
 11
510.4139349999999
 21
300.0
 31
0.0
  0
LINE
  5
564
330
4FC
100
AcDbEntity
  8
LC-001-002-----0
 62
     7
370
    35
100
AcDbLine
 10
502.7912559999999
 20
300.1
 30
0.0
 11
510.40077
 21
300.1
 31
0.0
  0
LINE
  5
565
330
4FC
100
AcDbEntity
  8
LC-001-002-----0
 62
     7
370
    35
100
AcDbLine
 10
502.804421
 20
300.2
 30
0.0
 11
510.387605
 21
300.2
 31
0.0
  0
LINE
  5
566
330
4FC
100
AcDbEntity
  8
LC-001-002-----0
 62
     7
370
    35
100
AcDbLine
 10
502.817586
 20
300.3
 30
0.0
 11
510.3744389999999
 21
300.3
 31
0.0
  0
LINE
  5
567
330
4FC
100
AcDbEntity
  8
LC-001-002-----0
 62
     7
370
    35
100
AcDbLine
 10
502.8307509999999
 20
300.4
 30
0.0
 11
510.361274
 21
300.4
 31
0.0
  0
LINE
  5
568
330
4FC
100
AcDbEntity
  8
LC-001-002-----0
 62
     7
370
    35
100
AcDbLine
 10
502.8439169999999
 20
300.5
 30
0.0
 11
510.3481089999999
 21
300.5
 31
0.0
  0
LINE
  5
569
330
4FC
100
AcDbEntity
  8
LC-001-002-----0
 62
     7
370
    35
100
AcDbLine
 10
502.857082
 20
300.6
 30
0.0
 11
510.334944
 21
300.6
 31
0.0
  0
LINE
  5
56A
330
4FC
100
AcDbEntity
  8
LC-001-002-----0
 62
     7
370
    35
100
AcDbLine
 10
502.8702469999999
 20
300.7
 30
0.0
 11
510.321778
 21
300.7
 31
0.0
  0
LINE
  5
56B
330
4FC
100
AcDbEntity
  8
LC-001-002-----0
 62
     7
370
    35
100
AcDbLine
 10
502.8834119999999
 20
300.8
 30
0.0
 11
510.308613
 21
300.8
 31
0.0
  0
LINE
  5
56C
330
4FC
100
AcDbEntity
  8
LC-001-002-----0
 62
     7
370
    35
100
AcDbLine
 10
502.896578
 20
300.9
 30
0.0
 11
510.295448
 21
300.9
 31
0.0
  0
LINE
  5
56D
330
4FC
100
AcDbEntity
  8
LC-001-002-----0
 62
     7
370
    35
100
AcDbLine
 10
502.909743
 20
301.0
 30
0.0
 11
510.282283
 21
301.0
 31
0.0
  0
LINE
  5
56E
330
4FC
100
AcDbEntity
  8
LC-001-002-----0
 62
     7
370
    35
100
AcDbLine
 10
502.922908
 20
301.1
 30
0.0
 11
510.2691169999999
 21
301.1
 31
0.0
  0
LINE
  5
56F
330
4FC
100
AcDbEntity
  8
LC-001-002-----0
 62
     7
370
    35
100
AcDbLine
 10
502.936073
 20
301.2
 30
0.0
 11
510.2559519999999
 21
301.2
 31
0.0
  0
LINE
  5
570
330
4FC
100
AcDbEntity
  8
LC-001-002-----0
 62
     7
370
    35
100
AcDbLine
 10
502.9492389999999
 20
301.3
 30
0.0
 11
510.242787
 21
301.3
 31
0.0
  0
LINE
  5
571
330
4FC
100
AcDbEntity
  8
LC-001-002-----0
 62
     7
370
    35
100
AcDbLine
 10
502.9624039999999
 20
301.4
 30
0.0
 11
510.2296219999999
 21
301.4
 31
0.0
  0
LINE
  5
572
330
4FC
100
AcDbEntity
  8
LC-001-002-----0
 62
     7
370
    35
100
AcDbLine
 10
502.975569
 20
301.5
 30
0.0
 11
510.2164559999999
 21
301.5
 31
0.0
  0
LINE
  5
573
330
4FC
100
AcDbEntity
  8
LC-001-002-----0
 62
     7
370
    35
100
AcDbLine
 10
502.988734
 20
301.6
 30
0.0
 11
510.203291
 21
301.6
 31
0.0
  0
LINE
  5
574
330
4FC
100
AcDbEntity
  8
LC-001-002-----0
 62
     7
370
    35
100
AcDbLine
 10
503.0019
 20
301.7
 30
0.0
 11
510.1901259999999
 21
301.7
 31
0.0
  0
LINE
  5
575
330
4FC
100
AcDbEntity
  8
LC-001-002-----0
 62
     7
370
    35
100
AcDbLine
 10
503.015065
 20
301.8
 30
0.0
 11
510.1769609999999
 21
301.8
 31
0.0
  0
LINE
  5
576
330
4FC
100
AcDbEntity
  8
LC-001-002-----0
 62
     7
370
    35
100
AcDbLine
 10
503.02823
 20
301.9
 30
0.0
 11
510.1637949999999
 21
301.9
 31
0.0
  0
LINE
  5
577
330
4FC
100
AcDbEntity
  8
LC-001-002-----0
 62
     7
370
    35
100
AcDbLine
 10
503.041395
 20
302.0
 30
0.0
 11
510.1506299999999
 21
302.0
 31
0.0
  0
LINE
  5
578
330
4FC
100
AcDbEntity
  8
LC-001-002-----0
 62
     7
370
    35
100
AcDbLine
 10
503.054561
 20
302.1
 30
0.0
 11
510.137465
 21
302.1
 31
0.0
  0
LINE
  5
579
330
4FC
100
AcDbEntity
  8
LC-001-002-----0
 62
     7
370
    35
100
AcDbLine
 10
503.067726
 20
302.2
 30
0.0
 11
510.1243
 21
302.2
 31
0.0
  0
LINE
  5
57A
330
4FC
100
AcDbEntity
  8
LC-001-002-----0
 62
     7
370
    35
100
AcDbLine
 10
503.080891
 20
302.3
 30
0.0
 11
510.111134
 21
302.3
 31
0.0
  0
LINE
  5
57B
330
4FC
100
AcDbEntity
  8
LC-001-002-----0
 62
     7
370
    35
100
AcDbLine
 10
503.0940559999999
 20
302.4
 30
0.0
 11
510.097969
 21
302.4
 31
0.0
  0
LINE
  5
57C
330
4FC
100
AcDbEntity
  8
LC-001-002-----0
 62
     7
370
    35
100
AcDbLine
 10
503.1072219999999
 20
302.5
 30
0.0
 11
510.084804
 21
302.5
 31
0.0
  0
LINE
  5
57D
330
4FC
100
AcDbEntity
  8
LC-001-002-----0
 62
     7
370
    35
100
AcDbLine
 10
503.1203869999999
 20
302.6
 30
0.0
 11
510.0716389999999
 21
302.6
 31
0.0
  0
LINE
  5
57E
330
4FC
100
AcDbEntity
  8
LC-001-002-----0
 62
     7
370
    35
100
AcDbLine
 10
503.1335519999999
 20
302.7
 30
0.0
 11
510.058473
 21
302.7
 31
0.0
  0
LINE
  5
57F
330
4FC
100
AcDbEntity
  8
LC-001-002-----0
 62
     7
370
    35
100
AcDbLine
 10
503.1467169999999
 20
302.8
 30
0.0
 11
510.045308
 21
302.8
 31
0.0
  0
LINE
  5
580
330
4FC
100
AcDbEntity
  8
LC-001-002-----0
 62
     7
370
    35
100
AcDbLine
 10
503.159883
 20
302.9
 30
0.0
 11
510.032143
 21
302.9
 31
0.0
  0
LINE
  5
581
330
4FC
100
AcDbEntity
  8
LC-001-002-----0
 62
     7
370
    35
100
AcDbLine
 10
503.173048
 20
303.0
 30
0.0
 11
510.018978
 21
303.0
 31
0.0
  0
LINE
  5
582
330
4FC
100
AcDbEntity
  8
LC-001-002-----0
 62
     7
370
    35
100
AcDbLine
 10
503.186213
 20
303.1
 30
0.0
 11
510.0058119999999
 21
303.1
 31
0.0
  0
LINE
  5
583
330
4FC
100
AcDbEntity
  8
LC-001-002-----0
 62
     7
370
    35
100
AcDbLine
 10
503.199378
 20
303.2
 30
0.0
 11
509.9926469999999
 21
303.2
 31
0.0
  0
LINE
  5
584
330
4FC
100
AcDbEntity
  8
LC-001-002-----0
 62
     7
370
    35
100
AcDbLine
 10
503.212544
 20
303.3
 30
0.0
 11
509.979482
 21
303.3
 31
0.0
  0
LINE
  5
585
330
4FC
100
AcDbEntity
  8
LC-001-002-----0
 62
     7
370
    35
100
AcDbLine
 10
503.2257089999999
 20
303.4
 30
0.0
 11
509.966317
 21
303.4
 31
0.0
  0
LINE
  5
586
330
4FC
100
AcDbEntity
  8
LC-001-002-----0
 62
     7
370
    35
100
AcDbLine
 10
503.238874
 20
303.5
 30
0.0
 11
509.953151
 21
303.5
 31
0.0
  0
LINE
  5
587
330
4FC
100
AcDbEntity
  8
LC-001-002-----0
 62
     7
370
    35
100
AcDbLine
 10
503.252039
 20
303.6
 30
0.0
 11
509.939986
 21
303.6
 31
0.0
  0
LINE
  5
588
330
4FC
100
AcDbEntity
  8
LC-001-002-----0
 62
     7
370
    35
100
AcDbLine
 10
503.265205
 20
303.7
 30
0.0
 11
509.9268209999999
 21
303.7
 31
0.0
  0
LINE
  5
589
330
4FC
100
AcDbEntity
  8
LC-001-002-----0
 62
     7
370
    35
100
AcDbLine
 10
503.27837
 20
303.8
 30
0.0
 11
509.9136559999999
 21
303.8
 31
0.0
  0
LINE
  5
58A
330
4FC
100
AcDbEntity
  8
LC-001-002-----0
 62
     7
370
    35
100
AcDbLine
 10
503.2915349999999
 20
303.9
 30
0.0
 11
509.90049
 21
303.9
 31
0.0
  0
LINE
  5
58B
330
4FC
100
AcDbEntity
  8
LC-001-002-----0
 62
     7
370
    35
100
AcDbLine
 10
503.3047
 20
304.0
 30
0.0
 11
509.8873249999999
 21
304.0
 31
0.0
  0
LINE
  5
58C
330
4FC
100
AcDbEntity
  8
LC-001-002-----0
 62
     7
370
    35
100
AcDbLine
 10
503.317866
 20
304.1
 30
0.0
 11
509.8741599999999
 21
304.1
 31
0.0
  0
LINE
  5
58D
330
4FC
100
AcDbEntity
  8
LC-001-002-----0
 62
     7
370
    35
100
AcDbLine
 10
503.3310309999999
 20
304.2
 30
0.0
 11
509.860995
 21
304.2
 31
0.0
  0
LINE
  5
58E
330
4FC
100
AcDbEntity
  8
LC-001-002-----0
 62
     7
370
    35
100
AcDbLine
 10
503.344196
 20
304.3
 30
0.0
 11
509.847829
 21
304.3
 31
0.0
  0
LINE
  5
58F
330
4FC
100
AcDbEntity
  8
LC-001-002-----0
 62
     7
370
    35
100
AcDbLine
 10
503.357361
 20
304.4
 30
0.0
 11
509.8346639999999
 21
304.4
 31
0.0
  0
LINE
  5
590
330
4FC
100
AcDbEntity
  8
LC-001-002-----0
 62
     7
370
    35
100
AcDbLine
 10
503.3705269999999
 20
304.5
 30
0.0
 11
509.821499
 21
304.5
 31
0.0
  0
LINE
  5
591
330
4FC
100
AcDbEntity
  8
LC-001-002-----0
 62
     7
370
    35
100
AcDbLine
 10
503.3836919999999
 20
304.6
 30
0.0
 11
509.808334
 21
304.6
 31
0.0
  0
LINE
  5
592
330
4FC
100
AcDbEntity
  8
LC-001-002-----0
 62
     7
370
    35
100
AcDbLine
 10
503.3968569999999
 20
304.7
 30
0.0
 11
509.795168
 21
304.7
 31
0.0
  0
LINE
  5
593
330
4FC
100
AcDbEntity
  8
LC-001-002-----0
 62
     7
370
    35
100
AcDbLine
 10
503.410022
 20
304.8
 30
0.0
 11
509.782003
 21
304.8
 31
0.0
  0
LINE
  5
594
330
4FC
100
AcDbEntity
  8
LC-001-002-----0
 62
     7
370
    35
100
AcDbLine
 10
503.423188
 20
304.9
 30
0.0
 11
509.768838
 21
304.9
 31
0.0
  0
LINE
  5
595
330
4FC
100
AcDbEntity
  8
LC-001-002-----0
 62
     7
370
    35
100
AcDbLine
 10
503.436353
 20
305.0
 30
0.0
 11
509.755673
 21
305.0
 31
0.0
  0
LINE
  5
596
330
4FC
100
AcDbEntity
  8
LC-001-002-----0
 62
     7
370
    35
100
AcDbLine
 10
503.4495179999999
 20
305.1
 30
0.0
 11
509.742507
 21
305.1
 31
0.0
  0
LINE
  5
597
330
4FC
100
AcDbEntity
  8
LC-001-002-----0
 62
     7
370
    35
100
AcDbLine
 10
503.462683
 20
305.2
 30
0.0
 11
509.7293419999999
 21
305.2
 31
0.0
  0
LINE
  5
598
330
4FC
100
AcDbEntity
  8
LC-001-002-----0
 62
     7
370
    35
100
AcDbLine
 10
503.475849
 20
305.3
 30
0.0
 11
509.7161769999999
 21
305.3
 31
0.0
  0
LINE
  5
599
330
4FC
100
AcDbEntity
  8
LC-001-002-----0
 62
     7
370
    35
100
AcDbLine
 10
503.4890139999999
 20
305.4
 30
0.0
 11
509.703012
 21
305.4
 31
0.0
  0
LINE
  5
59A
330
4FC
100
AcDbEntity
  8
LC-001-002-----0
 62
     7
370
    35
100
AcDbLine
 10
503.502179
 20
305.5
 30
0.0
 11
509.689846
 21
305.5
 31
0.0
  0
LINE
  5
59B
330
4FC
100
AcDbEntity
  8
LC-001-002-----0
 62
     7
370
    35
100
AcDbLine
 10
503.515344
 20
305.6
 30
0.0
 11
509.676681
 21
305.6
 31
0.0
  0
LINE
  5
59C
330
4FC
100
AcDbEntity
  8
LC-001-002-----0
 62
     7
370
    35
100
AcDbLine
 10
503.52851
 20
305.7
 30
0.0
 11
509.6635159999999
 21
305.7
 31
0.0
  0
LINE
  5
59D
330
4FC
100
AcDbEntity
  8
LC-001-002-----0
 62
     7
370
    35
100
AcDbLine
 10
503.541675
 20
305.8
 30
0.0
 11
509.6503509999999
 21
305.8
 31
0.0
  0
LINE
  5
59E
330
4FC
100
AcDbEntity
  8
LC-001-002-----0
 62
     7
370
    35
100
AcDbLine
 10
503.55484
 20
305.9
 30
0.0
 11
509.6371849999999
 21
305.9
 31
0.0
  0
LINE
  5
59F
330
4FC
100
AcDbEntity
  8
LC-001-002-----0
 62
     7
370
    35
100
AcDbLine
 10
503.5680049999999
 20
306.0
 30
0.0
 11
509.62402
 21
306.0
 31
0.0
  0
LINE
  5
5A0
330
4FC
100
AcDbEntity
  8
LC-001-002-----0
 62
     7
370
    35
100
AcDbLine
 10
503.5811709999999
 20
306.1
 30
0.0
 11
509.6108549999999
 21
306.1
 31
0.0
  0
LINE
  5
5A1
330
4FC
100
AcDbEntity
  8
LC-001-002-----0
 62
     7
370
    35
100
AcDbLine
 10
503.594336
 20
306.2
 30
0.0
 11
509.5976900000001
 21
306.2
 31
0.0
  0
LINE
  5
5A2
330
4FC
100
AcDbEntity
  8
LC-001-002-----0
 62
     7
370
    35
100
AcDbLine
 10
503.6075009999999
 20
306.3
 30
0.0
 11
509.584524
 21
306.3
 31
0.0
  0
LINE
  5
5A3
330
4FC
100
AcDbEntity
  8
LC-001-002-----0
 62
     7
370
    35
100
AcDbLine
 10
503.620666
 20
306.4
 30
0.0
 11
509.5713589999999
 21
306.4
 31
0.0
  0
LINE
  5
5A4
330
4FC
100
AcDbEntity
  8
LC-001-002-----0
 62
     7
370
    35
100
AcDbLine
 10
503.633832
 20
306.5
 30
0.0
 11
509.558194
 21
306.5
 31
0.0
  0
LINE
  5
5A5
330
4FC
100
AcDbEntity
  8
LC-001-002-----0
 62
     7
370
    35
100
AcDbLine
 10
503.6469969999999
 20
306.6
 30
0.0
 11
509.545029
 21
306.6
 31
0.0
  0
LINE
  5
5A6
330
4FC
100
AcDbEntity
  8
LC-001-002-----0
 62
     7
370
    35
100
AcDbLine
 10
503.6601619999999
 20
306.7
 30
0.0
 11
509.531863
 21
306.7
 31
0.0
  0
LINE
  5
5A7
330
4FC
100
AcDbEntity
  8
LC-001-002-----0
 62
     7
370
    35
100
AcDbLine
 10
503.673327
 20
306.8
 30
0.0
 11
509.518698
 21
306.8
 31
0.0
  0
LINE
  5
5A8
330
4FC
100
AcDbEntity
  8
LC-001-002-----0
 62
     7
370
    35
100
AcDbLine
 10
503.686493
 20
306.9
 30
0.0
 11
509.505533
 21
306.9
 31
0.0
  0
LINE
  5
5A9
330
4FC
100
AcDbEntity
  8
LC-001-002-----0
 62
     7
370
    35
100
AcDbLine
 10
503.699658
 20
307.0
 30
0.0
 11
509.4923679999999
 21
307.0
 31
0.0
  0
LINE
  5
5AA
330
4FC
100
AcDbEntity
  8
LC-001-002-----0
 62
     7
370
    35
100
AcDbLine
 10
503.712823
 20
307.1
 30
0.0
 11
509.4792019999998
 21
307.1
 31
0.0
  0
LINE
  5
5AB
330
4FC
100
AcDbEntity
  8
LC-001-002-----0
 62
     7
370
    35
100
AcDbLine
 10
503.7259879999999
 20
307.2
 30
0.0
 11
509.466037
 21
307.2
 31
0.0
  0
LINE
  5
5AC
330
4FC
100
AcDbEntity
  8
LC-001-002-----0
 62
     7
370
    35
100
AcDbLine
 10
503.7391539999999
 20
307.3
 30
0.0
 11
509.4528719999999
 21
307.3
 31
0.0
  0
LINE
  5
5AD
330
4FC
100
AcDbEntity
  8
LC-001-002-----0
 62
     7
370
    35
100
AcDbLine
 10
503.752319
 20
307.4
 30
0.0
 11
509.439707
 21
307.4
 31
0.0
  0
LINE
  5
5AE
330
4FC
100
AcDbEntity
  8
LC-001-002-----0
 62
     7
370
    35
100
AcDbLine
 10
503.765484
 20
307.5
 30
0.0
 11
509.426541
 21
307.5
 31
0.0
  0
LINE
  5
5AF
330
4FC
100
AcDbEntity
  8
LC-001-002-----0
 62
     7
370
    35
100
AcDbLine
 10
503.778649
 20
307.6
 30
0.0
 11
509.413376
 21
307.6
 31
0.0
  0
LINE
  5
5B0
330
4FC
100
AcDbEntity
  8
LC-001-002-----0
 62
     7
370
    35
100
AcDbLine
 10
503.791815
 20
307.7
 30
0.0
 11
509.4002109999999
 21
307.7
 31
0.0
  0
LINE
  5
5B1
330
4FC
100
AcDbEntity
  8
LC-001-002-----0
 62
     7
370
    35
100
AcDbLine
 10
503.80498
 20
307.8
 30
0.0
 11
509.3870459999999
 21
307.8
 31
0.0
  0
LINE
  5
5B2
330
4FC
100
AcDbEntity
  8
LC-001-002-----0
 62
     7
370
    35
100
AcDbLine
 10
503.818145
 20
307.9
 30
0.0
 11
509.3738799999999
 21
307.9
 31
0.0
  0
LINE
  5
5B3
330
4FC
100
AcDbEntity
  8
LC-001-002-----0
 62
     7
370
    35
100
AcDbLine
 10
503.8313099999999
 20
308.0
 30
0.0
 11
509.360715
 21
308.0
 31
0.0
  0
LINE
  5
5B4
330
4FC
100
AcDbEntity
  8
LC-001-002-----0
 62
     7
370
    35
100
AcDbLine
 10
503.8444759999999
 20
308.1
 30
0.0
 11
509.34755
 21
308.1
 31
0.0
  0
LINE
  5
5B5
330
4FC
100
AcDbEntity
  8
LC-001-002-----0
 62
     7
370
    35
100
AcDbLine
 10
503.857641
 20
308.2
 30
0.0
 11
509.3343849999999
 21
308.2
 31
0.0
  0
LINE
  5
5B6
330
4FC
100
AcDbEntity
  8
LC-001-002-----0
 62
     7
370
    35
100
AcDbLine
 10
503.8708059999999
 20
308.3
 30
0.0
 11
509.321219
 21
308.3
 31
0.0
  0
LINE
  5
5B7
330
4FC
100
AcDbEntity
  8
LC-001-002-----0
 62
     7
370
    35
100
AcDbLine
 10
503.8839709999999
 20
308.4
 30
0.0
 11
509.308054
 21
308.4
 31
0.0
  0
LINE
  5
5B8
330
4FC
100
AcDbEntity
  8
LC-001-002-----0
 62
     7
370
    35
100
AcDbLine
 10
503.8971369999999
 20
308.5
 30
0.0
 11
509.2948889999999
 21
308.5
 31
0.0
  0
LINE
  5
5B9
330
4FC
100
AcDbEntity
  8
LC-001-002-----0
 62
     7
370
    35
100
AcDbLine
 10
503.9103019999999
 20
308.6
 30
0.0
 11
509.281724
 21
308.6
 31
0.0
  0
LINE
  5
5BA
330
4FC
100
AcDbEntity
  8
LC-001-002-----0
 62
     7
370
    35
100
AcDbLine
 10
503.9234669999999
 20
308.7
 30
0.0
 11
509.268558
 21
308.7
 31
0.0
  0
LINE
  5
5BB
330
4FC
100
AcDbEntity
  8
LC-001-002-----0
 62
     7
370
    35
100
AcDbLine
 10
503.936632
 20
308.8
 30
0.0
 11
509.255393
 21
308.8
 31
0.0
  0
LINE
  5
5BC
330
4FC
100
AcDbEntity
  8
LC-001-002-----0
 62
     7
370
    35
100
AcDbLine
 10
503.949798
 20
308.9
 30
0.0
 11
509.242228
 21
308.9
 31
0.0
  0
LINE
  5
5BD
330
4FC
100
AcDbEntity
  8
LC-001-002-----0
 62
     7
370
    35
100
AcDbLine
 10
503.962963
 20
309.0
 30
0.0
 11
509.2290629999999
 21
309.0
 31
0.0
  0
LINE
  5
5BE
330
4FC
100
AcDbEntity
  8
LC-001-002-----0
 62
     7
370
    35
100
AcDbLine
 10
503.976128
 20
309.1
 30
0.0
 11
509.2158969999999
 21
309.1
 31
0.0
  0
LINE
  5
5BF
330
4FC
100
AcDbEntity
  8
LC-001-002-----0
 62
     7
370
    35
100
AcDbLine
 10
503.9892929999999
 20
309.2
 30
0.0
 11
509.202732
 21
309.2
 31
0.0
  0
LINE
  5
5C0
330
4FC
100
AcDbEntity
  8
LC-001-002-----0
 62
     7
370
    35
100
AcDbLine
 10
504.0024589999999
 20
309.3
 30
0.0
 11
509.189567
 21
309.3
 31
0.0
  0
LINE
  5
5C1
330
4FC
100
AcDbEntity
  8
LC-001-002-----0
 62
     7
370
    35
100
AcDbLine
 10
504.0156239999999
 20
309.4
 30
0.0
 11
509.1764019999999
 21
309.4
 31
0.0
  0
LINE
  5
5C2
330
4FC
100
AcDbEntity
  8
LC-001-002-----0
 62
     7
370
    35
100
AcDbLine
 10
504.028789
 20
309.5
 30
0.0
 11
509.163236
 21
309.5
 31
0.0
  0
LINE
  5
5C3
330
4FC
100
AcDbEntity
  8
LC-001-002-----0
 62
     7
370
    35
100
AcDbLine
 10
504.041954
 20
309.6
 30
0.0
 11
509.150071
 21
309.6
 31
0.0
  0
LINE
  5
5C4
330
4FC
100
AcDbEntity
  8
LC-001-002-----0
 62
     7
370
    35
100
AcDbLine
 10
504.05512
 20
309.7
 30
0.0
 11
509.1369059999999
 21
309.7
 31
0.0
  0
LINE
  5
5C5
330
4FC
100
AcDbEntity
  8
LC-001-002-----0
 62
     7
370
    35
100
AcDbLine
 10
504.0682849999999
 20
309.8
 30
0.0
 11
509.1237409999999
 21
309.8
 31
0.0
  0
LINE
  5
5C6
330
4FC
100
AcDbEntity
  8
LC-001-002-----0
 62
     7
370
    35
100
AcDbLine
 10
504.08145
 20
309.9
 30
0.0
 11
509.1105749999999
 21
309.9
 31
0.0
  0
LINE
  5
5C7
330
4FC
100
AcDbEntity
  8
LC-001-002-----0
 62
     7
370
    35
100
AcDbLine
 10
504.094615
 20
310.0
 30
0.0
 11
509.0974099999999
 21
310.0
 31
0.0
  0
LINE
  5
5C8
330
4FC
100
AcDbEntity
  8
LC-001-002-----0
 62
     7
370
    35
100
AcDbLine
 10
504.1077809999999
 20
310.1
 30
0.0
 11
509.084245
 21
310.1
 31
0.0
  0
LINE
  5
5C9
330
4FC
100
AcDbEntity
  8
LC-001-002-----0
 62
     7
370
    35
100
AcDbLine
 10
504.120946
 20
310.2
 30
0.0
 11
509.07108
 21
310.2
 31
0.0
  0
LINE
  5
5CA
330
4FC
100
AcDbEntity
  8
LC-001-002-----0
 62
     7
370
    35
100
AcDbLine
 10
504.134111
 20
310.3
 30
0.0
 11
509.057914
 21
310.3
 31
0.0
  0
LINE
  5
5CB
330
4FC
100
AcDbEntity
  8
LC-001-002-----0
 62
     7
370
    35
100
AcDbLine
 10
504.1472759999999
 20
310.4
 30
0.0
 11
509.044749
 21
310.4
 31
0.0
  0
LINE
  5
5CC
330
4FC
100
AcDbEntity
  8
LC-001-002-----0
 62
     7
370
    35
100
AcDbLine
 10
504.1604419999999
 20
310.5
 30
0.0
 11
509.031584
 21
310.5
 31
0.0
  0
LINE
  5
5CD
330
4FC
100
AcDbEntity
  8
LC-001-002-----0
 62
     7
370
    35
100
AcDbLine
 10
504.1736069999999
 20
310.6
 30
0.0
 11
509.018419
 21
310.6
 31
0.0
  0
LINE
  5
5CE
330
4FC
100
AcDbEntity
  8
LC-001-002-----0
 62
     7
370
    35
100
AcDbLine
 10
504.1867719999999
 20
310.7
 30
0.0
 11
509.005253
 21
310.7
 31
0.0
  0
LINE
  5
5CF
330
4FC
100
AcDbEntity
  8
LC-001-002-----0
 62
     7
370
    35
100
AcDbLine
 10
504.199937
 20
310.8
 30
0.0
 11
508.992088
 21
310.8
 31
0.0
  0
LINE
  5
5D0
330
4FC
100
AcDbEntity
  8
LC-001-002-----0
 62
     7
370
    35
100
AcDbLine
 10
504.213103
 20
310.9
 30
0.0
 11
508.978923
 21
310.9
 31
0.0
  0
LINE
  5
5D1
330
4FC
100
AcDbEntity
  8
LC-001-002-----0
 62
     7
370
    35
100
AcDbLine
 10
504.2262679999999
 20
311.0
 30
0.0
 11
508.9657579999999
 21
311.0
 31
0.0
  0
LINE
  5
5D2
330
4FC
100
AcDbEntity
  8
LC-001-002-----0
 62
     7
370
    35
100
AcDbLine
 10
504.239433
 20
311.1
 30
0.0
 11
508.9525919999999
 21
311.1
 31
0.0
  0
LINE
  5
5D3
330
4FC
100
AcDbEntity
  8
LC-001-002-----0
 62
     7
370
    35
100
AcDbLine
 10
504.252598
 20
311.2
 30
0.0
 11
508.9394269999999
 21
311.2
 31
0.0
  0
LINE
  5
5D4
330
4FC
100
AcDbEntity
  8
LC-001-002-----0
 62
     7
370
    35
100
AcDbLine
 10
504.2657639999999
 20
311.3
 30
0.0
 11
508.926262
 21
311.3
 31
0.0
  0
LINE
  5
5D5
330
4FC
100
AcDbEntity
  8
LC-001-002-----0
 62
     7
370
    35
100
AcDbLine
 10
504.2789289999999
 20
311.4
 30
0.0
 11
508.913097
 21
311.4
 31
0.0
  0
LINE
  5
5D6
330
4FC
100
AcDbEntity
  8
LC-001-002-----0
 62
     7
370
    35
100
AcDbLine
 10
504.292094
 20
311.5
 30
0.0
 11
508.899931
 21
311.5
 31
0.0
  0
LINE
  5
5D7
330
4FC
100
AcDbEntity
  8
LC-001-002-----0
 62
     7
370
    35
100
AcDbLine
 10
504.305259
 20
311.6
 30
0.0
 11
508.886766
 21
311.6
 31
0.0
  0
LINE
  5
5D8
330
4FC
100
AcDbEntity
  8
LC-001-002-----0
 62
     7
370
    35
100
AcDbLine
 10
504.318425
 20
311.7
 30
0.0
 11
508.8736009999999
 21
311.7
 31
0.0
  0
LINE
  5
5D9
330
4FC
100
AcDbEntity
  8
LC-001-002-----0
 62
     7
370
    35
100
AcDbLine
 10
504.33159
 20
311.8
 30
0.0
 11
508.860436
 21
311.8
 31
0.0
  0
LINE
  5
5DA
330
4FC
100
AcDbEntity
  8
LC-001-002-----0
 62
     7
370
    35
100
AcDbLine
 10
504.3447549999999
 20
311.9
 30
0.0
 11
508.84727
 21
311.9
 31
0.0
  0
LINE
  5
5DB
330
4FC
100
AcDbEntity
  8
LC-001-002-----0
 62
     7
370
    35
100
AcDbLine
 10
504.35792
 20
312.0
 30
0.0
 11
508.8341049999999
 21
312.0
 31
0.0
  0
LINE
  5
5DC
330
4FC
100
AcDbEntity
  8
LC-001-002-----0
 62
     7
370
    35
100
AcDbLine
 10
504.371086
 20
312.1
 30
0.0
 11
508.8209400000001
 21
312.1
 31
0.0
  0
LINE
  5
5DD
330
4FC
100
AcDbEntity
  8
LC-001-002-----0
 62
     7
370
    35
100
AcDbLine
 10
504.3842509999999
 20
312.2
 30
0.0
 11
508.807775
 21
312.2
 31
0.0
  0
LINE
  5
5DE
330
4FC
100
AcDbEntity
  8
LC-001-002-----0
 62
     7
370
    35
100
AcDbLine
 10
504.397416
 20
312.3
 30
0.0
 11
508.7946089999999
 21
312.3
 31
0.0
  0
LINE
  5
5DF
330
4FC
100
AcDbEntity
  8
LC-001-002-----0
 62
     7
370
    35
100
AcDbLine
 10
504.4105809999999
 20
312.4
 30
0.0
 11
508.781444
 21
312.4
 31
0.0
  0
LINE
  5
5E0
330
4FC
100
AcDbEntity
  8
LC-001-002-----0
 62
     7
370
    35
100
AcDbLine
 10
504.4237469999999
 20
312.5
 30
0.0
 11
508.768279
 21
312.5
 31
0.0
  0
LINE
  5
5E1
330
4FC
100
AcDbEntity
  8
LC-001-002-----0
 62
     7
370
    35
100
AcDbLine
 10
504.4369119999999
 20
312.6
 30
0.0
 11
508.755114
 21
312.6
 31
0.0
  0
LINE
  5
5E2
330
4FC
100
AcDbEntity
  8
LC-001-002-----0
 62
     7
370
    35
100
AcDbLine
 10
504.4500769999999
 20
312.7
 30
0.0
 11
508.741948
 21
312.7
 31
0.0
  0
LINE
  5
5E3
330
4FC
100
AcDbEntity
  8
LC-001-002-----0
 62
     7
370
    35
100
AcDbLine
 10
504.463242
 20
312.8
 30
0.0
 11
508.728783
 21
312.8
 31
0.0
  0
LINE
  5
5E4
330
4FC
100
AcDbEntity
  8
LC-001-002-----0
 62
     7
370
    35
100
AcDbLine
 10
504.476408
 20
312.9
 30
0.0
 11
508.715618
 21
312.9
 31
0.0
  0
LINE
  5
5E5
330
4FC
100
AcDbEntity
  8
LC-001-002-----0
 62
     7
370
    35
100
AcDbLine
 10
504.489573
 20
313.0
 30
0.0
 11
508.702453
 21
313.0
 31
0.0
  0
LINE
  5
5E6
330
4FC
100
AcDbEntity
  8
LC-001-002-----0
 62
     7
370
    35
100
AcDbLine
 10
504.5027379999999
 20
313.1
 30
0.0
 11
508.689287
 21
313.1
 31
0.0
  0
LINE
  5
5E7
330
4FC
100
AcDbEntity
  8
LC-001-002-----0
 62
     7
370
    35
100
AcDbLine
 10
504.515903
 20
313.2
 30
0.0
 11
508.6761219999999
 21
313.2
 31
0.0
  0
LINE
  5
5E8
330
4FC
100
AcDbEntity
  8
LC-001-002-----0
 62
     7
370
    35
100
AcDbLine
 10
504.529069
 20
313.3
 30
0.0
 11
508.662957
 21
313.3
 31
0.0
  0
LINE
  5
5E9
330
4FC
100
AcDbEntity
  8
LC-001-002-----0
 62
     7
370
    35
100
AcDbLine
 10
504.542234
 20
313.4
 30
0.0
 11
508.649792
 21
313.4
 31
0.0
  0
LINE
  5
5EA
330
4FC
100
AcDbEntity
  8
LC-001-002-----0
 62
     7
370
    35
100
AcDbLine
 10
504.555399
 20
313.5
 30
0.0
 11
508.636626
 21
313.5
 31
0.0
  0
LINE
  5
5EB
330
4FC
100
AcDbEntity
  8
LC-001-002-----0
 62
     7
370
    35
100
AcDbLine
 10
504.568564
 20
313.6
 30
0.0
 11
508.6234609999999
 21
313.6
 31
0.0
  0
LINE
  5
5EC
330
4FC
100
AcDbEntity
  8
LC-001-002-----0
 62
     7
370
    35
100
AcDbLine
 10
504.58173
 20
313.7
 30
0.0
 11
508.6102959999999
 21
313.7
 31
0.0
  0
LINE
  5
5ED
330
4FC
100
AcDbEntity
  8
LC-001-002-----0
 62
     7
370
    35
100
AcDbLine
 10
504.594895
 20
313.8
 30
0.0
 11
508.5971309999999
 21
313.8
 31
0.0
  0
LINE
  5
5EE
330
4FC
100
AcDbEntity
  8
LC-001-002-----0
 62
     7
370
    35
100
AcDbLine
 10
504.6080599999999
 20
313.9
 30
0.0
 11
508.583965
 21
313.9
 31
0.0
  0
LINE
  5
5EF
330
4FC
100
AcDbEntity
  8
LC-001-002-----0
 62
     7
370
    35
100
AcDbLine
 10
504.6212249999999
 20
314.0
 30
0.0
 11
508.5708
 21
314.0
 31
0.0
  0
LINE
  5
5F0
330
4FC
100
AcDbEntity
  8
LC-001-002-----0
 62
     7
370
    35
100
AcDbLine
 10
504.634391
 20
314.1
 30
0.0
 11
508.5576349999999
 21
314.1
 31
0.0
  0
LINE
  5
5F1
330
4FC
100
AcDbEntity
  8
LC-001-002-----0
 62
     7
370
    35
100
AcDbLine
 10
504.6475559999999
 20
314.2
 30
0.0
 11
508.54447
 21
314.2
 31
0.0
  0
LINE
  5
5F2
330
4FC
100
AcDbEntity
  8
LC-001-002-----0
 62
     7
370
    35
100
AcDbLine
 10
504.660721
 20
314.3
 30
0.0
 11
508.5313039999999
 21
314.3
 31
0.0
  0
LINE
  5
5F3
330
4FC
100
AcDbEntity
  8
LC-001-002-----0
 62
     7
370
    35
100
AcDbLine
 10
504.673886
 20
314.4
 30
0.0
 11
508.5181389999999
 21
314.4
 31
0.0
  0
LINE
  5
5F4
330
4FC
100
AcDbEntity
  8
LC-001-002-----0
 62
     7
370
    35
100
AcDbLine
 10
504.6870519999999
 20
314.5
 30
0.0
 11
508.504974
 21
314.5
 31
0.0
  0
LINE
  5
5F5
330
4FC
100
AcDbEntity
  8
LC-001-002-----0
 62
     7
370
    35
100
AcDbLine
 10
504.7002169999999
 20
314.6
 30
0.0
 11
508.491809
 21
314.6
 31
0.0
  0
LINE
  5
5F6
330
4FC
100
AcDbEntity
  8
LC-001-002-----0
 62
     7
370
    35
100
AcDbLine
 10
504.7133819999999
 20
314.7
 30
0.0
 11
508.478643
 21
314.7
 31
0.0
  0
LINE
  5
5F7
330
4FC
100
AcDbEntity
  8
LC-001-002-----0
 62
     7
370
    35
100
AcDbLine
 10
504.726547
 20
314.8
 30
0.0
 11
508.465478
 21
314.8
 31
0.0
  0
LINE
  5
5F8
330
4FC
100
AcDbEntity
  8
LC-001-002-----0
 62
     7
370
    35
100
AcDbLine
 10
504.739713
 20
314.9
 30
0.0
 11
508.452313
 21
314.9
 31
0.0
  0
LINE
  5
5F9
330
4FC
100
AcDbEntity
  8
LC-001-002-----0
 62
     7
370
    35
100
AcDbLine
 10
504.752878
 20
315.0
 30
0.0
 11
508.439148
 21
315.0
 31
0.0
  0
LINE
  5
5FA
330
4FC
100
AcDbEntity
  8
LC-001-002-----0
 62
     7
370
    35
100
AcDbLine
 10
504.7660429999999
 20
315.1
 30
0.0
 11
508.425982
 21
315.1
 31
0.0
  0
LINE
  5
5FB
330
4FC
100
AcDbEntity
  8
LC-001-002-----0
 62
     7
370
    35
100
AcDbLine
 10
504.7792079999999
 20
315.2
 30
0.0
 11
508.412817
 21
315.2
 31
0.0
  0
LINE
  5
5FC
330
4FC
100
AcDbEntity
  8
LC-001-002-----0
 62
     7
370
    35
100
AcDbLine
 10
504.7923739999999
 20
315.3
 30
0.0
 11
508.3996519999999
 21
315.3
 31
0.0
  0
LINE
  5
5FD
330
4FC
100
AcDbEntity
  8
LC-001-002-----0
 62
     7
370
    35
100
AcDbLine
 10
504.805539
 20
315.4
 30
0.0
 11
508.386487
 21
315.4
 31
0.0
  0
LINE
  5
5FE
330
4FC
100
AcDbEntity
  8
LC-001-002-----0
 62
     7
370
    35
100
AcDbLine
 10
504.818704
 20
315.5
 30
0.0
 11
508.373321
 21
315.5
 31
0.0
  0
LINE
  5
5FF
330
4FC
100
AcDbEntity
  8
LC-001-002-----0
 62
     7
370
    35
100
AcDbLine
 10
504.831869
 20
315.6
 30
0.0
 11
508.3601559999999
 21
315.6
 31
0.0
  0
LINE
  5
600
330
4FC
100
AcDbEntity
  8
LC-001-002-----0
 62
     7
370
    35
100
AcDbLine
 10
504.8450349999999
 20
315.7
 30
0.0
 11
508.3469909999999
 21
315.7
 31
0.0
  0
LINE
  5
601
330
4FC
100
AcDbEntity
  8
LC-001-002-----0
 62
     7
370
    35
100
AcDbLine
 10
504.8582
 20
315.8
 30
0.0
 11
508.3338259999999
 21
315.8
 31
0.0
  0
LINE
  5
602
330
4FC
100
AcDbEntity
  8
LC-001-002-----0
 62
     7
370
    35
100
AcDbLine
 10
504.871365
 20
315.9
 30
0.0
 11
508.3206599999999
 21
315.9
 31
0.0
  0
LINE
  5
603
330
4FC
100
AcDbEntity
  8
LC-001-002-----0
 62
     7
370
    35
100
AcDbLine
 10
504.8845299999999
 20
316.0
 30
0.0
 11
508.307495
 21
316.0
 31
0.0
  0
LINE
  5
604
330
4FC
100
AcDbEntity
  8
LC-001-002-----0
 62
     7
370
    35
100
AcDbLine
 10
504.897696
 20
316.1
 30
0.0
 11
508.29433
 21
316.1
 31
0.0
  0
LINE
  5
605
330
4FC
100
AcDbEntity
  8
LC-001-002-----0
 62
     7
370
    35
100
AcDbLine
 10
504.910861
 20
316.2
 30
0.0
 11
508.281165
 21
316.2
 31
0.0
  0
LINE
  5
606
330
4FC
100
AcDbEntity
  8
LC-001-002-----0
 62
     7
370
    35
100
AcDbLine
 10
504.9240259999999
 20
316.3
 30
0.0
 11
508.267999
 21
316.3
 31
0.0
  0
LINE
  5
607
330
4FC
100
AcDbEntity
  8
LC-001-002-----0
 62
     7
370
    35
100
AcDbLine
 10
504.937191
 20
316.4
 30
0.0
 11
508.2548339999999
 21
316.4
 31
0.0
  0
LINE
  5
608
330
4FC
100
AcDbEntity
  8
LC-001-002-----0
 62
     7
370
    35
100
AcDbLine
 10
504.950357
 20
316.5
 30
0.0
 11
508.241669
 21
316.5
 31
0.0
  0
LINE
  5
609
330
4FC
100
AcDbEntity
  8
LC-001-002-----0
 62
     7
370
    35
100
AcDbLine
 10
504.9635219999999
 20
316.6
 30
0.0
 11
508.228504
 21
316.6
 31
0.0
  0
LINE
  5
60A
330
4FC
100
AcDbEntity
  8
LC-001-002-----0
 62
     7
370
    35
100
AcDbLine
 10
504.976687
 20
316.7
 30
0.0
 11
508.215338
 21
316.7
 31
0.0
  0
LINE
  5
60B
330
4FC
100
AcDbEntity
  8
LC-001-002-----0
 62
     7
370
    35
100
AcDbLine
 10
504.9898519999999
 20
316.8
 30
0.0
 11
508.2021730000001
 21
316.8
 31
0.0
  0
LINE
  5
60C
330
4FC
100
AcDbEntity
  8
LC-001-002-----0
 62
     7
370
    35
100
AcDbLine
 10
505.003018
 20
316.9
 30
0.0
 11
508.1890079999999
 21
316.9
 31
0.0
  0
LINE
  5
60D
330
4FC
100
AcDbEntity
  8
LC-001-002-----0
 62
     7
370
    35
100
AcDbLine
 10
505.016183
 20
317.0
 30
0.0
 11
508.1758429999999
 21
317.0
 31
0.0
  0
LINE
  5
60E
330
4FC
100
AcDbEntity
  8
LC-001-002-----0
 62
     7
370
    35
100
AcDbLine
 10
505.029348
 20
317.1
 30
0.0
 11
508.1626769999999
 21
317.1
 31
0.0
  0
LINE
  5
60F
330
4FC
100
AcDbEntity
  8
LC-001-002-----0
 62
     7
370
    35
100
AcDbLine
 10
505.0425129999999
 20
317.2
 30
0.0
 11
508.149512
 21
317.2
 31
0.0
  0
LINE
  5
610
330
4FC
100
AcDbEntity
  8
LC-001-002-----0
 62
     7
370
    35
100
AcDbLine
 10
505.0556789999999
 20
317.3
 30
0.0
 11
508.136347
 21
317.3
 31
0.0
  0
LINE
  5
611
330
4FC
100
AcDbEntity
  8
LC-001-002-----0
 62
     7
370
    35
100
AcDbLine
 10
505.068844
 20
317.4
 30
0.0
 11
508.123182
 21
317.4
 31
0.0
  0
LINE
  5
612
330
4FC
100
AcDbEntity
  8
LC-001-002-----0
 62
     7
370
    35
100
AcDbLine
 10
505.082009
 20
317.5
 30
0.0
 11
508.110016
 21
317.5
 31
0.0
  0
LINE
  5
613
330
4FC
100
AcDbEntity
  8
LC-001-002-----0
 62
     7
370
    35
100
AcDbLine
 10
505.095174
 20
317.6
 30
0.0
 11
508.0968509999999
 21
317.6
 31
0.0
  0
LINE
  5
614
330
4FC
100
AcDbEntity
  8
LC-001-002-----0
 62
     7
370
    35
100
AcDbLine
 10
505.1083389999999
 20
317.7
 30
0.0
 11
508.083686
 21
317.7
 31
0.0
  0
LINE
  5
615
330
4FC
100
AcDbEntity
  8
LC-001-002-----0
 62
     7
370
    35
100
AcDbLine
 10
505.1215049999999
 20
317.8
 30
0.0
 11
508.0705209999999
 21
317.8
 31
0.0
  0
LINE
  5
616
330
4FC
100
AcDbEntity
  8
LC-001-002-----0
 62
     7
370
    35
100
AcDbLine
 10
505.13467
 20
317.9
 30
0.0
 11
508.0573549999999
 21
317.9
 31
0.0
  0
LINE
  5
617
330
4FC
100
AcDbEntity
  8
LC-001-002-----0
 62
     7
370
    35
100
AcDbLine
 10
505.147835
 20
318.0
 30
0.0
 11
508.04419
 21
318.0
 31
0.0
  0
LINE
  5
618
330
4FC
100
AcDbEntity
  8
LC-001-002-----0
 62
     7
370
    35
100
AcDbLine
 10
505.161
 20
318.1
 30
0.0
 11
508.031025
 21
318.1
 31
0.0
  0
LINE
  5
619
330
4FC
100
AcDbEntity
  8
LC-001-002-----0
 62
     7
370
    35
100
AcDbLine
 10
505.174166
 20
318.2
 30
0.0
 11
508.0178599999999
 21
318.2
 31
0.0
  0
LINE
  5
61A
330
4FC
100
AcDbEntity
  8
LC-001-002-----0
 62
     7
370
    35
100
AcDbLine
 10
505.1873309999999
 20
318.3
 30
0.0
 11
508.004694
 21
318.3
 31
0.0
  0
LINE
  5
61B
330
4FC
100
AcDbEntity
  8
LC-001-002-----0
 62
     7
370
    35
100
AcDbLine
 10
505.2004959999999
 20
318.4
 30
0.0
 11
507.991529
 21
318.4
 31
0.0
  0
LINE
  5
61C
330
4FC
100
AcDbEntity
  8
LC-001-002-----0
 62
     7
370
    35
100
AcDbLine
 10
505.213661
 20
318.5
 30
0.0
 11
507.9783639999999
 21
318.5
 31
0.0
  0
LINE
  5
61D
330
4FC
100
AcDbEntity
  8
LC-001-002-----0
 62
     7
370
    35
100
AcDbLine
 10
505.2268269999999
 20
318.6
 30
0.0
 11
507.965199
 21
318.6
 31
0.0
  0
LINE
  5
61E
330
4FC
100
AcDbEntity
  8
LC-001-002-----0
 62
     7
370
    35
100
AcDbLine
 10
505.239992
 20
318.7
 30
0.0
 11
507.952033
 21
318.7
 31
0.0
  0
LINE
  5
61F
330
4FC
100
AcDbEntity
  8
LC-001-002-----0
 62
     7
370
    35
100
AcDbLine
 10
505.253157
 20
318.8
 30
0.0
 11
507.938868
 21
318.8
 31
0.0
  0
LINE
  5
620
330
4FC
100
AcDbEntity
  8
LC-001-002-----0
 62
     7
370
    35
100
AcDbLine
 10
505.2663219999999
 20
318.9
 30
0.0
 11
507.9257029999999
 21
318.9
 31
0.0
  0
LINE
  5
621
330
4FC
100
AcDbEntity
  8
LC-001-002-----0
 62
     7
370
    35
100
AcDbLine
 10
505.279488
 20
319.0
 30
0.0
 11
507.9125379999999
 21
319.0
 31
0.0
  0
LINE
  5
622
330
4FC
100
AcDbEntity
  8
LC-001-002-----0
 62
     7
370
    35
100
AcDbLine
 10
505.292653
 20
319.1
 30
0.0
 11
507.8993719999999
 21
319.1
 31
0.0
  0
LINE
  5
623
330
4FC
100
AcDbEntity
  8
LC-001-002-----0
 62
     7
370
    35
100
AcDbLine
 10
505.3058179999999
 20
319.2
 30
0.0
 11
507.886207
 21
319.2
 31
0.0
  0
LINE
  5
624
330
4FC
100
AcDbEntity
  8
LC-001-002-----0
 62
     7
370
    35
100
AcDbLine
 10
505.3189829999999
 20
319.3
 30
0.0
 11
507.873042
 21
319.3
 31
0.0
  0
LINE
  5
625
330
4FC
100
AcDbEntity
  8
LC-001-002-----0
 62
     7
370
    35
100
AcDbLine
 10
505.332149
 20
319.4
 30
0.0
 11
507.859877
 21
319.4
 31
0.0
  0
LINE
  5
626
330
4FC
100
AcDbEntity
  8
LC-001-002-----0
 62
     7
370
    35
100
AcDbLine
 10
505.345314
 20
319.5
 30
0.0
 11
507.846711
 21
319.5
 31
0.0
  0
LINE
  5
627
330
4FC
100
AcDbEntity
  8
LC-001-002-----0
 62
     7
370
    35
100
AcDbLine
 10
505.358479
 20
319.6
 30
0.0
 11
507.8335459999999
 21
319.6
 31
0.0
  0
LINE
  5
628
330
4FC
100
AcDbEntity
  8
LC-001-002-----0
 62
     7
370
    35
100
AcDbLine
 10
505.371644
 20
319.7
 30
0.0
 11
507.8203809999999
 21
319.7
 31
0.0
  0
LINE
  5
629
330
4FC
100
AcDbEntity
  8
LC-001-002-----0
 62
     7
370
    35
100
AcDbLine
 10
505.3848099999999
 20
319.8
 30
0.0
 11
507.807216
 21
319.8
 31
0.0
  0
LINE
  5
62A
330
4FC
100
AcDbEntity
  8
LC-001-002-----0
 62
     7
370
    35
100
AcDbLine
 10
505.3979749999999
 20
319.9
 30
0.0
 11
507.79405
 21
319.9
 31
0.0
  0
LINE
  5
62B
330
4FC
100
AcDbEntity
  8
LC-001-002-----0
 62
     7
370
    35
100
AcDbLine
 10
505.41114
 20
320.0
 30
0.0
 11
507.7808849999999
 21
320.0
 31
0.0
  0
LINE
  5
62C
330
4FC
100
AcDbEntity
  8
LC-001-002-----0
 62
     7
370
    35
100
AcDbLine
 10
505.424305
 20
320.1
 30
0.0
 11
507.76772
 21
320.1
 31
0.0
  0
LINE
  5
62D
330
4FC
100
AcDbEntity
  8
LC-001-002-----0
 62
     7
370
    35
100
AcDbLine
 10
505.437471
 20
320.2
 30
0.0
 11
507.7545549999999
 21
320.2
 31
0.0
  0
LINE
  5
62E
330
4FC
100
AcDbEntity
  8
LC-001-002-----0
 62
     7
370
    35
100
AcDbLine
 10
505.450636
 20
320.3
 30
0.0
 11
507.7413889999999
 21
320.3
 31
0.0
  0
LINE
  5
62F
330
4FC
100
AcDbEntity
  8
LC-001-002-----0
 62
     7
370
    35
100
AcDbLine
 10
505.4638009999999
 20
320.4
 30
0.0
 11
507.728224
 21
320.4
 31
0.0
  0
LINE
  5
630
330
4FC
100
AcDbEntity
  8
LC-001-002-----0
 62
     7
370
    35
100
AcDbLine
 10
505.4769659999999
 20
320.5
 30
0.0
 11
507.715059
 21
320.5
 31
0.0
  0
LINE
  5
631
330
4FC
100
AcDbEntity
  8
LC-001-002-----0
 62
     7
370
    35
100
AcDbLine
 10
505.4901319999999
 20
320.6
 30
0.0
 11
507.701894
 21
320.6
 31
0.0
  0
LINE
  5
632
330
4FC
100
AcDbEntity
  8
LC-001-002-----0
 62
     7
370
    35
100
AcDbLine
 10
505.503297
 20
320.7
 30
0.0
 11
507.688728
 21
320.7
 31
0.0
  0
LINE
  5
633
330
4FC
100
AcDbEntity
  8
LC-001-002-----0
 62
     7
370
    35
100
AcDbLine
 10
505.516462
 20
320.8
 30
0.0
 11
507.675563
 21
320.8
 31
0.0
  0
LINE
  5
634
330
4FC
100
AcDbEntity
  8
LC-001-002-----0
 62
     7
370
    35
100
AcDbLine
 10
505.5296269999999
 20
320.9
 30
0.0
 11
507.662398
 21
320.9
 31
0.0
  0
LINE
  5
635
330
4FC
100
AcDbEntity
  8
LC-001-002-----0
 62
     7
370
    35
100
AcDbLine
 10
505.5427929999999
 20
321.0
 30
0.0
 11
507.6492329999999
 21
321.0
 31
0.0
  0
LINE
  5
636
330
4FC
100
AcDbEntity
  8
LC-001-002-----0
 62
     7
370
    35
100
AcDbLine
 10
505.555958
 20
321.1
 30
0.0
 11
507.6360669999999
 21
321.1
 31
0.0
  0
LINE
  5
637
330
4FC
100
AcDbEntity
  8
LC-001-002-----0
 62
     7
370
    35
100
AcDbLine
 10
505.569123
 20
321.2
 30
0.0
 11
507.6229019999999
 21
321.2
 31
0.0
  0
LINE
  5
638
330
4FC
100
AcDbEntity
  8
LC-001-002-----0
 62
     7
370
    35
100
AcDbLine
 10
505.582288
 20
321.3
 30
0.0
 11
507.609737
 21
321.3
 31
0.0
  0
LINE
  5
639
330
4FC
100
AcDbEntity
  8
LC-001-002-----0
 62
     7
370
    35
100
AcDbLine
 10
505.595454
 20
321.4
 30
0.0
 11
507.596572
 21
321.4
 31
0.0
  0
LINE
  5
63A
330
4FC
100
AcDbEntity
  8
LC-001-002-----0
 62
     7
370
    35
100
AcDbLine
 10
505.608619
 20
321.5
 30
0.0
 11
507.583406
 21
321.5
 31
0.0
  0
LINE
  5
63B
330
4FC
100
AcDbEntity
  8
LC-001-002-----0
 62
     7
370
    35
100
AcDbLine
 10
505.621784
 20
321.6
 30
0.0
 11
507.5702409999999
 21
321.6
 31
0.0
  0
LINE
  5
63C
330
4FC
100
AcDbEntity
  8
LC-001-002-----0
 62
     7
370
    35
100
AcDbLine
 10
505.634949
 20
321.7
 30
0.0
 11
507.5570759999999
 21
321.7
 31
0.0
  0
LINE
  5
63D
330
4FC
100
AcDbEntity
  8
LC-001-002-----0
 62
     7
370
    35
100
AcDbLine
 10
505.648115
 20
321.8
 30
0.0
 11
507.543911
 21
321.8
 31
0.0
  0
LINE
  5
63E
330
4FC
100
AcDbEntity
  8
LC-001-002-----0
 62
     7
370
    35
100
AcDbLine
 10
505.6612799999999
 20
321.9
 30
0.0
 11
507.530745
 21
321.9
 31
0.0
  0
LINE
  5
63F
330
4FC
100
AcDbEntity
  8
LC-001-002-----0
 62
     7
370
    35
100
AcDbLine
 10
505.674445
 20
322.0
 30
0.0
 11
507.51758
 21
322.0
 31
0.0
  0
LINE
  5
640
330
4FC
100
AcDbEntity
  8
LC-001-002-----0
 62
     7
370
    35
100
AcDbLine
 10
505.6876099999999
 20
322.1
 30
0.0
 11
507.504415
 21
322.1
 31
0.0
  0
LINE
  5
641
330
4FC
100
AcDbEntity
  8
LC-001-002-----0
 62
     7
370
    35
100
AcDbLine
 10
505.7007759999999
 20
322.2
 30
0.0
 11
507.4912499999999
 21
322.2
 31
0.0
  0
LINE
  5
642
330
4FC
100
AcDbEntity
  8
LC-001-002-----0
 62
     7
370
    35
100
AcDbLine
 10
505.713941
 20
322.3
 30
0.0
 11
507.4780839999999
 21
322.3
 31
0.0
  0
LINE
  5
643
330
4FC
100
AcDbEntity
  8
LC-001-002-----0
 62
     7
370
    35
100
AcDbLine
 10
505.7271059999999
 20
322.4
 30
0.0
 11
507.464919
 21
322.4
 31
0.0
  0
LINE
  5
644
330
4FC
100
AcDbEntity
  8
LC-001-002-----0
 62
     7
370
    35
100
AcDbLine
 10
505.7402709999999
 20
322.5
 30
0.0
 11
507.451754
 21
322.5
 31
0.0
  0
LINE
  5
645
330
4FC
100
AcDbEntity
  8
LC-001-002-----0
 62
     7
370
    35
100
AcDbLine
 10
505.7534369999999
 20
322.6
 30
0.0
 11
507.438589
 21
322.6
 31
0.0
  0
LINE
  5
646
330
4FC
100
AcDbEntity
  8
LC-001-002-----0
 62
     7
370
    35
100
AcDbLine
 10
505.766602
 20
322.7
 30
0.0
 11
507.425423
 21
322.7
 31
0.0
  0
LINE
  5
647
330
4FC
100
AcDbEntity
  8
LC-001-002-----0
 62
     7
370
    35
100
AcDbLine
 10
505.779767
 20
322.8
 30
0.0
 11
507.412258
 21
322.8
 31
0.0
  0
LINE
  5
648
330
4FC
100
AcDbEntity
  8
LC-001-002-----0
 62
     7
370
    35
100
AcDbLine
 10
505.792932
 20
322.9
 30
0.0
 11
507.3990929999999
 21
322.9
 31
0.0
  0
LINE
  5
649
330
4FC
100
AcDbEntity
  8
LC-001-002-----0
 62
     7
370
    35
100
AcDbLine
 10
505.806098
 20
323.0
 30
0.0
 11
507.385928
 21
323.0
 31
0.0
  0
LINE
  5
64A
330
4FC
100
AcDbEntity
  8
LC-001-002-----0
 62
     7
370
    35
100
AcDbLine
 10
505.8192629999999
 20
323.1
 30
0.0
 11
507.372762
 21
323.1
 31
0.0
  0
LINE
  5
64B
330
4FC
100
AcDbEntity
  8
LC-001-002-----0
 62
     7
370
    35
100
AcDbLine
 10
505.832428
 20
323.2
 30
0.0
 11
507.3595969999999
 21
323.2
 31
0.0
  0
LINE
  5
64C
330
4FC
100
AcDbEntity
  8
LC-001-002-----0
 62
     7
370
    35
100
AcDbLine
 10
505.845593
 20
323.3
 30
0.0
 11
507.346432
 21
323.3
 31
0.0
  0
LINE
  5
64D
330
4FC
100
AcDbEntity
  8
LC-001-002-----0
 62
     7
370
    35
100
AcDbLine
 10
505.858759
 20
323.4
 30
0.0
 11
507.333267
 21
323.4
 31
0.0
  0
LINE
  5
64E
330
4FC
100
AcDbEntity
  8
LC-001-002-----0
 62
     7
370
    35
100
AcDbLine
 10
505.871924
 20
323.5
 30
0.0
 11
507.320101
 21
323.5
 31
0.0
  0
LINE
  5
64F
330
4FC
100
AcDbEntity
  8
LC-001-002-----0
 62
     7
370
    35
100
AcDbLine
 10
505.885089
 20
323.6
 30
0.0
 11
507.3069359999999
 21
323.6
 31
0.0
  0
LINE
  5
650
330
4FC
100
AcDbEntity
  8
LC-001-002-----0
 62
     7
370
    35
100
AcDbLine
 10
505.898254
 20
323.7
 30
0.0
 11
507.2937709999999
 21
323.7
 31
0.0
  0
LINE
  5
651
330
4FC
100
AcDbEntity
  8
LC-001-002-----0
 62
     7
370
    35
100
AcDbLine
 10
505.91142
 20
323.8
 30
0.0
 11
507.2806059999999
 21
323.8
 31
0.0
  0
LINE
  5
652
330
4FC
100
AcDbEntity
  8
LC-001-002-----0
 62
     7
370
    35
100
AcDbLine
 10
505.9245849999999
 20
323.9
 30
0.0
 11
507.26744
 21
323.9
 31
0.0
  0
LINE
  5
653
330
4FC
100
AcDbEntity
  8
LC-001-002-----0
 62
     7
370
    35
100
AcDbLine
 10
505.93775
 20
324.0
 30
0.0
 11
507.254275
 21
324.0
 31
0.0
  0
LINE
  5
654
330
4FC
100
AcDbEntity
  8
LC-001-002-----0
 62
     7
370
    35
100
AcDbLine
 10
505.950915
 20
324.1
 30
0.0
 11
507.2411099999999
 21
324.1
 31
0.0
  0
LINE
  5
655
330
4FC
100
AcDbEntity
  8
LC-001-002-----0
 62
     7
370
    35
100
AcDbLine
 10
505.9640809999999
 20
324.2
 30
0.0
 11
507.227945
 21
324.2
 31
0.0
  0
LINE
  5
656
330
4FC
100
AcDbEntity
  8
LC-001-002-----0
 62
     7
370
    35
100
AcDbLine
 10
505.9772459999999
 20
324.3
 30
0.0
 11
507.214779
 21
324.3
 31
0.0
  0
LINE
  5
657
330
4FC
100
AcDbEntity
  8
LC-001-002-----0
 62
     7
370
    35
100
AcDbLine
 10
505.990411
 20
324.4
 30
0.0
 11
507.2016139999999
 21
324.4
 31
0.0
  0
LINE
  5
658
330
4FC
100
AcDbEntity
  8
LC-001-002-----0
 62
     7
370
    35
100
AcDbLine
 10
506.0035759999999
 20
324.5
 30
0.0
 11
507.188449
 21
324.5
 31
0.0
  0
LINE
  5
659
330
4FC
100
AcDbEntity
  8
LC-001-002-----0
 62
     7
370
    35
100
AcDbLine
 10
506.0167419999999
 20
324.6
 30
0.0
 11
507.175284
 21
324.6
 31
0.0
  0
LINE
  5
65A
330
4FC
100
AcDbEntity
  8
LC-001-002-----0
 62
     7
370
    35
100
AcDbLine
 10
506.029907
 20
324.7
 30
0.0
 11
507.162118
 21
324.7
 31
0.0
  0
LINE
  5
65B
330
4FC
100
AcDbEntity
  8
LC-001-002-----0
 62
     7
370
    35
100
AcDbLine
 10
506.043072
 20
324.8
 30
0.0
 11
507.148953
 21
324.8
 31
0.0
  0
LINE
  5
65C
330
4FC
100
AcDbEntity
  8
LC-001-002-----0
 62
     7
370
    35
100
AcDbLine
 10
506.056237
 20
324.9
 30
0.0
 11
507.1357879999999
 21
324.9
 31
0.0
  0
LINE
  5
65D
330
4FC
100
AcDbEntity
  8
LC-001-002-----0
 62
     7
370
    35
100
AcDbLine
 10
506.069403
 20
325.0
 30
0.0
 11
507.122623
 21
325.0
 31
0.0
  0
LINE
  5
65E
330
4FC
100
AcDbEntity
  8
LC-001-002-----0
 62
     7
370
    35
100
AcDbLine
 10
506.0825679999999
 20
325.1
 30
0.0
 11
507.109457
 21
325.1
 31
0.0
  0
LINE
  5
65F
330
4FC
100
AcDbEntity
  8
LC-001-002-----0
 62
     7
370
    35
100
AcDbLine
 10
506.0957329999999
 20
325.2
 30
0.0
 11
507.096292
 21
325.2
 31
0.0
  0
LINE
  5
660
330
4FC
100
AcDbEntity
  8
LC-001-002-----0
 62
     7
370
    35
100
AcDbLine
 10
506.108898
 20
325.3
 30
0.0
 11
507.0831269999999
 21
325.3
 31
0.0
  0
LINE
  5
661
330
4FC
100
AcDbEntity
  8
LC-001-002-----0
 62
     7
370
    35
100
AcDbLine
 10
506.122064
 20
325.4
 30
0.0
 11
507.069962
 21
325.4
 31
0.0
  0
LINE
  5
662
330
4FC
100
AcDbEntity
  8
LC-001-002-----0
 62
     7
370
    35
100
AcDbLine
 10
506.135229
 20
325.5
 30
0.0
 11
507.0567959999999
 21
325.5
 31
0.0
  0
LINE
  5
663
330
4FC
100
AcDbEntity
  8
LC-001-002-----0
 62
     7
370
    35
100
AcDbLine
 10
506.148394
 20
325.6
 30
0.0
 11
507.0436309999999
 21
325.6
 31
0.0
  0
LINE
  5
664
330
4FC
100
AcDbEntity
  8
LC-001-002-----0
 62
     7
370
    35
100
AcDbLine
 10
506.161559
 20
325.7
 30
0.0
 11
507.0304659999999
 21
325.7
 31
0.0
  0
LINE
  5
665
330
4FC
100
AcDbEntity
  8
LC-001-002-----0
 62
     7
370
    35
100
AcDbLine
 10
506.174725
 20
325.8
 30
0.0
 11
507.0173009999999
 21
325.8
 31
0.0
  0
LINE
  5
666
330
4FC
100
AcDbEntity
  8
LC-001-002-----0
 62
     7
370
    35
100
AcDbLine
 10
506.18789
 20
325.9
 30
0.0
 11
507.0041349999999
 21
325.9
 31
0.0
  0
LINE
  5
667
330
4FC
100
AcDbEntity
  8
LC-001-002-----0
 62
     7
370
    35
100
AcDbLine
 10
506.201055
 20
326.0
 30
0.0
 11
506.99097
 21
326.0
 31
0.0
  0
LINE
  5
668
330
4FC
100
AcDbEntity
  8
LC-001-002-----0
 62
     7
370
    35
100
AcDbLine
 10
506.21422
 20
326.1
 30
0.0
 11
506.977805
 21
326.1
 31
0.0
  0
LINE
  5
669
330
4FC
100
AcDbEntity
  8
LC-001-002-----0
 62
     7
370
    35
100
AcDbLine
 10
506.227386
 20
326.2
 30
0.0
 11
506.96464
 21
326.2
 31
0.0
  0
LINE
  5
66A
330
4FC
100
AcDbEntity
  8
LC-001-002-----0
 62
     7
370
    35
100
AcDbLine
 10
506.2405509999999
 20
326.3
 30
0.0
 11
506.951474
 21
326.3
 31
0.0
  0
LINE
  5
66B
330
4FC
100
AcDbEntity
  8
LC-001-002-----0
 62
     7
370
    35
100
AcDbLine
 10
506.2537159999999
 20
326.4
 30
0.0
 11
506.938309
 21
326.4
 31
0.0
  0
LINE
  5
66C
330
4FC
100
AcDbEntity
  8
LC-001-002-----0
 62
     7
370
    35
100
AcDbLine
 10
506.2668809999999
 20
326.5
 30
0.0
 11
506.925144
 21
326.5
 31
0.0
  0
LINE
  5
66D
330
4FC
100
AcDbEntity
  8
LC-001-002-----0
 62
     7
370
    35
100
AcDbLine
 10
506.2800469999999
 20
326.6
 30
0.0
 11
506.911979
 21
326.6
 31
0.0
  0
LINE
  5
66E
330
4FC
100
AcDbEntity
  8
LC-001-002-----0
 62
     7
370
    35
100
AcDbLine
 10
506.293212
 20
326.7
 30
0.0
 11
506.898813
 21
326.7
 31
0.0
  0
LINE
  5
66F
330
4FC
100
AcDbEntity
  8
LC-001-002-----0
 62
     7
370
    35
100
AcDbLine
 10
506.3063769999999
 20
326.8
 30
0.0
 11
506.885648
 21
326.8
 31
0.0
  0
LINE
  5
670
330
4FC
100
AcDbEntity
  8
LC-001-002-----0
 62
     7
370
    35
100
AcDbLine
 10
506.319542
 20
326.9
 30
0.0
 11
506.8724829999999
 21
326.9
 31
0.0
  0
LINE
  5
671
330
4FC
100
AcDbEntity
  8
LC-001-002-----0
 62
     7
370
    35
100
AcDbLine
 10
506.332708
 20
327.0
 30
0.0
 11
506.8593179999999
 21
327.0
 31
0.0
  0
LINE
  5
672
330
4FC
100
AcDbEntity
  8
LC-001-002-----0
 62
     7
370
    35
100
AcDbLine
 10
506.345873
 20
327.1
 30
0.0
 11
506.8461519999999
 21
327.1
 31
0.0
  0
LINE
  5
673
330
4FC
100
AcDbEntity
  8
LC-001-002-----0
 62
     7
370
    35
100
AcDbLine
 10
506.3590379999999
 20
327.2
 30
0.0
 11
506.832987
 21
327.2
 31
0.0
  0
LINE
  5
674
330
4FC
100
AcDbEntity
  8
LC-001-002-----0
 62
     7
370
    35
100
AcDbLine
 10
506.372203
 20
327.3
 30
0.0
 11
506.819822
 21
327.3
 31
0.0
  0
LINE
  5
675
330
4FC
100
AcDbEntity
  8
LC-001-002-----0
 62
     7
370
    35
100
AcDbLine
 10
506.385369
 20
327.4
 30
0.0
 11
506.806657
 21
327.4
 31
0.0
  0
LINE
  5
676
330
4FC
100
AcDbEntity
  8
LC-001-002-----0
 62
     7
370
    35
100
AcDbLine
 10
506.398534
 20
327.5
 30
0.0
 11
506.7934909999999
 21
327.5
 31
0.0
  0
LINE
  5
677
330
4FC
100
AcDbEntity
  8
LC-001-002-----0
 62
     7
370
    35
100
AcDbLine
 10
506.411699
 20
327.6
 30
0.0
 11
506.7803259999999
 21
327.6
 31
0.0
  0
LINE
  5
678
330
4FC
100
AcDbEntity
  8
LC-001-002-----0
 62
     7
370
    35
100
AcDbLine
 10
506.4248639999999
 20
327.7
 30
0.0
 11
506.767161
 21
327.7
 31
0.0
  0
LINE
  5
679
330
4FC
100
AcDbEntity
  8
LC-001-002-----0
 62
     7
370
    35
100
AcDbLine
 10
506.4380299999999
 20
327.8
 30
0.0
 11
506.7539959999999
 21
327.8
 31
0.0
  0
LINE
  5
67A
330
4FC
100
AcDbEntity
  8
LC-001-002-----0
 62
     7
370
    35
100
AcDbLine
 10
506.451195
 20
327.9
 30
0.0
 11
506.7408299999999
 21
327.9
 31
0.0
  0
LINE
  5
67B
330
4FC
100
AcDbEntity
  8
LC-001-002-----0
 62
     7
370
    35
100
AcDbLine
 10
506.4643599999999
 20
328.0
 30
0.0
 11
506.7276650000001
 21
328.0
 31
0.0
  0
LINE
  5
67C
330
4FC
100
AcDbEntity
  8
LC-001-002-----0
 62
     7
370
    35
100
AcDbLine
 10
506.477525
 20
328.1
 30
0.0
 11
506.7145
 21
328.1
 31
0.0
  0
LINE
  5
67D
330
4FC
100
AcDbEntity
  8
LC-001-002-----0
 62
     7
370
    35
100
AcDbLine
 10
506.490691
 20
328.2
 30
0.0
 11
506.7013349999999
 21
328.2
 31
0.0
  0
LINE
  5
67E
330
4FC
100
AcDbEntity
  8
LC-001-002-----0
 62
     7
370
    35
100
AcDbLine
 10
506.5038559999999
 20
328.3
 30
0.0
 11
506.688169
 21
328.3
 31
0.0
  0
LINE
  5
67F
330
4FC
100
AcDbEntity
  8
LC-001-002-----0
 62
     7
370
    35
100
AcDbLine
 10
506.5170209999999
 20
328.4
 30
0.0
 11
506.675004
 21
328.4
 31
0.0
  0
LINE
  5
680
330
4FC
100
AcDbEntity
  8
LC-001-002-----0
 62
     7
370
    35
100
AcDbLine
 10
506.5301859999999
 20
328.5
 30
0.0
 11
506.661839
 21
328.5
 31
0.0
  0
LINE
  5
681
330
4FC
100
AcDbEntity
  8
LC-001-002-----0
 62
     7
370
    35
100
AcDbLine
 10
506.543352
 20
328.6
 30
0.0
 11
506.648674
 21
328.6
 31
0.0
  0
LINE
  5
682
330
4FC
100
AcDbEntity
  8
LC-001-002-----0
 62
     7
370
    35
100
AcDbLine
 10
506.556517
 20
328.7
 30
0.0
 11
506.635508
 21
328.7
 31
0.0
  0
LINE
  5
683
330
4FC
100
AcDbEntity
  8
LC-001-002-----0
 62
     7
370
    35
100
AcDbLine
 10
506.569682
 20
328.8
 30
0.0
 11
506.6223429999999
 21
328.8
 31
0.0
  0
LINE
  5
684
330
4FC
100
AcDbEntity
  8
LC-001-002-----0
 62
     7
370
    35
100
AcDbLine
 10
506.5828469999999
 20
328.9
 30
0.0
 11
506.609178
 21
328.9
 31
0.0
  0
ENDBLK
  5
4FE
330
4FC
100
AcDbEntity
  8
0
100
AcDbBlockEnd
  0
BLOCK
  5
687
330
686
100
AcDbEntity
  8
0
100
AcDbBlockBegin
  2
*X23
 70
     1
 10
0.0
 20
0.0
 30
0.0
  3
*X23
  1

  4
*X9
  0
LINE
  5
689
330
686
100
AcDbEntity
  8
LC-001-002-----0
 62
     7
370
    35
100
AcDbLine
 10
566.5874579999999
 20
224.9
 30
0.0
 11
566.857667
 21
224.9
 31
0.0
  0
LINE
  5
68A
330
686
100
AcDbEntity
  8
LC-001-002-----0
 62
     7
370
    35
100
AcDbLine
 10
566.5874579999999
 20
225.0
 30
0.0
 11
567.617242
 21
225.0
 31
0.0
  0
LINE
  5
68B
330
686
100
AcDbEntity
  8
LC-001-002-----0
 62
     7
370
    35
100
AcDbLine
 10
566.5874579999999
 20
225.1
 30
0.0
 11
568.3768169999999
 21
225.1
 31
0.0
  0
LINE
  5
68C
330
686
100
AcDbEntity
  8
LC-001-002-----0
 62
     7
370
    35
100
AcDbLine
 10
566.5874579999999
 20
225.2
 30
0.0
 11
569.136393
 21
225.2
 31
0.0
  0
LINE
  5
68D
330
686
100
AcDbEntity
  8
LC-001-002-----0
 62
     7
370
    35
100
AcDbLine
 10
566.5874579999999
 20
225.3
 30
0.0
 11
569.8959679999999
 21
225.3
 31
0.0
  0
LINE
  5
68E
330
686
100
AcDbEntity
  8
LC-001-002-----0
 62
     7
370
    35
100
AcDbLine
 10
566.5874579999999
 20
225.4
 30
0.0
 11
570.655544
 21
225.4
 31
0.0
  0
LINE
  5
68F
330
686
100
AcDbEntity
  8
LC-001-002-----0
 62
     7
370
    35
100
AcDbLine
 10
566.5874579999999
 20
225.5
 30
0.0
 11
571.4151189999999
 21
225.5
 31
0.0
  0
LINE
  5
690
330
686
100
AcDbEntity
  8
LC-001-002-----0
 62
     7
370
    35
100
AcDbLine
 10
566.5874579999999
 20
225.6
 30
0.0
 11
572.174694
 21
225.6
 31
0.0
  0
LINE
  5
691
330
686
100
AcDbEntity
  8
LC-001-002-----0
 62
     7
370
    35
100
AcDbLine
 10
566.5874579999999
 20
225.7
 30
0.0
 11
572.93427
 21
225.7
 31
0.0
  0
LINE
  5
692
330
686
100
AcDbEntity
  8
LC-001-002-----0
 62
     7
370
    35
100
AcDbLine
 10
566.5874579999999
 20
225.8
 30
0.0
 11
573.693845
 21
225.8
 31
0.0
  0
LINE
  5
693
330
686
100
AcDbEntity
  8
LC-001-002-----0
 62
     7
370
    35
100
AcDbLine
 10
566.5874579999999
 20
225.9
 30
0.0
 11
574.453421
 21
225.9
 31
0.0
  0
LINE
  5
694
330
686
100
AcDbEntity
  8
LC-001-002-----0
 62
     7
370
    35
100
AcDbLine
 10
566.5874579999999
 20
226.0
 30
0.0
 11
575.2129959999999
 21
226.0
 31
0.0
  0
LINE
  5
695
330
686
100
AcDbEntity
  8
LC-001-002-----0
 62
     7
370
    35
100
AcDbLine
 10
566.5874579999999
 20
226.1
 30
0.0
 11
575.972571
 21
226.1
 31
0.0
  0
LINE
  5
696
330
686
100
AcDbEntity
  8
LC-001-002-----0
 62
     7
370
    35
100
AcDbLine
 10
566.5874579999999
 20
226.2
 30
0.0
 11
576.7321469999999
 21
226.2
 31
0.0
  0
LINE
  5
697
330
686
100
AcDbEntity
  8
LC-001-002-----0
 62
     7
370
    35
100
AcDbLine
 10
566.5874579999999
 20
226.3
 30
0.0
 11
577.4917219999999
 21
226.3
 31
0.0
  0
LINE
  5
698
330
686
100
AcDbEntity
  8
LC-001-002-----0
 62
     7
370
    35
100
AcDbLine
 10
566.5874579999999
 20
226.4
 30
0.0
 11
578.2512979999999
 21
226.4
 31
0.0
  0
LINE
  5
699
330
686
100
AcDbEntity
  8
LC-001-002-----0
 62
     7
370
    35
100
AcDbLine
 10
566.5874579999999
 20
226.5
 30
0.0
 11
579.010873
 21
226.5
 31
0.0
  0
LINE
  5
69A
330
686
100
AcDbEntity
  8
LC-001-002-----0
 62
     7
370
    35
100
AcDbLine
 10
566.5874579999999
 20
226.6
 30
0.0
 11
579.770449
 21
226.6
 31
0.0
  0
LINE
  5
69B
330
686
100
AcDbEntity
  8
LC-001-002-----0
 62
     7
370
    35
100
AcDbLine
 10
566.5874579999999
 20
226.7
 30
0.0
 11
580.530024
 21
226.7
 31
0.0
  0
LINE
  5
69C
330
686
100
AcDbEntity
  8
LC-001-002-----0
 62
     7
370
    35
100
AcDbLine
 10
566.5874579999999
 20
226.8
 30
0.0
 11
581.289599
 21
226.8
 31
0.0
  0
LINE
  5
69D
330
686
100
AcDbEntity
  8
LC-001-002-----0
 62
     7
370
    35
100
AcDbLine
 10
566.5874579999999
 20
226.9
 30
0.0
 11
582.049175
 21
226.9
 31
0.0
  0
LINE
  5
69E
330
686
100
AcDbEntity
  8
LC-001-002-----0
 62
     7
370
    35
100
AcDbLine
 10
566.5874579999999
 20
227.0
 30
0.0
 11
582.80875
 21
227.0
 31
0.0
  0
LINE
  5
69F
330
686
100
AcDbEntity
  8
LC-001-002-----0
 62
     7
370
    35
100
AcDbLine
 10
566.5874579999999
 20
227.1
 30
0.0
 11
583.5683259999999
 21
227.1
 31
0.0
  0
LINE
  5
6A0
330
686
100
AcDbEntity
  8
LC-001-002-----0
 62
     7
370
    35
100
AcDbLine
 10
566.5874579999999
 20
227.2
 30
0.0
 11
584.3279009999999
 21
227.2
 31
0.0
  0
LINE
  5
6A1
330
686
100
AcDbEntity
  8
LC-001-002-----0
 62
     7
370
    35
100
AcDbLine
 10
566.5874579999999
 20
227.3
 30
0.0
 11
585.0874759999999
 21
227.3
 31
0.0
  0
LINE
  5
6A2
330
686
100
AcDbEntity
  8
LC-001-002-----0
 62
     7
370
    35
100
AcDbLine
 10
566.5874579999999
 20
227.4
 30
0.0
 11
585.847052
 21
227.4
 31
0.0
  0
LINE
  5
6A3
330
686
100
AcDbEntity
  8
LC-001-002-----0
 62
     7
370
    35
100
AcDbLine
 10
566.5874579999999
 20
227.5
 30
0.0
 11
586.606627
 21
227.5
 31
0.0
  0
LINE
  5
6A4
330
686
100
AcDbEntity
  8
LC-001-002-----0
 62
     7
370
    35
100
AcDbLine
 10
566.5874579999999
 20
227.6
 30
0.0
 11
587.366203
 21
227.6
 31
0.0
  0
LINE
  5
6A5
330
686
100
AcDbEntity
  8
LC-001-002-----0
 62
     7
370
    35
100
AcDbLine
 10
566.5874579999999
 20
227.7
 30
0.0
 11
588.1257780000001
 21
227.7
 31
0.0
  0
LINE
  5
6A6
330
686
100
AcDbEntity
  8
LC-001-002-----0
 62
     7
370
    35
100
AcDbLine
 10
566.5874579999999
 20
227.8
 30
0.0
 11
588.885353
 21
227.8
 31
0.0
  0
LINE
  5
6A7
330
686
100
AcDbEntity
  8
LC-001-002-----0
 62
     7
370
    35
100
AcDbLine
 10
566.5874579999999
 20
227.9
 30
0.0
 11
589.644929
 21
227.9
 31
0.0
  0
LINE
  5
6A8
330
686
100
AcDbEntity
  8
LC-001-002-----0
 62
     7
370
    35
100
AcDbLine
 10
566.5874579999999
 20
228.0
 30
0.0
 11
590.4045039999999
 21
228.0
 31
0.0
  0
LINE
  5
6A9
330
686
100
AcDbEntity
  8
LC-001-002-----0
 62
     7
370
    35
100
AcDbLine
 10
566.5874579999999
 20
228.1
 30
0.0
 11
591.1640799999999
 21
228.1
 31
0.0
  0
LINE
  5
6AA
330
686
100
AcDbEntity
  8
LC-001-002-----0
 62
     7
370
    35
100
AcDbLine
 10
566.5874579999999
 20
228.2
 30
0.0
 11
591.9236549999999
 21
228.2
 31
0.0
  0
LINE
  5
6AB
330
686
100
AcDbEntity
  8
LC-001-002-----0
 62
     7
370
    35
100
AcDbLine
 10
566.5874579999999
 20
228.3
 30
0.0
 11
592.6832309999999
 21
228.3
 31
0.0
  0
LINE
  5
6AC
330
686
100
AcDbEntity
  8
LC-001-002-----0
 62
     7
370
    35
100
AcDbLine
 10
566.5874579999999
 20
228.4
 30
0.0
 11
593.4428059999999
 21
228.4
 31
0.0
  0
LINE
  5
6AD
330
686
100
AcDbEntity
  8
LC-001-002-----0
 62
     7
370
    35
100
AcDbLine
 10
566.5874579999999
 20
228.5
 30
0.0
 11
594.2023809999999
 21
228.5
 31
0.0
  0
LINE
  5
6AE
330
686
100
AcDbEntity
  8
LC-001-002-----0
 62
     7
370
    35
100
AcDbLine
 10
566.5874579999999
 20
228.6
 30
0.0
 11
594.961957
 21
228.6
 31
0.0
  0
LINE
  5
6AF
330
686
100
AcDbEntity
  8
LC-001-002-----0
 62
     7
370
    35
100
AcDbLine
 10
566.5874579999999
 20
228.7
 30
0.0
 11
595.721532
 21
228.7
 31
0.0
  0
LINE
  5
6B0
330
686
100
AcDbEntity
  8
LC-001-002-----0
 62
     7
370
    35
100
AcDbLine
 10
566.5874579999999
 20
228.8
 30
0.0
 11
596.481108
 21
228.8
 31
0.0
  0
LINE
  5
6B1
330
686
100
AcDbEntity
  8
LC-001-002-----0
 62
     7
370
    35
100
AcDbLine
 10
566.5874579999999
 20
228.9
 30
0.0
 11
597.2406829999999
 21
228.9
 31
0.0
  0
LINE
  5
6B2
330
686
100
AcDbEntity
  8
LC-001-002-----0
 62
     7
370
    35
100
AcDbLine
 10
566.5874579999999
 20
229.0
 30
0.0
 11
598.000258
 21
229.0
 31
0.0
  0
LINE
  5
6B3
330
686
100
AcDbEntity
  8
LC-001-002-----0
 62
     7
370
    35
100
AcDbLine
 10
566.5874579999999
 20
229.1
 30
0.0
 11
598.7598339999999
 21
229.1
 31
0.0
  0
LINE
  5
6B4
330
686
100
AcDbEntity
  8
LC-001-002-----0
 62
     7
370
    35
100
AcDbLine
 10
566.5874579999999
 20
229.2
 30
0.0
 11
599.519409
 21
229.2
 31
0.0
  0
LINE
  5
6B5
330
686
100
AcDbEntity
  8
LC-001-002-----0
 62
     7
370
    35
100
AcDbLine
 10
566.5874579999999
 20
229.3
 30
0.0
 11
600.2789849999999
 21
229.3
 31
0.0
  0
LINE
  5
6B6
330
686
100
AcDbEntity
  8
LC-001-002-----0
 62
     7
370
    35
100
AcDbLine
 10
566.5874579999999
 20
229.4
 30
0.0
 11
601.0385599999999
 21
229.4
 31
0.0
  0
LINE
  5
6B7
330
686
100
AcDbEntity
  8
LC-001-002-----0
 62
     7
370
    35
100
AcDbLine
 10
566.5874579999999
 20
229.5
 30
0.0
 11
601.798135
 21
229.5
 31
0.0
  0
LINE
  5
6B8
330
686
100
AcDbEntity
  8
LC-001-002-----0
 62
     7
370
    35
100
AcDbLine
 10
566.5874579999999
 20
229.6
 30
0.0
 11
602.557711
 21
229.6
 31
0.0
  0
LINE
  5
6B9
330
686
100
AcDbEntity
  8
LC-001-002-----0
 62
     7
370
    35
100
AcDbLine
 10
566.5874579999999
 20
229.7
 30
0.0
 11
603.317286
 21
229.7
 31
0.0
  0
LINE
  5
6BA
330
686
100
AcDbEntity
  8
LC-001-002-----0
 62
     7
370
    35
100
AcDbLine
 10
566.5874579999999
 20
229.8
 30
0.0
 11
604.076862
 21
229.8
 31
0.0
  0
LINE
  5
6BB
330
686
100
AcDbEntity
  8
LC-001-002-----0
 62
     7
370
    35
100
AcDbLine
 10
566.5874579999999
 20
229.9
 30
0.0
 11
604.836437
 21
229.9
 31
0.0
  0
LINE
  5
6BC
330
686
100
AcDbEntity
  8
LC-001-002-----0
 62
     7
370
    35
100
AcDbLine
 10
566.5874579999999
 20
230.1
 30
0.0
 11
604.836438
 21
230.1
 31
0.0
  0
LINE
  5
6BD
330
686
100
AcDbEntity
  8
LC-001-002-----0
 62
     7
370
    35
100
AcDbLine
 10
566.5874579999999
 20
230.2
 30
0.0
 11
604.076862
 21
230.2
 31
0.0
  0
LINE
  5
6BE
330
686
100
AcDbEntity
  8
LC-001-002-----0
 62
     7
370
    35
100
AcDbLine
 10
566.5874579999999
 20
230.3
 30
0.0
 11
603.3172869999999
 21
230.3
 31
0.0
  0
LINE
  5
6BF
330
686
100
AcDbEntity
  8
LC-001-002-----0
 62
     7
370
    35
100
AcDbLine
 10
566.5874579999999
 20
230.4
 30
0.0
 11
602.557711
 21
230.4
 31
0.0
  0
LINE
  5
6C0
330
686
100
AcDbEntity
  8
LC-001-002-----0
 62
     7
370
    35
100
AcDbLine
 10
566.5874579999999
 20
230.5
 30
0.0
 11
601.798136
 21
230.5
 31
0.0
  0
LINE
  5
6C1
330
686
100
AcDbEntity
  8
LC-001-002-----0
 62
     7
370
    35
100
AcDbLine
 10
566.5874579999999
 20
230.6
 30
0.0
 11
601.0385610000001
 21
230.6
 31
0.0
  0
LINE
  5
6C2
330
686
100
AcDbEntity
  8
LC-001-002-----0
 62
     7
370
    35
100
AcDbLine
 10
566.5874579999999
 20
230.7
 30
0.0
 11
600.2789849999999
 21
230.7
 31
0.0
  0
LINE
  5
6C3
330
686
100
AcDbEntity
  8
LC-001-002-----0
 62
     7
370
    35
100
AcDbLine
 10
566.5874579999999
 20
230.8
 30
0.0
 11
599.5194099999999
 21
230.8
 31
0.0
  0
LINE
  5
6C4
330
686
100
AcDbEntity
  8
LC-001-002-----0
 62
     7
370
    35
100
AcDbLine
 10
566.5874579999999
 20
230.9
 30
0.0
 11
598.7598339999999
 21
230.9
 31
0.0
  0
LINE
  5
6C5
330
686
100
AcDbEntity
  8
LC-001-002-----0
 62
     7
370
    35
100
AcDbLine
 10
566.5874579999999
 20
231.0
 30
0.0
 11
598.000259
 21
231.0
 31
0.0
  0
LINE
  5
6C6
330
686
100
AcDbEntity
  8
LC-001-002-----0
 62
     7
370
    35
100
AcDbLine
 10
566.5874579999999
 20
231.1
 30
0.0
 11
597.2406829999999
 21
231.1
 31
0.0
  0
LINE
  5
6C7
330
686
100
AcDbEntity
  8
LC-001-002-----0
 62
     7
370
    35
100
AcDbLine
 10
566.5874579999999
 20
231.2
 30
0.0
 11
596.481108
 21
231.2
 31
0.0
  0
LINE
  5
6C8
330
686
100
AcDbEntity
  8
LC-001-002-----0
 62
     7
370
    35
100
AcDbLine
 10
566.5874579999999
 20
231.3
 30
0.0
 11
595.721533
 21
231.3
 31
0.0
  0
LINE
  5
6C9
330
686
100
AcDbEntity
  8
LC-001-002-----0
 62
     7
370
    35
100
AcDbLine
 10
566.5874579999999
 20
231.4
 30
0.0
 11
594.961957
 21
231.4
 31
0.0
  0
LINE
  5
6CA
330
686
100
AcDbEntity
  8
LC-001-002-----0
 62
     7
370
    35
100
AcDbLine
 10
566.5874579999999
 20
231.5
 30
0.0
 11
594.2023820000001
 21
231.5
 31
0.0
  0
LINE
  5
6CB
330
686
100
AcDbEntity
  8
LC-001-002-----0
 62
     7
370
    35
100
AcDbLine
 10
566.5874579999999
 20
231.6
 30
0.0
 11
593.4428059999999
 21
231.6
 31
0.0
  0
LINE
  5
6CC
330
686
100
AcDbEntity
  8
LC-001-002-----0
 62
     7
370
    35
100
AcDbLine
 10
566.5874579999999
 20
231.7
 30
0.0
 11
592.6832309999999
 21
231.7
 31
0.0
  0
LINE
  5
6CD
330
686
100
AcDbEntity
  8
LC-001-002-----0
 62
     7
370
    35
100
AcDbLine
 10
566.5874579999999
 20
231.8
 30
0.0
 11
591.9236559999999
 21
231.8
 31
0.0
  0
LINE
  5
6CE
330
686
100
AcDbEntity
  8
LC-001-002-----0
 62
     7
370
    35
100
AcDbLine
 10
566.5874579999999
 20
231.9
 30
0.0
 11
591.1640799999999
 21
231.9
 31
0.0
  0
LINE
  5
6CF
330
686
100
AcDbEntity
  8
LC-001-002-----0
 62
     7
370
    35
100
AcDbLine
 10
566.5874579999999
 20
232.0
 30
0.0
 11
590.4045049999999
 21
232.0
 31
0.0
  0
LINE
  5
6D0
330
686
100
AcDbEntity
  8
LC-001-002-----0
 62
     7
370
    35
100
AcDbLine
 10
566.5874579999999
 20
232.1
 30
0.0
 11
589.644929
 21
232.1
 31
0.0
  0
LINE
  5
6D1
330
686
100
AcDbEntity
  8
LC-001-002-----0
 62
     7
370
    35
100
AcDbLine
 10
566.5874579999999
 20
232.2
 30
0.0
 11
588.885354
 21
232.2
 31
0.0
  0
LINE
  5
6D2
330
686
100
AcDbEntity
  8
LC-001-002-----0
 62
     7
370
    35
100
AcDbLine
 10
566.5874579999999
 20
232.3
 30
0.0
 11
588.1257789999999
 21
232.3
 31
0.0
  0
LINE
  5
6D3
330
686
100
AcDbEntity
  8
LC-001-002-----0
 62
     7
370
    35
100
AcDbLine
 10
566.5874579999999
 20
232.4
 30
0.0
 11
587.366203
 21
232.4
 31
0.0
  0
LINE
  5
6D4
330
686
100
AcDbEntity
  8
LC-001-002-----0
 62
     7
370
    35
100
AcDbLine
 10
566.5874579999999
 20
232.5
 30
0.0
 11
586.606628
 21
232.5
 31
0.0
  0
LINE
  5
6D5
330
686
100
AcDbEntity
  8
LC-001-002-----0
 62
     7
370
    35
100
AcDbLine
 10
566.5874579999999
 20
232.6
 30
0.0
 11
585.847052
 21
232.6
 31
0.0
  0
LINE
  5
6D6
330
686
100
AcDbEntity
  8
LC-001-002-----0
 62
     7
370
    35
100
AcDbLine
 10
566.5874579999999
 20
232.7
 30
0.0
 11
585.0874769999999
 21
232.7
 31
0.0
  0
LINE
  5
6D7
330
686
100
AcDbEntity
  8
LC-001-002-----0
 62
     7
370
    35
100
AcDbLine
 10
566.5874579999999
 20
232.8
 30
0.0
 11
584.3279019999999
 21
232.8
 31
0.0
  0
LINE
  5
6D8
330
686
100
AcDbEntity
  8
LC-001-002-----0
 62
     7
370
    35
100
AcDbLine
 10
566.5874579999999
 20
232.9
 30
0.0
 11
583.5683259999999
 21
232.9
 31
0.0
  0
LINE
  5
6D9
330
686
100
AcDbEntity
  8
LC-001-002-----0
 62
     7
370
    35
100
AcDbLine
 10
566.5874579999999
 20
233.0
 30
0.0
 11
582.808751
 21
233.0
 31
0.0
  0
LINE
  5
6DA
330
686
100
AcDbEntity
  8
LC-001-002-----0
 62
     7
370
    35
100
AcDbLine
 10
566.5874579999999
 20
233.1
 30
0.0
 11
582.049175
 21
233.1
 31
0.0
  0
LINE
  5
6DB
330
686
100
AcDbEntity
  8
LC-001-002-----0
 62
     7
370
    35
100
AcDbLine
 10
566.5874579999999
 20
233.2
 30
0.0
 11
581.2895999999999
 21
233.2
 31
0.0
  0
LINE
  5
6DC
330
686
100
AcDbEntity
  8
LC-001-002-----0
 62
     7
370
    35
100
AcDbLine
 10
566.5874579999999
 20
233.3
 30
0.0
 11
580.530024
 21
233.3
 31
0.0
  0
LINE
  5
6DD
330
686
100
AcDbEntity
  8
LC-001-002-----0
 62
     7
370
    35
100
AcDbLine
 10
566.5874579999999
 20
233.4
 30
0.0
 11
579.770449
 21
233.4
 31
0.0
  0
LINE
  5
6DE
330
686
100
AcDbEntity
  8
LC-001-002-----0
 62
     7
370
    35
100
AcDbLine
 10
566.5874579999999
 20
233.5
 30
0.0
 11
579.010874
 21
233.5
 31
0.0
  0
LINE
  5
6DF
330
686
100
AcDbEntity
  8
LC-001-002-----0
 62
     7
370
    35
100
AcDbLine
 10
566.5874579999999
 20
233.6
 30
0.0
 11
578.2512979999999
 21
233.6
 31
0.0
  0
LINE
  5
6E0
330
686
100
AcDbEntity
  8
LC-001-002-----0
 62
     7
370
    35
100
AcDbLine
 10
566.5874579999999
 20
233.7
 30
0.0
 11
577.491723
 21
233.7
 31
0.0
  0
LINE
  5
6E1
330
686
100
AcDbEntity
  8
LC-001-002-----0
 62
     7
370
    35
100
AcDbLine
 10
566.5874579999999
 20
233.8
 30
0.0
 11
576.7321469999999
 21
233.8
 31
0.0
  0
LINE
  5
6E2
330
686
100
AcDbEntity
  8
LC-001-002-----0
 62
     7
370
    35
100
AcDbLine
 10
566.5874579999999
 20
233.9
 30
0.0
 11
575.972572
 21
233.9
 31
0.0
  0
LINE
  5
6E3
330
686
100
AcDbEntity
  8
LC-001-002-----0
 62
     7
370
    35
100
AcDbLine
 10
566.5874579999999
 20
234.0
 30
0.0
 11
575.2129969999999
 21
234.0
 31
0.0
  0
LINE
  5
6E4
330
686
100
AcDbEntity
  8
LC-001-002-----0
 62
     7
370
    35
100
AcDbLine
 10
566.5874579999999
 20
234.1
 30
0.0
 11
574.453421
 21
234.1
 31
0.0
  0
LINE
  5
6E5
330
686
100
AcDbEntity
  8
LC-001-002-----0
 62
     7
370
    35
100
AcDbLine
 10
566.5874579999999
 20
234.2
 30
0.0
 11
573.693846
 21
234.2
 31
0.0
  0
LINE
  5
6E6
330
686
100
AcDbEntity
  8
LC-001-002-----0
 62
     7
370
    35
100
AcDbLine
 10
566.5874579999999
 20
234.3
 30
0.0
 11
572.93427
 21
234.3
 31
0.0
  0
LINE
  5
6E7
330
686
100
AcDbEntity
  8
LC-001-002-----0
 62
     7
370
    35
100
AcDbLine
 10
566.5874579999999
 20
234.4
 30
0.0
 11
572.174695
 21
234.4
 31
0.0
  0
LINE
  5
6E8
330
686
100
AcDbEntity
  8
LC-001-002-----0
 62
     7
370
    35
100
AcDbLine
 10
566.5874579999999
 20
234.5
 30
0.0
 11
571.4151199999999
 21
234.5
 31
0.0
  0
LINE
  5
6E9
330
686
100
AcDbEntity
  8
LC-001-002-----0
 62
     7
370
    35
100
AcDbLine
 10
566.5874579999999
 20
234.6
 30
0.0
 11
570.655544
 21
234.6
 31
0.0
  0
LINE
  5
6EA
330
686
100
AcDbEntity
  8
LC-001-002-----0
 62
     7
370
    35
100
AcDbLine
 10
566.5874579999999
 20
234.7
 30
0.0
 11
569.895969
 21
234.7
 31
0.0
  0
LINE
  5
6EB
330
686
100
AcDbEntity
  8
LC-001-002-----0
 62
     7
370
    35
100
AcDbLine
 10
566.5874579999999
 20
234.8
 30
0.0
 11
569.136393
 21
234.8
 31
0.0
  0
LINE
  5
6EC
330
686
100
AcDbEntity
  8
LC-001-002-----0
 62
     7
370
    35
100
AcDbLine
 10
566.5874579999999
 20
234.9
 30
0.0
 11
568.3768179999999
 21
234.9
 31
0.0
  0
LINE
  5
6ED
330
686
100
AcDbEntity
  8
LC-001-002-----0
 62
     7
370
    35
100
AcDbLine
 10
566.5874579999999
 20
235.0
 30
0.0
 11
567.617242
 21
235.0
 31
0.0
  0
LINE
  5
6EE
330
686
100
AcDbEntity
  8
LC-001-002-----0
 62
     7
370
    35
100
AcDbLine
 10
566.5874579999999
 20
235.1
 30
0.0
 11
566.857667
 21
235.1
 31
0.0
  0
ENDBLK
  5
688
330
686
100
AcDbEntity
  8
0
100
AcDbBlockEnd
  0
BLOCK
  5
6F4
330
6F3
100
AcDbEntity
  8
0
100
AcDbBlockBegin
  2
*X24
 70
     1
 10
0.0
 20
0.0
 30
0.0
  3
*X24
  1

  4
*X10
  0
LINE
  5
6F6
330
6F3
100
AcDbEntity
  8
LC-001-002-----0
 62
     7
370
    35
100
AcDbLine
 10
506.5960129999999
 20
215.2
 30
0.0
 11
509.0373239999999
 21
215.2
 31
0.0
  0
LINE
  5
6F7
330
6F3
100
AcDbEntity
  8
LC-001-002-----0
 62
     7
370
    35
100
AcDbLine
 10
506.5960129999999
 20
215.4
 30
0.0
 11
510.0369429999999
 21
215.4
 31
0.0
  0
LINE
  5
6F8
330
6F3
100
AcDbEntity
  8
LC-001-002-----0
 62
     7
370
    35
100
AcDbLine
 10
506.5960129999999
 20
215.6
 30
0.0
 11
510.796013
 21
215.6
 31
0.0
  0
LINE
  5
6F9
330
6F3
100
AcDbEntity
  8
LC-001-002-----0
 62
     7
370
    35
100
AcDbLine
 10
506.5960129999999
 20
215.8
 30
0.0
 11
511.4292309999999
 21
215.8
 31
0.0
  0
LINE
  5
6FA
330
6F3
100
AcDbEntity
  8
LC-001-002-----0
 62
     7
370
    35
100
AcDbLine
 10
506.5960129999999
 20
216.0
 30
0.0
 11
511.981178
 21
216.0
 31
0.0
  0
LINE
  5
6FB
330
6F3
100
AcDbEntity
  8
LC-001-002-----0
 62
     7
370
    35
100
AcDbLine
 10
506.5960129999999
 20
216.2
 30
0.0
 11
512.474788
 21
216.2
 31
0.0
  0
LINE
  5
6FC
330
6F3
100
AcDbEntity
  8
LC-001-002-----0
 62
     7
370
    35
100
AcDbLine
 10
506.5960129999999
 20
216.4
 30
0.0
 11
512.9237299999999
 21
216.4
 31
0.0
  0
LINE
  5
6FD
330
6F3
100
AcDbEntity
  8
LC-001-002-----0
 62
     7
370
    35
100
AcDbLine
 10
506.5960129999999
 20
216.6
 30
0.0
 11
513.336933
 21
216.6
 31
0.0
  0
LINE
  5
6FE
330
6F3
100
AcDbEntity
  8
LC-001-002-----0
 62
     7
370
    35
100
AcDbLine
 10
506.5960129999999
 20
216.8
 30
0.0
 11
513.7206179999999
 21
216.8
 31
0.0
  0
LINE
  5
6FF
330
6F3
100
AcDbEntity
  8
LC-001-002-----0
 62
     7
370
    35
100
AcDbLine
 10
506.5960129999999
 20
217.0
 30
0.0
 11
514.0793269999999
 21
217.0
 31
0.0
  0
LINE
  5
700
330
6F3
100
AcDbEntity
  8
LC-001-002-----0
 62
     7
370
    35
100
AcDbLine
 10
506.5960129999999
 20
217.2
 30
0.0
 11
514.416499
 21
217.2
 31
0.0
  0
LINE
  5
701
330
6F3
100
AcDbEntity
  8
LC-001-002-----0
 62
     7
370
    35
100
AcDbLine
 10
506.5960129999999
 20
217.4
 30
0.0
 11
514.734809
 21
217.4
 31
0.0
  0
LINE
  5
702
330
6F3
100
AcDbEntity
  8
LC-001-002-----0
 62
     7
370
    35
100
AcDbLine
 10
506.5960129999999
 20
217.6
 30
0.0
 11
515.036392
 21
217.6
 31
0.0
  0
LINE
  5
703
330
6F3
100
AcDbEntity
  8
LC-001-002-----0
 62
     7
370
    35
100
AcDbLine
 10
506.5960129999999
 20
217.8
 30
0.0
 11
515.3229819999999
 21
217.8
 31
0.0
  0
LINE
  5
704
330
6F3
100
AcDbEntity
  8
LC-001-002-----0
 62
     7
370
    35
100
AcDbLine
 10
506.5960129999999
 20
218.0
 30
0.0
 11
515.5960129999999
 21
218.0
 31
0.0
  0
LINE
  5
705
330
6F3
100
AcDbEntity
  8
LC-001-002-----0
 62
     7
370
    35
100
AcDbLine
 10
506.5960129999999
 20
218.2
 30
0.0
 11
515.8566819999999
 21
218.2
 31
0.0
  0
LINE
  5
706
330
6F3
100
AcDbEntity
  8
LC-001-002-----0
 62
     7
370
    35
100
AcDbLine
 10
506.5960129999999
 20
218.4
 30
0.0
 11
516.1060069999999
 21
218.4
 31
0.0
  0
LINE
  5
707
330
6F3
100
AcDbEntity
  8
LC-001-002-----0
 62
     7
370
    35
100
AcDbLine
 10
506.5960129999999
 20
218.6
 30
0.0
 11
516.3448589999999
 21
218.6
 31
0.0
  0
LINE
  5
708
330
6F3
100
AcDbEntity
  8
LC-001-002-----0
 62
     7
370
    35
100
AcDbLine
 10
506.5960129999999
 20
218.8
 30
0.0
 11
516.573988
 21
218.8
 31
0.0
  0
LINE
  5
709
330
6F3
100
AcDbEntity
  8
LC-001-002-----0
 62
     7
370
    35
100
AcDbLine
 10
506.5960129999999
 20
219.0
 30
0.0
 11
516.794052
 21
219.0
 31
0.0
  0
LINE
  5
70A
330
6F3
100
AcDbEntity
  8
LC-001-002-----0
 62
     7
370
    35
100
AcDbLine
 10
506.5960129999999
 20
219.2
 30
0.0
 11
517.005624
 21
219.2
 31
0.0
  0
LINE
  5
70B
330
6F3
100
AcDbEntity
  8
LC-001-002-----0
 62
     7
370
    35
100
AcDbLine
 10
506.5960129999999
 20
219.4
 30
0.0
 11
517.209212
 21
219.4
 31
0.0
  0
LINE
  5
70C
330
6F3
100
AcDbEntity
  8
LC-001-002-----0
 62
     7
370
    35
100
AcDbLine
 10
506.5960129999999
 20
219.6
 30
0.0
 11
517.4052679999999
 21
219.6
 31
0.0
  0
LINE
  5
70D
330
6F3
100
AcDbEntity
  8
LC-001-002-----0
 62
     7
370
    35
100
AcDbLine
 10
506.5960129999999
 20
219.8
 30
0.0
 11
517.594194
 21
219.8
 31
0.0
  0
LINE
  5
70E
330
6F3
100
AcDbEntity
  8
LC-001-002-----0
 62
     7
370
    35
100
AcDbLine
 10
506.5960129999999
 20
220.0
 30
0.0
 11
517.776353
 21
220.0
 31
0.0
  0
LINE
  5
70F
330
6F3
100
AcDbEntity
  8
LC-001-002-----0
 62
     7
370
    35
100
AcDbLine
 10
506.5960129999999
 20
220.2
 30
0.0
 11
517.9520679999999
 21
220.2
 31
0.0
  0
LINE
  5
710
330
6F3
100
AcDbEntity
  8
LC-001-002-----0
 62
     7
370
    35
100
AcDbLine
 10
506.5960129999999
 20
220.4
 30
0.0
 11
518.121636
 21
220.4
 31
0.0
  0
LINE
  5
711
330
6F3
100
AcDbEntity
  8
LC-001-002-----0
 62
     7
370
    35
100
AcDbLine
 10
506.5960129999999
 20
220.6
 30
0.0
 11
518.285324
 21
220.6
 31
0.0
  0
LINE
  5
712
330
6F3
100
AcDbEntity
  8
LC-001-002-----0
 62
     7
370
    35
100
AcDbLine
 10
506.5960129999999
 20
220.8
 30
0.0
 11
518.4433749999999
 21
220.8
 31
0.0
  0
LINE
  5
713
330
6F3
100
AcDbEntity
  8
LC-001-002-----0
 62
     7
370
    35
100
AcDbLine
 10
506.5960129999999
 20
221.0
 30
0.0
 11
518.5960129999999
 21
221.0
 31
0.0
  0
LINE
  5
714
330
6F3
100
AcDbEntity
  8
LC-001-002-----0
 62
     7
370
    35
100
AcDbLine
 10
506.5960129999999
 20
221.2
 30
0.0
 11
518.74344
 21
221.2
 31
0.0
  0
LINE
  5
715
330
6F3
100
AcDbEntity
  8
LC-001-002-----0
 62
     7
370
    35
100
AcDbLine
 10
506.5960129999999
 20
221.4
 30
0.0
 11
518.885846
 21
221.4
 31
0.0
  0
LINE
  5
716
330
6F3
100
AcDbEntity
  8
LC-001-002-----0
 62
     7
370
    35
100
AcDbLine
 10
506.5960129999999
 20
221.6
 30
0.0
 11
519.0234019999999
 21
221.6
 31
0.0
  0
LINE
  5
717
330
6F3
100
AcDbEntity
  8
LC-001-002-----0
 62
     7
370
    35
100
AcDbLine
 10
506.5960129999999
 20
221.8
 30
0.0
 11
519.1562669999999
 21
221.8
 31
0.0
  0
LINE
  5
718
330
6F3
100
AcDbEntity
  8
LC-001-002-----0
 62
     7
370
    35
100
AcDbLine
 10
506.5960129999999
 20
222.0
 30
0.0
 11
519.28459
 21
222.0
 31
0.0
  0
LINE
  5
719
330
6F3
100
AcDbEntity
  8
LC-001-002-----0
 62
     7
370
    35
100
AcDbLine
 10
506.5960129999999
 20
222.2
 30
0.0
 11
519.4085069999999
 21
222.2
 31
0.0
  0
LINE
  5
71A
330
6F3
100
AcDbEntity
  8
LC-001-002-----0
 62
     7
370
    35
100
AcDbLine
 10
506.5960129999999
 20
222.4
 30
0.0
 11
519.528143
 21
222.4
 31
0.0
  0
LINE
  5
71B
330
6F3
100
AcDbEntity
  8
LC-001-002-----0
 62
     7
370
    35
100
AcDbLine
 10
506.5960129999999
 20
222.6
 30
0.0
 11
519.6436179999999
 21
222.6
 31
0.0
  0
LINE
  5
71C
330
6F3
100
AcDbEntity
  8
LC-001-002-----0
 62
     7
370
    35
100
AcDbLine
 10
506.5960129999999
 20
222.8
 30
0.0
 11
519.7550399999999
 21
222.8
 31
0.0
  0
LINE
  5
71D
330
6F3
100
AcDbEntity
  8
LC-001-002-----0
 62
     7
370
    35
100
AcDbLine
 10
506.5960129999999
 20
223.0
 30
0.0
 11
519.862512
 21
223.0
 31
0.0
  0
LINE
  5
71E
330
6F3
100
AcDbEntity
  8
LC-001-002-----0
 62
     7
370
    35
100
AcDbLine
 10
506.5960129999999
 20
223.2
 30
0.0
 11
519.966129
 21
223.2
 31
0.0
  0
LINE
  5
71F
330
6F3
100
AcDbEntity
  8
LC-001-002-----0
 62
     7
370
    35
100
AcDbLine
 10
506.5960129999999
 20
223.4
 30
0.0
 11
520.0659789999999
 21
223.4
 31
0.0
  0
LINE
  5
720
330
6F3
100
AcDbEntity
  8
LC-001-002-----0
 62
     7
370
    35
100
AcDbLine
 10
506.5960129999999
 20
223.6
 30
0.0
 11
520.162147
 21
223.6
 31
0.0
  0
LINE
  5
721
330
6F3
100
AcDbEntity
  8
LC-001-002-----0
 62
     7
370
    35
100
AcDbLine
 10
506.5960129999999
 20
223.8
 30
0.0
 11
520.2547099999999
 21
223.8
 31
0.0
  0
LINE
  5
722
330
6F3
100
AcDbEntity
  8
LC-001-002-----0
 62
     7
370
    35
100
AcDbLine
 10
506.5960129999999
 20
224.0
 30
0.0
 11
520.34374
 21
224.0
 31
0.0
  0
LINE
  5
723
330
6F3
100
AcDbEntity
  8
LC-001-002-----0
 62
     7
370
    35
100
AcDbLine
 10
506.5960129999999
 20
224.2
 30
0.0
 11
520.429306
 21
224.2
 31
0.0
  0
LINE
  5
724
330
6F3
100
AcDbEntity
  8
LC-001-002-----0
 62
     7
370
    35
100
AcDbLine
 10
506.5960129999999
 20
224.4
 30
0.0
 11
520.511472
 21
224.4
 31
0.0
  0
LINE
  5
725
330
6F3
100
AcDbEntity
  8
LC-001-002-----0
 62
     7
370
    35
100
AcDbLine
 10
506.5960129999999
 20
224.6
 30
0.0
 11
520.5902969999999
 21
224.6
 31
0.0
  0
LINE
  5
726
330
6F3
100
AcDbEntity
  8
LC-001-002-----0
 62
     7
370
    35
100
AcDbLine
 10
506.5960129999999
 20
224.8
 30
0.0
 11
520.665839
 21
224.8
 31
0.0
  0
LINE
  5
727
330
6F3
100
AcDbEntity
  8
LC-001-002-----0
 62
     7
370
    35
100
AcDbLine
 10
506.5960129999999
 20
225.0
 30
0.0
 11
520.738148
 21
225.0
 31
0.0
  0
LINE
  5
728
330
6F3
100
AcDbEntity
  8
LC-001-002-----0
 62
     7
370
    35
100
AcDbLine
 10
506.5960129999999
 20
225.2
 30
0.0
 11
520.807276
 21
225.2
 31
0.0
  0
LINE
  5
729
330
6F3
100
AcDbEntity
  8
LC-001-002-----0
 62
     7
370
    35
100
AcDbLine
 10
506.5960129999999
 20
225.4
 30
0.0
 11
520.8732669999999
 21
225.4
 31
0.0
  0
LINE
  5
72A
330
6F3
100
AcDbEntity
  8
LC-001-002-----0
 62
     7
370
    35
100
AcDbLine
 10
506.5960129999999
 20
225.6
 30
0.0
 11
520.936166
 21
225.6
 31
0.0
  0
LINE
  5
72B
330
6F3
100
AcDbEntity
  8
LC-001-002-----0
 62
     7
370
    35
100
AcDbLine
 10
506.5960129999999
 20
225.8
 30
0.0
 11
520.9960129999999
 21
225.8
 31
0.0
  0
LINE
  5
72C
330
6F3
100
AcDbEntity
  8
LC-001-002-----0
 62
     7
370
    35
100
AcDbLine
 10
506.5960129999999
 20
226.0
 30
0.0
 11
521.052845
 21
226.0
 31
0.0
  0
LINE
  5
72D
330
6F3
100
AcDbEntity
  8
LC-001-002-----0
 62
     7
370
    35
100
AcDbLine
 10
506.5960129999999
 20
226.2
 30
0.0
 11
521.106698
 21
226.2
 31
0.0
  0
LINE
  5
72E
330
6F3
100
AcDbEntity
  8
LC-001-002-----0
 62
     7
370
    35
100
AcDbLine
 10
506.5960129999999
 20
226.4
 30
0.0
 11
521.1576059999999
 21
226.4
 31
0.0
  0
LINE
  5
72F
330
6F3
100
AcDbEntity
  8
LC-001-002-----0
 62
     7
370
    35
100
AcDbLine
 10
506.5960129999999
 20
226.6
 30
0.0
 11
521.205599
 21
226.6
 31
0.0
  0
LINE
  5
730
330
6F3
100
AcDbEntity
  8
LC-001-002-----0
 62
     7
370
    35
100
AcDbLine
 10
506.5960129999999
 20
226.8
 30
0.0
 11
521.2507049999999
 21
226.8
 31
0.0
  0
LINE
  5
731
330
6F3
100
AcDbEntity
  8
LC-001-002-----0
 62
     7
370
    35
100
AcDbLine
 10
506.5960129999999
 20
227.0
 30
0.0
 11
521.292951
 21
227.0
 31
0.0
  0
LINE
  5
732
330
6F3
100
AcDbEntity
  8
LC-001-002-----0
 62
     7
370
    35
100
AcDbLine
 10
506.5960129999999
 20
227.2
 30
0.0
 11
521.3323619999999
 21
227.2
 31
0.0
  0
LINE
  5
733
330
6F3
100
AcDbEntity
  8
LC-001-002-----0
 62
     7
370
    35
100
AcDbLine
 10
506.5960129999999
 20
227.4
 30
0.0
 11
521.368961
 21
227.4
 31
0.0
  0
LINE
  5
734
330
6F3
100
AcDbEntity
  8
LC-001-002-----0
 62
     7
370
    35
100
AcDbLine
 10
506.5960129999999
 20
227.6
 30
0.0
 11
521.4027679999999
 21
227.6
 31
0.0
  0
LINE
  5
735
330
6F3
100
AcDbEntity
  8
LC-001-002-----0
 62
     7
370
    35
100
AcDbLine
 10
506.5960129999999
 20
227.8
 30
0.0
 11
521.4338019999998
 21
227.8
 31
0.0
  0
LINE
  5
736
330
6F3
100
AcDbEntity
  8
LC-001-002-----0
 62
     7
370
    35
100
AcDbLine
 10
506.5960129999999
 20
228.0
 30
0.0
 11
521.462081
 21
228.0
 31
0.0
  0
LINE
  5
737
330
6F3
100
AcDbEntity
  8
LC-001-002-----0
 62
     7
370
    35
100
AcDbLine
 10
506.5960129999999
 20
228.2
 30
0.0
 11
521.4876209999999
 21
228.2
 31
0.0
  0
LINE
  5
738
330
6F3
100
AcDbEntity
  8
LC-001-002-----0
 62
     7
370
    35
100
AcDbLine
 10
506.5960129999999
 20
228.4
 30
0.0
 11
521.5104349999998
 21
228.4
 31
0.0
  0
LINE
  5
739
330
6F3
100
AcDbEntity
  8
LC-001-002-----0
 62
     7
370
    35
100
AcDbLine
 10
506.5960129999999
 20
228.6
 30
0.0
 11
521.530536
 21
228.6
 31
0.0
  0
LINE
  5
73A
330
6F3
100
AcDbEntity
  8
LC-001-002-----0
 62
     7
370
    35
100
AcDbLine
 10
506.5960129999999
 20
228.8
 30
0.0
 11
521.547936
 21
228.8
 31
0.0
  0
LINE
  5
73B
330
6F3
100
AcDbEntity
  8
LC-001-002-----0
 62
     7
370
    35
100
AcDbLine
 10
506.5960129999999
 20
229.0
 30
0.0
 11
521.5626419999999
 21
229.0
 31
0.0
  0
LINE
  5
73C
330
6F3
100
AcDbEntity
  8
LC-001-002-----0
 62
     7
370
    35
100
AcDbLine
 10
506.5960129999999
 20
229.2
 30
0.0
 11
521.5746639999999
 21
229.2
 31
0.0
  0
LINE
  5
73D
330
6F3
100
AcDbEntity
  8
LC-001-002-----0
 62
     7
370
    35
100
AcDbLine
 10
506.5960129999999
 20
229.4
 30
0.0
 11
521.584008
 21
229.4
 31
0.0
  0
LINE
  5
73E
330
6F3
100
AcDbEntity
  8
LC-001-002-----0
 62
     7
370
    35
100
AcDbLine
 10
506.5960129999999
 20
229.6
 30
0.0
 11
521.590678
 21
229.6
 31
0.0
  0
LINE
  5
73F
330
6F3
100
AcDbEntity
  8
LC-001-002-----0
 62
     7
370
    35
100
AcDbLine
 10
506.5960129999999
 20
229.8
 30
0.0
 11
521.594679
 21
229.8
 31
0.0
  0
LINE
  5
740
330
6F3
100
AcDbEntity
  8
LC-001-002-----0
 62
     7
370
    35
100
AcDbLine
 10
506.5960129999999
 20
230.0
 30
0.0
 11
521.596013
 21
230.0
 31
0.0
  0
ENDBLK
  5
6F5
330
6F3
100
AcDbEntity
  8
0
100
AcDbBlockEnd
  0
BLOCK
  5
75D
330
752
100
AcDbEntity
  8
0
100
AcDbBlockBegin
  2
*D25
 70
     1
 10
0.0
 20
0.0
 30
0.0
  3
*D25
  1

  0
LINE
  5
753
330
752
100
AcDbEntity
  8
LC-003-003-----0
 62
     2
370
    -2
100
AcDbLine
 10
279.096013
 20
5.375
 30
0.0
 11
141.0
 21
5.375
 31
0.0
  0
LINE
  5
754
330
752
100
AcDbEntity
  8
LC-003-003-----0
 62
     2
370
    -2
100
AcDbLine
 10
279.096013
 20
454.6249999999999
 30
0.0
 11
141.0
 21
454.6249999999999
 31
0.0
  0
LINE
  5
755
330
752
100
AcDbEntity
  8
LC-003-003-----0
 62
     2
370
    -2
100
AcDbLine
 10
150.0
 20
17.875
 30
0.0
 11
150.0
 21
190.000001
 31
0.0
  0
LINE
  5
756
330
752
100
AcDbEntity
  8
LC-003-003-----0
 62
     2
370
    -2
100
AcDbLine
 10
150.0
 20
442.1249999999999
 30
0.0
 11
150.0
 21
269.999999
 31
0.0
  0
SOLID
  5
757
330
752
100
AcDbEntity
  8
LC-003-003-----0
 62
     2
100
AcDbTrace
 10
147.916667
 20
17.875
 30
0.0
 11
152.083333
 21
17.875
 31
0.0
 12
150.0
 22
5.375
 32
0.0
 13
150.0
 23
5.375
 33
0.0
  0
SOLID
  5
758
330
752
100
AcDbEntity
  8
LC-003-003-----0
 62
     2
100
AcDbTrace
 10
152.083333
 20
442.1249999999999
 30
0.0
 11
147.916667
 21
442.1249999999999
 31
0.0
 12
150.0
 22
454.6249999999999
 32
0.0
 13
150.0
 23
454.6249999999999
 33
0.0
  0
MTEXT
  5
759
330
752
100
AcDbEntity
  8
LC-003-003-----0
 62
     2
100
AcDbMText
 10
135.0
 20
230.0
 30
0.0
 40
12.5
 41
0.0
 71
     5
 72
     1
  1
\A1;449,25
  7
LCTX0-400-0-0pDIN-Schrift
 11
0.0000000000000001
 21
1.0
 31
0.0
 73
     1
 44
1.0
1001
ACAD
1000
MTEXTBEGIN
1070
    73
1070
     1
1070
    44
1040
1.0
1070
    74
1070
     0
1000
MTEXTEND
  0
POINT
  5
75A
330
752
100
AcDbEntity
  8
Defpoints
 62
     0
100
AcDbPoint
 10
279.096013
 20
5.375
 30
0.0
  0
POINT
  5
75B
330
752
100
AcDbEntity
  8
Defpoints
 62
     0
100
AcDbPoint
 10
279.096013
 20
454.6249999999999
 30
0.0
  0
POINT
  5
75C
330
752
100
AcDbEntity
  8
Defpoints
 62
     0
100
AcDbPoint
 10
150.0
 20
454.6249999999999
 30
0.0
  0
ENDBLK
  5
75E
330
752
100
AcDbEntity
  8
0
100
AcDbBlockEnd
  0
BLOCK
  5
76A
330
760
100
AcDbEntity
  8
0
100
AcDbBlockBegin
  2
*D26
 70
     1
 10
0.0
 20
0.0
 30
0.0
  3
*D26
  1

  0
LINE
  5
761
330
760
100
AcDbEntity
  8
LC-003-003-----0
 62
     2
370
    -2
100
AcDbLine
 10
319.096013
 20
-34.625
 30
0.0
 11
319.096013
 21
-184.0
 31
0.0
  0
LINE
  5
762
330
760
100
AcDbEntity
  8
LC-003-003-----0
 62
     2
370
    -2
100
AcDbLine
 10
694.0960129999999
 20
-34.625
 30
0.0
 11
694.0960129999999
 21
-184.0
 31
0.0
  0
LINE
  5
763
330
760
100
AcDbEntity
  8
LC-003-003-----0
 62
     2
370
    -2
100
AcDbLine
 10
331.596013
 20
-175.0
 30
0.0
 11
681.5960129999999
 21
-175.0
 31
0.0
  0
SOLID
  5
764
330
760
100
AcDbEntity
  8
LC-003-003-----0
 62
     2
100
AcDbTrace
 10
331.596013
 20
-172.916667
 30
0.0
 11
331.596013
 21
-177.083333
 31
0.0
 12
319.096013
 22
-175.0
 32
0.0
 13
319.096013
 23
-175.0
 33
0.0
  0
SOLID
  5
765
330
760
100
AcDbEntity
  8
LC-003-003-----0
 62
     2
100
AcDbTrace
 10
681.5960129999999
 20
-177.083333
 30
0.0
 11
681.5960129999999
 21
-172.916667
 31
0.0
 12
694.0960129999999
 22
-175.0
 32
0.0
 13
694.0960129999999
 23
-175.0
 33
0.0
  0
MTEXT
  5
766
330
760
100
AcDbEntity
  8
LC-003-003-----0
 62
     2
100
AcDbMText
 10
506.5960129999999
 20
-160.0
 30
0.0
 40
12.5
 41
0.0
 71
     5
 72
     1
  1
\A1;375
  7
LCTX0-400-0-0pDIN-Schrift
 73
     1
 44
1.0
1001
ACAD
1000
MTEXTBEGIN
1070
    73
1070
     1
1070
    44
1040
1.0
1070
    74
1070
     0
1000
MTEXTEND
  0
POINT
  5
767
330
760
100
AcDbEntity
  8
Defpoints
 62
     0
100
AcDbPoint
 10
319.096013
 20
-34.625
 30
0.0
  0
POINT
  5
768
330
760
100
AcDbEntity
  8
Defpoints
 62
     0
100
AcDbPoint
 10
694.0960129999999
 20
-34.625
 30
0.0
  0
POINT
  5
769
330
760
100
AcDbEntity
  8
Defpoints
 62
     0
100
AcDbPoint
 10
694.0960129999999
 20
-175.0
 30
0.0
  0
ENDBLK
  5
76B
330
760
100
AcDbEntity
  8
0
100
AcDbBlockEnd
  0
BLOCK
  5
79B
330
790
100
AcDbEntity
  8
0
100
AcDbBlockBegin
  2
*D27
 70
     1
 10
0.0
 20
0.0
 30
0.0
  3
*D27
  1

  0
LINE
  5
791
330
790
100
AcDbEntity
  8
LC-003-003-----0
 62
     2
370
    -2
100
AcDbLine
 10
279.096013
 20
5.375
 30
0.0
 11
191.0
 21
5.375
 31
0.0
  0
LINE
  5
792
330
790
100
AcDbEntity
  8
LC-003-003-----0
 62
     2
370
    -2
100
AcDbLine
 10
279.096013
 20
230.0
 30
0.0
 11
191.0
 21
230.0
 31
0.0
  0
LINE
  5
793
330
790
100
AcDbEntity
  8
LC-003-003-----0
 62
     2
370
    -2
100
AcDbLine
 10
200.0
 20
17.875
 30
0.0
 11
200.0
 21
63.175001
 31
0.0
  0
LINE
  5
794
330
790
100
AcDbEntity
  8
LC-003-003-----0
 62
     2
370
    -2
100
AcDbLine
 10
200.0
 20
217.5
 30
0.0
 11
200.0
 21
172.199999
 31
0.0
  0
SOLID
  5
795
330
790
100
AcDbEntity
  8
LC-003-003-----0
 62
     2
100
AcDbTrace
 10
197.916667
 20
17.875
 30
0.0
 11
202.083333
 21
17.875
 31
0.0
 12
200.0
 22
5.375
 32
0.0
 13
200.0
 23
5.375
 33
0.0
  0
SOLID
  5
796
330
790
100
AcDbEntity
  8
LC-003-003-----0
 62
     2
100
AcDbTrace
 10
202.083333
 20
217.5
 30
0.0
 11
197.916667
 21
217.5
 31
0.0
 12
200.0
 22
230.0
 32
0.0
 13
200.0
 23
230.0
 33
0.0
  0
MTEXT
  5
797
330
790
100
AcDbEntity
  8
LC-003-003-----0
 62
     2
100
AcDbMText
 10
185.0
 20
117.6875
 30
0.0
 40
12.5
 41
0.0
 71
     5
 72
     1
  1
(\A1;224,625)
  7
LCTX0-400-0-0pDIN-Schrift
 11
0.0000000000000001
 21
1.0
 31
0.0
 73
     1
 44
1.0
1001
ACAD
1000
MTEXTBEGIN
1070
    73
1070
     1
1070
    44
1040
1.0
1070
    74
1070
     0
1000
MTEXTEND
  0
POINT
  5
798
330
790
100
AcDbEntity
  8
Defpoints
 62
     0
100
AcDbPoint
 10
279.096013
 20
5.375
 30
0.0
  0
POINT
  5
799
330
790
100
AcDbEntity
  8
Defpoints
 62
     0
100
AcDbPoint
 10
279.096013
 20
230.0
 30
0.0
  0
POINT
  5
79A
330
790
100
AcDbEntity
  8
Defpoints
 62
     0
100
AcDbPoint
 10
200.0
 20
230.0
 30
0.0
  0
ENDBLK
  5
79C
330
790
100
AcDbEntity
  8
0
100
AcDbBlockEnd
  0
BLOCK
  5
7A9
330
79E
100
AcDbEntity
  8
0
100
AcDbBlockBegin
  2
*D28
 70
     1
 10
0.0
 20
0.0
 30
0.0
  3
*D28
  1

  0
LINE
  5
79F
330
79E
100
AcDbEntity
  8
LC-003-003-----0
 62
     2
370
    -2
100
AcDbLine
 10
279.096013
 20
454.6249999999999
 30
0.0
 11
191.0
 21
454.6249999999999
 31
0.0
  0
LINE
  5
7A0
330
79E
100
AcDbEntity
  8
LC-003-003-----0
 62
     2
370
    -2
100
AcDbLine
 10
279.096013
 20
230.0
 30
0.0
 11
191.0
 21
230.0
 31
0.0
  0
LINE
  5
7A1
330
79E
100
AcDbEntity
  8
LC-003-003-----0
 62
     2
370
    -2
100
AcDbLine
 10
200.0
 20
442.1249999999999
 30
0.0
 11
200.0
 21
396.8249990000001
 31
0.0
  0
LINE
  5
7A2
330
79E
100
AcDbEntity
  8
LC-003-003-----0
 62
     2
370
    -2
100
AcDbLine
 10
200.0
 20
242.5
 30
0.0
 11
200.0
 21
287.800001
 31
0.0
  0
SOLID
  5
7A3
330
79E
100
AcDbEntity
  8
LC-003-003-----0
 62
     2
100
AcDbTrace
 10
202.083333
 20
442.1249999999999
 30
0.0
 11
197.916667
 21
442.1249999999999
 31
0.0
 12
200.0
 22
454.6249999999999
 32
0.0
 13
200.0
 23
454.6249999999999
 33
0.0
  0
SOLID
  5
7A4
330
79E
100
AcDbEntity
  8
LC-003-003-----0
 62
     2
100
AcDbTrace
 10
197.916667
 20
242.5
 30
0.0
 11
202.083333
 21
242.5
 31
0.0
 12
200.0
 22
230.0
 32
0.0
 13
200.0
 23
230.0
 33
0.0
  0
MTEXT
  5
7A5
330
79E
100
AcDbEntity
  8
LC-003-003-----0
 62
     2
100
AcDbMText
 10
185.0
 20
342.3125
 30
0.0
 40
12.5
 41
0.0
 71
     5
 72
     1
  1
(\A1;224,625)
  7
LCTX0-400-0-0pDIN-Schrift
 11
0.0000000000000001
 21
1.0
 31
0.0
 73
     1
 44
1.0
1001
ACAD
1000
MTEXTBEGIN
1070
    73
1070
     1
1070
    44
1040
1.0
1070
    74
1070
     0
1000
MTEXTEND
  0
POINT
  5
7A6
330
79E
100
AcDbEntity
  8
Defpoints
 62
     0
100
AcDbPoint
 10
279.096013
 20
454.6249999999999
 30
0.0
  0
POINT
  5
7A7
330
79E
100
AcDbEntity
  8
Defpoints
 62
     0
100
AcDbPoint
 10
279.096013
 20
230.0
 30
0.0
  0
POINT
  5
7A8
330
79E
100
AcDbEntity
  8
Defpoints
 62
     0
100
AcDbPoint
 10
200.0
 20
230.0
 30
0.0
  0
ENDBLK
  5
7AA
330
79E
100
AcDbEntity
  8
0
100
AcDbBlockEnd
  0
BLOCK
  5
7B6
330
7AC
100
AcDbEntity
  8
0
100
AcDbBlockBegin
  2
*D29
 70
     1
 10
0.0
 20
0.0
 30
0.0
  3
*D29
  1

  0
LINE
  5
7AD
330
7AC
100
AcDbEntity
  8
LC-003-003-----0
 62
     2
370
    -2
100
AcDbLine
 10
319.096013
 20
-34.625
 30
0.0
 11
319.096013
 21
-134.0
 31
0.0
  0
LINE
  5
7AE
330
7AC
100
AcDbEntity
  8
LC-003-003-----0
 62
     2
370
    -2
100
AcDbLine
 10
506.5960129999999
 20
-34.625
 30
0.0
 11
506.5960129999999
 21
-134.0
 31
0.0
  0
LINE
  5
7AF
330
7AC
100
AcDbEntity
  8
LC-003-003-----0
 62
     2
370
    -2
100
AcDbLine
 10
331.596013
 20
-125.0
 30
0.0
 11
494.0960129999999
 21
-125.0
 31
0.0
  0
SOLID
  5
7B0
330
7AC
100
AcDbEntity
  8
LC-003-003-----0
 62
     2
100
AcDbTrace
 10
331.596013
 20
-122.916667
 30
0.0
 11
331.596013
 21
-127.083333
 31
0.0
 12
319.096013
 22
-125.0
 32
0.0
 13
319.096013
 23
-125.0
 33
0.0
  0
SOLID
  5
7B1
330
7AC
100
AcDbEntity
  8
LC-003-003-----0
 62
     2
100
AcDbTrace
 10
494.0960129999999
 20
-127.083333
 30
0.0
 11
494.0960129999999
 21
-122.916667
 31
0.0
 12
506.5960129999999
 22
-125.0
 32
0.0
 13
506.5960129999999
 23
-125.0
 33
0.0
  0
MTEXT
  5
7B2
330
7AC
100
AcDbEntity
  8
LC-003-003-----0
 62
     2
100
AcDbMText
 10
412.8460129999999
 20
-110.0
 30
0.0
 40
12.5
 41
0.0
 71
     5
 72
     1
  1
(\A1;187,5)
  7
LCTX0-400-0-0pDIN-Schrift
 73
     1
 44
1.0
1001
ACAD
1000
MTEXTBEGIN
1070
    73
1070
     1
1070
    44
1040
1.0
1070
    74
1070
     0
1000
MTEXTEND
  0
POINT
  5
7B3
330
7AC
100
AcDbEntity
  8
Defpoints
 62
     0
100
AcDbPoint
 10
319.096013
 20
-34.625
 30
0.0
  0
POINT
  5
7B4
330
7AC
100
AcDbEntity
  8
Defpoints
 62
     0
100
AcDbPoint
 10
506.5960129999999
 20
-34.625
 30
0.0
  0
POINT
  5
7B5
330
7AC
100
AcDbEntity
  8
Defpoints
 62
     0
100
AcDbPoint
 10
506.5960129999999
 20
-125.0
 30
0.0
  0
ENDBLK
  5
7B7
330
7AC
100
AcDbEntity
  8
0
100
AcDbBlockEnd
  0
BLOCK
  5
7C3
330
7B9
100
AcDbEntity
  8
0
100
AcDbBlockBegin
  2
*D30
 70
     1
 10
0.0
 20
0.0
 30
0.0
  3
*D30
  1

  0
LINE
  5
7BA
330
7B9
100
AcDbEntity
  8
LC-003-003-----0
 62
     2
370
    -2
100
AcDbLine
 10
694.0960129999999
 20
-34.625
 30
0.0
 11
694.0960129999999
 21
-134.0
 31
0.0
  0
LINE
  5
7BB
330
7B9
100
AcDbEntity
  8
LC-003-003-----0
 62
     2
370
    -2
100
AcDbLine
 10
506.5960129999999
 20
-34.625
 30
0.0
 11
506.5960129999999
 21
-134.0
 31
0.0
  0
LINE
  5
7BC
330
7B9
100
AcDbEntity
  8
LC-003-003-----0
 62
     2
370
    -2
100
AcDbLine
 10
681.5960129999999
 20
-125.0
 30
0.0
 11
519.0960129999999
 21
-125.0
 31
0.0
  0
SOLID
  5
7BD
330
7B9
100
AcDbEntity
  8
LC-003-003-----0
 62
     2
100
AcDbTrace
 10
681.5960129999999
 20
-127.083333
 30
0.0
 11
681.5960129999999
 21
-122.916667
 31
0.0
 12
694.0960129999999
 22
-125.0
 32
0.0
 13
694.0960129999999
 23
-125.0
 33
0.0
  0
SOLID
  5
7BE
330
7B9
100
AcDbEntity
  8
LC-003-003-----0
 62
     2
100
AcDbTrace
 10
519.0960129999999
 20
-122.916667
 30
0.0
 11
519.0960129999999
 21
-127.083333
 31
0.0
 12
506.5960129999999
 22
-125.0
 32
0.0
 13
506.5960129999999
 23
-125.0
 33
0.0
  0
MTEXT
  5
7BF
330
7B9
100
AcDbEntity
  8
LC-003-003-----0
 62
     2
100
AcDbMText
 10
600.3460129999999
 20
-110.0
 30
0.0
 40
12.5
 41
0.0
 71
     5
 72
     1
  1
(\A1;187,5)
  7
LCTX0-400-0-0pDIN-Schrift
 73
     1
 44
1.0
1001
ACAD
1000
MTEXTBEGIN
1070
    73
1070
     1
1070
    44
1040
1.0
1070
    74
1070
     0
1000
MTEXTEND
  0
POINT
  5
7C0
330
7B9
100
AcDbEntity
  8
Defpoints
 62
     0
100
AcDbPoint
 10
694.0960129999999
 20
-34.625
 30
0.0
  0
POINT
  5
7C1
330
7B9
100
AcDbEntity
  8
Defpoints
 62
     0
100
AcDbPoint
 10
506.5960129999999
 20
-34.625
 30
0.0
  0
POINT
  5
7C2
330
7B9
100
AcDbEntity
  8
Defpoints
 62
     0
100
AcDbPoint
 10
506.5960129999999
 20
-125.0
 30
0.0
  0
ENDBLK
  5
7C4
330
7B9
100
AcDbEntity
  8
0
100
AcDbBlockEnd
  0
BLOCK
  5
7F4
330
7EA
100
AcDbEntity
  8
0
100
AcDbBlockBegin
  2
*D31
 70
     1
 10
0.0
 20
0.0
 30
0.0
  3
*D31
  1

  0
LINE
  5
7EB
330
7EA
100
AcDbEntity
  8
LC-003-003-----0
 62
     2
370
    -2
100
AcDbLine
 10
1806.806294
 20
263.145747
 30
0.0
 11
1806.806294
 21
191.0
 31
0.0
  0
LINE
  5
7EC
330
7EA
100
AcDbEntity
  8
LC-003-003-----0
 62
     2
370
    -2
100
AcDbLine
 10
1913.806294
 20
263.145747
 30
0.0
 11
1913.806294
 21
191.0
 31
0.0
  0
LINE
  5
7ED
330
7EA
100
AcDbEntity
  8
LC-003-003-----0
 62
     2
370
    -2
100
AcDbLine
 10
1819.306294
 20
200.0
 30
0.0
 11
1901.306294
 21
200.0
 31
0.0
  0
SOLID
  5
7EE
330
7EA
100
AcDbEntity
  8
LC-003-003-----0
 62
     2
100
AcDbTrace
 10
1819.306294
 20
202.083333
 30
0.0
 11
1819.306294
 21
197.916667
 31
0.0
 12
1806.806294
 22
200.0
 32
0.0
 13
1806.806294
 23
200.0
 33
0.0
  0
SOLID
  5
7EF
330
7EA
100
AcDbEntity
  8
LC-003-003-----0
 62
     2
100
AcDbTrace
 10
1901.306294
 20
197.916667
 30
0.0
 11
1901.306294
 21
202.083333
 31
0.0
 12
1913.806294
 22
200.0
 32
0.0
 13
1913.806294
 23
200.0
 33
0.0
  0
MTEXT
  5
7F0
330
7EA
100
AcDbEntity
  8
LC-003-003-----0
 62
     2
100
AcDbMText
 10
1860.306294
 20
215.0
 30
0.0
 40
12.5
 41
0.0
 71
     5
 72
     1
  1
\A1;107
  7
LCTX0-400-0-0pDIN-Schrift
 73
     1
 44
1.0
1001
ACAD
1000
MTEXTBEGIN
1070
    73
1070
     1
1070
    44
1040
1.0
1070
    74
1070
     0
1000
MTEXTEND
  0
POINT
  5
7F1
330
7EA
100
AcDbEntity
  8
Defpoints
 62
     0
100
AcDbPoint
 10
1806.806294
 20
263.145747
 30
0.0
  0
POINT
  5
7F2
330
7EA
100
AcDbEntity
  8
Defpoints
 62
     0
100
AcDbPoint
 10
1913.806294
 20
263.145747
 30
0.0
  0
POINT
  5
7F3
330
7EA
100
AcDbEntity
  8
Defpoints
 62
     0
100
AcDbPoint
 10
1913.806294
 20
200.0
 30
0.0
  0
ENDBLK
  5
7F5
330
7EA
100
AcDbEntity
  8
0
100
AcDbBlockEnd
  0
BLOCK
  5
7FE
330
7F8
100
AcDbEntity
  8
0
100
AcDbBlockBegin
  2
*D32
 70
     1
 10
0.0
 20
0.0
 30
0.0
  3
*D32
  1

  0
LINE
  5
7F9
330
7F8
100
AcDbEntity
  8
LC-003-003-----0
 62
     2
370
    -2
100
AcDbLine
 10
2203.24439
 20
767.182018
 30
0.0
 11
2202.016182
 21
766.150967
 31
0.0
  0
MTEXT
  5
7FA
330
7F8
100
AcDbEntity
  8
LC-003-003-----0
 62
     2
100
AcDbMText
 10
2227.939088
 20
773.945719
 30
0.0
 40
12.5
 41
0.0
 71
     5
 72
     1
  1
\A1;R40
  7
LCTX0-400-0-0pDIN-Schrift
 11
0.7659026217064123
 21
0.6429565880082765
 31
0.0
 73
     1
 44
1.0
1001
ACAD
1000
MTEXTBEGIN
1070
    73
1070
     1
1070
    44
1040
1.0
1070
    74
1070
     0
1000
MTEXTEND
  0
SOLID
  5
7FB
330
7F8
100
AcDbEntity
  8
LC-003-003-----0
 62
     2
100
AcDbTrace
 10
2200.676689
 20
767.746598
 30
0.0
 11
2203.355675
 21
764.555337
 31
0.0
 12
2192.442399
 22
758.1140099999999
 32
0.0
 13
2192.442399
 23
758.1140099999999
 33
0.0
  0
POINT
  5
7FC
330
7F8
100
AcDbEntity
  8
Defpoints
 62
     0
100
AcDbPoint
 10
2192.442399
 20
758.1140099999999
 30
0.0
  0
POINT
  5
7FD
330
7F8
100
AcDbEntity
  8
Defpoints
 62
     0
100
AcDbPoint
 10
2161.806294
 20
732.395747
 30
0.0
  0
ENDBLK
  5
7FF
330
7F8
100
AcDbEntity
  8
0
100
AcDbBlockEnd
  0
BLOCK
  5
807
330
801
100
AcDbEntity
  8
0
100
AcDbBlockBegin
  2
*D33
 70
     1
 10
0.0
 20
0.0
 30
0.0
  3
*D33
  1

  0
LINE
  5
802
330
801
100
AcDbEntity
  8
LC-003-003-----0
 62
     2
370
    -2
100
AcDbLine
 10
2151.653457
 20
724.4600239999999
 30
0.0
 11
2155.89719
 21
727.777036
 31
0.0
  0
MTEXT
  5
803
330
801
100
AcDbEntity
  8
LC-003-003-----0
 62
     2
100
AcDbMText
 10
2176.253932
 20
730.7609119999999
 30
0.0
 40
12.5
 41
0.0
 71
     5
 72
     1
  1
\A1;R20
  7
LCTX0-400-0-0pDIN-Schrift
 11
0.7878805665849358
 21
0.6158280708101904
 31
0.0
 73
     1
 44
1.0
1001
ACAD
1000
MTEXTBEGIN
1070
    73
1070
     1
1070
    44
1040
1.0
1070
    74
1070
     0
1000
MTEXTEND
  0
SOLID
  5
804
330
801
100
AcDbEntity
  8
LC-003-003-----0
 62
     2
100
AcDbTrace
 10
2137.483151
 20
710.7399159999999
 30
0.0
 11
2134.917201
 21
714.0227519999999
 31
0.0
 12
2146.048683
 22
720.0791849999999
 32
0.0
 13
2146.048683
 23
720.0791849999999
 33
0.0
  0
POINT
  5
805
330
801
100
AcDbEntity
  8
Defpoints
 62
     0
100
AcDbPoint
 10
2146.048683
 20
720.0791849999999
 30
0.0
  0
POINT
  5
806
330
801
100
AcDbEntity
  8
Defpoints
 62
     0
100
AcDbPoint
 10
2161.806294
 20
732.395747
 30
0.0
  0
ENDBLK
  5
808
330
801
100
AcDbEntity
  8
0
100
AcDbBlockEnd
  0
ENDSEC
  0
SECTION
  2
ENTITIES
  0
LINE
  5
38
102
{ACAD_REACTORS
330
812
102
}
330
1F
100
AcDbEntity
  8
LC-002-006-MLN-0
 62
     7
370
    25
100
AcDbLine
 10
1852.664395
 20
527.770747
 30
0.0
 11
1974.948194
 21
527.770747
 31
0.0
  0
LINE
  5
39
102
{ACAD_REACTORS
330
811
102
}
330
1F
100
AcDbEntity
  8
LC-001-002-----0
 62
     7
370
    50
100
AcDbLine
 10
2201.806294
 20
1221.270747
 30
0.0
 11
2198.322955
 21
1208.270747
 31
0.0
  0
LINE
  5
3A
102
{ACAD_REACTORS
330
811
102
}
330
1F
100
AcDbEntity
  8
LC-002-006-MLN-0
 62
     7
370
    25
100
AcDbLine
 10
1913.806294
 20
978.270747
 30
0.0
 11
1913.806294
 21
999.270747
 31
0.0
  0
LINE
  5
3B
102
{ACAD_REACTORS
330
810
102
}
330
1F
100
AcDbEntity
  8
LC-002-006-MLN-0
 62
     7
370
    25
100
AcDbLine
 10
1994.306294
 20
1404.270747
 30
0.0
 11
1994.306294
 21
1425.270747
 31
0.0
  0
LINE
  5
3C
102
{ACAD_REACTORS
330
810
102
}
330
1F
100
AcDbEntity
  8
LC-001-002-----0
 62
     7
370
    50
100
AcDbLine
 10
1931.348384
 20
1407.270747
 30
0.0
 11
2057.264205
 21
1407.270747
 31
0.0
  0
LINE
  5
3D
102
{ACAD_REACTORS
330
811
102
}
330
1F
100
AcDbEntity
  8
LC-001-002-----0
 62
     7
370
    50
100
AcDbLine
 10
1845.790091
 20
986.2575470000001
 30
0.0
 11
1840.166999
 21
988.0765189999999
 31
0.0
  0
LINE
  5
3E
102
{ACAD_REACTORS
330
811
102
}
330
1F
100
AcDbEntity
  8
LC-001-002-----0
 62
     7
370
    50
100
AcDbLine
 10
1840.166999
 20
988.0765189999999
 30
0.0
 11
1835.327786
 21
991.091592
 31
0.0
  0
LINE
  5
3F
102
{ACAD_REACTORS
330
810
102
}
330
1F
100
AcDbEntity
  8
LC-001-002-----0
 62
     7
370
    50
100
AcDbLine
 10
2238.931294
 20
1647.270747
 30
0.0
 11
2235.447955
 21
1634.270747
 31
0.0
  0
LINE
  5
40
102
{ACAD_REACTORS
330
811
102
}
330
1F
100
AcDbEntity
  8
LC-001-002-----0
 62
     7
370
    25
100
AcDbLine
 10
1972.056294
 20
996.2707469999999
 30
0.0
 11
1855.556294
 21
996.2707469999999
 31
0.0
  0
LINE
  5
41
102
{ACAD_REACTORS
330
812
102
}
330
1F
100
AcDbEntity
  8
LC-002-006-MLN-0
 62
     7
370
    25
100
AcDbLine
 10
1913.806294
 20
466.6288469999999
 30
0.0
 11
1913.806294
 21
588.9126459999999
 31
0.0
  0
DIMENSION
  5
44
330
1F
100
AcDbEntity
  8
LC-003-003-----0
 62
     7
370
    25
100
AcDbDimension
  2
*D1
 10
1650.0
 20
1422.270747
 30
0.0
 11
1635.0
 21
1534.770747
 31
0.0
 70
   160
 71
     5
 42
225.0
 53
90.0
  3
LC-DIM-L-0025-02-02
100
AcDbAlignedDimension
 13
1726.806294
 23
1647.270747
 33
0.0
 14
1726.806294
 24
1422.270747
 34
0.0
 50
90.0
100
AcDbRotatedDimension
  0
DIMENSION
  5
52
330
1F
100
AcDbEntity
  8
LC-003-003-----0
 62
     7
370
    25
100
AcDbDimension
  2
*D2
 10
1786.806294
 20
200.0
 30
0.0
 11
1780.120743
 21
215.0
 31
0.0
 70
   160
 71
     5
 42
20.0
  3
LC-DIM-L-0025-02-02
100
AcDbAlignedDimension
 13
1806.806294
 23
263.145747
 33
0.0
 14
1786.806294
 24
263.145747
 34
0.0
100
AcDbRotatedDimension
  0
CIRCLE
  5
61
102
{ACAD_REACTORS
330
812
102
}
330
1F
100
AcDbEntity
  8
LC-001-002-----0
 62
     7
370
    50
100
AcDbCircle
 10
1913.806294
 20
527.770747
 30
0.0
 40
58.14189962659975
  0
CIRCLE
  5
62
102
{ACAD_REACTORS
330
812
102
}
330
1F
100
AcDbEntity
  8
LC-001-002-----0
 62
     7
370
    50
100
AcDbCircle
 10
1913.806294
 20
527.770747
 30
0.0
 40
45.79936913919983
  0
ARC
  5
63
102
{ACAD_REACTORS
330
812
102
}
330
1F
100
AcDbEntity
  8
LC-001-002-----0
 62
     7
370
    50
100
AcDbCircle
 10
1826.806294
 20
323.145747
 30
0.0
 40
20.0
100
AcDbArc
 50
180.0
 51
270.0
  0
ARC
  5
64
102
{ACAD_REACTORS
330
812
102
}
330
1F
100
AcDbEntity
  8
LC-001-002-----0
 62
     7
370
    50
100
AcDbCircle
 10
1826.806294
 20
732.395747
 30
0.0
 40
20.0
100
AcDbArc
 50
90.0
 51
180.0
  0
LINE
  5
65
102
{ACAD_REACTORS
330
812
102
}
330
1F
100
AcDbEntity
  8
LC-001-002-----0
 62
     7
370
    50
100
AcDbLine
 10
1806.806294
 20
323.145747
 30
0.0
 11
1806.806294
 21
732.395747
 31
0.0
  0
LINE
  5
66
102
{ACAD_REACTORS
330
812
102
}
330
1F
100
AcDbEntity
  8
LC-001-002-----0
 62
     7
370
    50
100
AcDbLine
 10
1826.806294
 20
752.395747
 30
0.0
 11
2161.806294
 21
752.395747
 31
0.0
  0
ARC
  5
67
102
{ACAD_REACTORS
330
812
102
}
330
1F
100
AcDbEntity
  8
LC-001-002-----0
 62
     7
370
    50
100
AcDbCircle
 10
2161.806294
 20
732.395747
 30
0.0
 40
20.0
100
AcDbArc
 50
0.0
 51
90.0
  0
LINE
  5
68
102
{ACAD_REACTORS
330
812
102
}
330
1F
100
AcDbEntity
  8
LC-001-002-----0
 62
     7
370
    50
100
AcDbLine
 10
2181.806294
 20
732.395747
 30
0.0
 11
2181.806294
 21
323.145747
 31
0.0
  0
ARC
  5
69
102
{ACAD_REACTORS
330
812
102
}
330
1F
100
AcDbEntity
  8
LC-001-002-----0
 62
     7
370
    50
100
AcDbCircle
 10
2161.806294
 20
323.145747
 30
0.0
 40
20.0
100
AcDbArc
 50
270.0
 51
0.0
  0
LINE
  5
6A
102
{ACAD_REACTORS
330
812
102
}
330
1F
100
AcDbEntity
  8
LC-001-002-----0
 62
     7
370
    50
100
AcDbLine
 10
1826.806294
 20
303.145747
 30
0.0
 11
2161.806294
 21
303.145747
 31
0.0
  0
ARC
  5
6B
102
{ACAD_REACTORS
330
810
102
}
330
1F
100
AcDbEntity
  8
LC-001-002-----0
 62
     7
370
    50
100
AcDbCircle
 10
1925.485026
 20
1405.629541
 30
0.0
 40
5.999999999999765
100
AcDbArc
 50
25.0
 51
88.0
  0
LINE
  5
6C
102
{ACAD_REACTORS
330
810
102
}
330
1F
100
AcDbEntity
  8
LC-001-002-----0
 62
     7
370
    50
100
AcDbLine
 10
2225.755758
 20
1629.001963
 30
0.0
 11
2204.90777
 21
1459.208728
 31
0.0
  0
LINE
  5
6D
102
{ACAD_REACTORS
330
811
102
}
330
1F
100
AcDbEntity
  8
LC-001-002-----0
 62
     7
370
    50
100
AcDbLine
 10
1850.848384
 20
981.2707470000001
 30
0.0
 11
1976.764205
 21
981.2707470000001
 31
0.0
  0
LINE
  5
6E
102
{ACAD_REACTORS
330
810
102
}
330
1F
100
AcDbEntity
  8
LC-001-002-----0
 62
     7
370
    50
100
AcDbLine
 10
2178.580484
 20
1416.07146
 30
0.0
 11
2172.82192
 21
1415.46381
 31
0.0
  0
LINE
  5
6F
102
{ACAD_REACTORS
330
812
102
}
330
1F
100
AcDbEntity
  8
LC-001-002-----0
 62
     7
370
    50
100
AcDbLine
 10
2201.806294
 20
732.395747
 30
0.0
 11
2201.806294
 21
323.145747
 31
0.0
  0
ARC
  5
70
102
{ACAD_REACTORS
330
812
102
}
330
1F
100
AcDbEntity
  8
LC-001-002-----0
 62
     7
370
    50
100
AcDbCircle
 10
2161.806294
 20
323.145747
 30
0.0
 40
40.0
100
AcDbArc
 50
270.0
 51
0.0
  0
LINE
  5
71
102
{ACAD_REACTORS
330
812
102
}
330
1F
100
AcDbEntity
  8
LC-001-002-----0
 62
     7
370
    50
100
AcDbLine
 10
2161.806294
 20
283.145747
 30
0.0
 11
1826.806294
 21
283.145747
 31
0.0
  0
LINE
  5
72
102
{ACAD_REACTORS
330
810
102
}
330
1F
100
AcDbEntity
  8
LC-001-002-----0
 62
     7
370
    50
100
AcDbLine
 10
2235.447955
 20
1634.270747
 30
0.0
 11
2231.711035
 21
1634.270747
 31
0.0
  0
LINE
  5
73
102
{ACAD_REACTORS
330
810
102
}
330
1F
100
AcDbEntity
  8
LC-001-002-----0
 62
     7
370
    50
100
AcDbLine
 10
1756.901554
 20
1634.270747
 30
0.0
 11
1753.164634
 21
1634.270747
 31
0.0
  0
ARC
  5
74
102
{ACAD_REACTORS
330
812
102
}
330
1F
100
AcDbEntity
  8
LC-001-002-----0
 62
     7
370
    50
100
AcDbCircle
 10
1826.806294
 20
323.145747
 30
0.0
 40
40.0
100
AcDbArc
 50
180.0
 51
270.0
  0
LINE
  5
75
102
{ACAD_REACTORS
330
810
102
}
330
1F
100
AcDbEntity
  8
LC-001-002-----0
 62
     7
370
    50
100
AcDbLine
 10
2218.769563
 20
1645.953551
 30
0.0
 11
2195.974068
 21
1460.299139
 31
0.0
  0
LINE
  5
76
102
{ACAD_REACTORS
330
812
102
}
330
1F
100
AcDbEntity
  8
LC-001-002-----0
 62
     7
370
    50
100
AcDbLine
 10
1786.806294
 20
323.145747
 30
0.0
 11
1786.806294
 21
732.395747
 31
0.0
  0
DIMENSION
  5
77
330
1F
100
AcDbEntity
  8
LC-003-003-----0
 62
     7
370
    25
100
AcDbDimension
  2
*D3
 10
1600.0
 20
772.395747
 30
0.0
 11
1585.0
 21
527.770747
 31
0.0
 70
   160
 71
     5
 42
489.25
 53
90.0
  3
LC-DIM-L-0025-02-02
100
AcDbAlignedDimension
 13
1766.806294
 23
283.145747
 33
0.0
 14
1766.806294
 24
772.395747
 34
0.0
 50
90.0
100
AcDbRotatedDimension
  0
LINE
  5
85
102
{ACAD_REACTORS
330
811
102
}
330
1F
100
AcDbEntity
  8
LC-001-002-----0
 62
     7
370
    50
100
AcDbLine
 10
1786.806294
 20
1221.270747
 30
0.0
 11
1790.289634
 21
1208.270747
 31
0.0
  0
DIMENSION
  5
86
330
1F
100
AcDbEntity
  8
LC-003-003-----0
 62
     7
370
    25
100
AcDbDimension
  2
*D4
 10
2201.806294
 20
75.0
 30
0.0
 11
1994.306294
 21
90.0
 31
0.0
 70
   160
 71
     5
 42
415.0
  3
LC-DIM-L-0025-02-02
100
AcDbAlignedDimension
 13
1786.806294
 23
263.145747
 33
0.0
 14
2201.806294
 24
263.145747
 34
0.0
100
AcDbRotatedDimension
  0
LINE
  5
93
102
{ACAD_REACTORS
330
810
102
}
330
1F
100
AcDbEntity
  8
LC-001-002-----0
 62
     7
370
    50
100
AcDbLine
 10
2238.931294
 20
1647.270747
 30
0.0
 11
1749.681294
 21
1647.270747
 31
0.0
  0
ARC
  5
94
102
{ACAD_REACTORS
330
812
102
}
330
1F
100
AcDbEntity
  8
LC-001-002-----0
 62
     7
370
    50
100
AcDbCircle
 10
1826.806294
 20
732.395747
 30
0.0
 40
40.0
100
AcDbArc
 50
90.0
 51
180.0
  0
LINE
  5
95
102
{ACAD_REACTORS
330
812
102
}
330
1F
100
AcDbEntity
  8
LC-001-002-----0
 62
     7
370
    50
100
AcDbLine
 10
1826.806294
 20
772.395747
 30
0.0
 11
2161.806294
 21
772.395747
 31
0.0
  0
LINE
  5
96
102
{ACAD_REACTORS
330
810
102
}
330
1F
100
AcDbEntity
  8
LC-001-002-----0
 62
     7
370
    50
100
AcDbLine
 10
2172.413153
 20
1426.456264
 30
0.0
 11
2177.467767
 21
1427.038525
 31
0.0
  0
ARC
  5
97
102
{ACAD_REACTORS
330
812
102
}
330
1F
100
AcDbEntity
  8
LC-001-002-----0
 62
     7
370
    50
100
AcDbCircle
 10
2161.806294
 20
732.395747
 30
0.0
 40
40.0
100
AcDbArc
 50
0.0
 51
90.0
  0
INSERT
  5
B3
102
{ACAD_REACTORS
330
811
102
}
330
1F
100
AcDbEntity
  8
LC-004-005-----0
 62
     7
370
    25
100
AcDbBlockReference
  2
*X5
 10
0.0
 20
0.0
 30
0.0
  0
LINE
  5
B4
102
{ACAD_REACTORS
330
810
102
}
330
1F
100
AcDbEntity
  8
LC-001-002-----0
 62
     7
370
    50
100
AcDbLine
 10
2177.467767
 20
1427.038525
 30
0.0
 11
2181.989721
 21
1428.524852
 31
0.0
  0
LINE
  5
B5
102
{ACAD_REACTORS
330
810
102
}
330
1F
100
AcDbEntity
  8
LC-001-002-----0
 62
     7
370
    50
100
AcDbLine
 10
2181.989721
 20
1428.524852
 30
0.0
 11
2185.714711
 21
1430.988069
 31
0.0
  0
INSERT
  5
D4
102
{ACAD_REACTORS
330
811
102
}
330
1F
100
AcDbEntity
  8
LC-004-005-----0
 62
     7
370
    25
100
AcDbBlockReference
  2
*X6
 10
0.0
 20
0.0
 30
0.0
  0
LINE
  5
D5
102
{ACAD_REACTORS
330
810
102
}
330
1F
100
AcDbEntity
  8
LC-001-002-----0
 62
     7
370
    50
100
AcDbLine
 10
2185.714711
 20
1430.988069
 30
0.0
 11
2188.631362
 21
1434.330539
 31
0.0
  0
ARC
  5
D6
102
{ACAD_REACTORS
330
810
102
}
330
1F
100
AcDbEntity
  8
LC-001-002-----0
 62
     7
370
    50
100
AcDbCircle
 10
2220.258382
 20
1645.770747
 30
0.0
 40
1.5
100
AcDbArc
 50
90.0
 51
173.0
  0
INSERT
  5
F1
102
{ACAD_REACTORS
330
810
102
}
330
1F
100
AcDbEntity
  8
LC-004-005-----0
 62
     7
370
    25
100
AcDbBlockReference
  2
*X7
 10
0.0
 20
0.0
 30
0.0
  0
ARC
  5
F2
102
{ACAD_REACTORS
330
810
102
}
330
1F
100
AcDbEntity
  8
LC-001-002-----0
 62
     7
370
    50
100
AcDbCircle
 10
2231.711035
 20
1628.270747
 30
0.0
 40
6.000000000000455
100
AcDbArc
 50
90.0
 51
173.0
  0
LINE
  5
F3
102
{ACAD_REACTORS
330
810
102
}
330
1F
100
AcDbEntity
  8
LC-001-002-----0
 62
     7
370
    50
100
AcDbLine
 10
2062.918166
 20
1411.625886
 30
0.0
 11
2172.822392
 21
1415.463826
 31
0.0
  0
ARC
  5
F4
102
{ACAD_REACTORS
330
810
102
}
330
1F
100
AcDbEntity
  8
LC-001-002-----0
 62
     7
370
    50
100
AcDbCircle
 10
2063.127563
 20
1405.629541
 30
0.0
 40
6.000000000000456
100
AcDbArc
 50
92.0
 51
155.0
  0
LINE
  5
F5
102
{ACAD_REACTORS
330
810
102
}
330
1F
100
AcDbEntity
  8
LC-001-002-----0
 62
     7
370
    50
100
AcDbLine
 10
2057.689716
 20
1408.165251
 30
0.0
 11
2057.344769
 21
1407.42551
 31
0.0
  0
LINE
  5
F6
102
{ACAD_REACTORS
330
810
102
}
330
1F
100
AcDbEntity
  8
LC-001-002-----0
 62
     7
370
    50
100
AcDbLine
 10
1749.681294
 20
1647.270747
 30
0.0
 11
1753.164634
 21
1634.270747
 31
0.0
  0
LINE
  5
F7
102
{ACAD_REACTORS
330
810
102
}
330
1F
100
AcDbEntity
  8
LC-001-002-----0
 62
     7
370
    50
100
AcDbLine
 10
1762.856831
 20
1629.001963
 30
0.0
 11
1783.704818
 21
1459.208728
 31
0.0
  0
INSERT
  5
11A
102
{ACAD_REACTORS
330
810
102
}
330
1F
100
AcDbEntity
  8
LC-004-005-----0
 62
     7
370
    25
100
AcDbBlockReference
  2
*X8
 10
0.0
 20
0.0
 30
0.0
  0
LINE
  5
11B
102
{ACAD_REACTORS
330
810
102
}
330
1F
100
AcDbEntity
  8
LC-001-002-----0
 62
     7
370
    50
100
AcDbLine
 10
2188.631362
 20
1434.330539
 30
0.0
 11
2190.881357
 21
1438.384336
 31
0.0
  0
LINE
  5
11C
102
{ACAD_REACTORS
330
810
102
}
330
1F
100
AcDbEntity
  8
LC-001-002-----0
 62
     7
370
    50
100
AcDbLine
 10
1931.267819
 20
1407.42551
 30
0.0
 11
1930.922873
 21
1408.165251
 31
0.0
  0
LINE
  5
11D
102
{ACAD_REACTORS
330
810
102
}
330
1F
100
AcDbEntity
  8
LC-001-002-----0
 62
     7
370
    50
100
AcDbLine
 10
1769.843026
 20
1645.953551
 30
0.0
 11
1792.638521
 21
1460.299139
 31
0.0
  0
LINE
  5
11E
102
{ACAD_REACTORS
330
810
102
}
330
1F
100
AcDbEntity
  8
LC-001-002-----0
 62
     7
370
    50
100
AcDbLine
 10
1925.694423
 20
1411.625886
 30
0.0
 11
1815.790197
 21
1415.463826
 31
0.0
  0
ARC
  5
11F
102
{ACAD_REACTORS
330
810
102
}
330
1F
100
AcDbEntity
  8
LC-001-002-----0
 62
     7
370
    50
100
AcDbCircle
 10
1756.901554
 20
1628.270747
 30
0.0
 40
6.000000000000321
100
AcDbArc
 50
7.0
 51
90.0
  0
ARC
  5
120
102
{ACAD_REACTORS
330
810
102
}
330
1F
100
AcDbEntity
  8
LC-001-002-----0
 62
     7
370
    50
100
AcDbCircle
 10
1768.354206
 20
1645.770747
 30
0.0
 40
1.500000000000053
100
AcDbArc
 50
7.0
 51
90.0
  0
LINE
  5
121
102
{ACAD_REACTORS
330
810
102
}
330
1F
100
AcDbEntity
  8
LC-001-002-----0
 62
     7
370
    50
100
AcDbLine
 10
1816.210041
 20
1426.45587
 30
0.0
 11
1935.172107999999
 21
1422.301623
 31
0.0
  0
LINE
  5
122
102
{ACAD_REACTORS
330
810
102
}
330
1F
100
AcDbEntity
  8
LC-001-002-----0
 62
     7
370
    50
100
AcDbLine
 10
1936.133403
 20
1421.389388
 30
0.0
 11
1936.164395
 21
1421.035154
 31
0.0
  0
ARC
  5
123
102
{ACAD_REACTORS
330
810
102
}
330
1F
100
AcDbEntity
  8
LC-001-002-----0
 62
     7
370
    50
100
AcDbCircle
 10
1937.160589
 20
1421.12231
 30
0.0
 40
1.000000000000292
100
AcDbArc
 50
185.0
 51
210.0
  0
ARC
  5
124
102
{ACAD_REACTORS
330
810
102
}
330
1F
100
AcDbEntity
  8
LC-001-002-----0
 62
     7
370
    50
100
AcDbCircle
 10
1937.160589
 20
1421.12231
 30
0.0
 40
0.9999999999996884
100
AcDbArc
 50
210.0
 51
260.0
  0
LINE
  5
125
102
{ACAD_REACTORS
330
810
102
}
330
1F
100
AcDbEntity
  8
LC-001-002-----0
 62
     7
370
    50
100
AcDbLine
 10
1936.986941
 20
1420.137502
 30
0.0
 11
1946.039286
 21
1418.541329
 31
0.0
  0
ARC
  5
126
102
{ACAD_REACTORS
330
810
102
}
330
1F
100
AcDbEntity
  8
LC-001-002-----0
 62
     7
370
    50
100
AcDbCircle
 10
1945.518341
 20
1415.586906
 30
0.0
 40
2.999999999999973
100
AcDbArc
 50
5.0
 51
80.0
  0
LINE
  5
127
102
{ACAD_REACTORS
330
810
102
}
330
1F
100
AcDbEntity
  8
LC-001-002-----0
 62
     7
370
    50
100
AcDbLine
 10
1948.506925
 20
1415.848373
 30
0.0
 11
1949.25737
 21
1407.270747
 31
0.0
  0
LINE
  5
128
102
{ACAD_REACTORS
330
810
102
}
330
1F
100
AcDbEntity
  8
LC-001-002-----0
 62
     7
370
    50
100
AcDbLine
 10
2039.355218
 20
1407.270747
 30
0.0
 11
2040.105663
 21
1415.848373
 31
0.0
  0
LINE
  5
129
102
{ACAD_REACTORS
330
810
102
}
330
1F
100
AcDbEntity
  8
LC-001-002-----0
 62
     7
370
    50
100
AcDbLine
 10
2190.881357
 20
1438.384336
 30
0.0
 11
2192.610779
 21
1443.01058
 31
0.0
  0
LINE
  5
12A
102
{ACAD_REACTORS
330
810
102
}
330
1F
100
AcDbEntity
  8
LC-001-002-----0
 62
     7
370
    50
100
AcDbLine
 10
2192.610779
 20
1443.01058
 30
0.0
 11
2193.950295
 21
1448.102593
 31
0.0
  0
LINE
  5
12B
102
{ACAD_REACTORS
330
810
102
}
330
1F
100
AcDbEntity
  8
LC-001-002-----0
 62
     7
370
    50
100
AcDbLine
 10
2193.950295
 20
1448.102593
 30
0.0
 11
2195.052255
 21
1453.820638
 31
0.0
  0
LINE
  5
12C
102
{ACAD_REACTORS
330
810
102
}
330
1F
100
AcDbEntity
  8
LC-001-002-----0
 62
     7
370
    50
100
AcDbLine
 10
2195.052255
 20
1453.820638
 30
0.0
 11
2195.973832
 21
1460.297218
 31
0.0
  0
ARC
  5
12D
102
{ACAD_REACTORS
330
810
102
}
330
1F
100
AcDbEntity
  8
LC-001-002-----0
 62
     7
370
    50
100
AcDbCircle
 10
2043.094248
 20
1415.586906
 30
0.0
 40
2.999999999999926
100
AcDbArc
 50
100.0
 51
175.0
  0
LINE
  5
12E
102
{ACAD_REACTORS
330
810
102
}
330
1F
100
AcDbEntity
  8
LC-001-002-----0
 62
     7
370
    50
100
AcDbLine
 10
2042.573303
 20
1418.541329
 30
0.0
 11
2051.625647
 21
1420.137502
 31
0.0
  0
ARC
  5
12F
102
{ACAD_REACTORS
330
810
102
}
330
1F
100
AcDbEntity
  8
LC-001-002-----0
 62
     7
370
    50
100
AcDbCircle
 10
2051.451999
 20
1421.12231
 30
0.0
 40
1.000000000000125
100
AcDbArc
 50
280.0
 51
355.0
  0
LINE
  5
130
102
{ACAD_REACTORS
330
810
102
}
330
1F
100
AcDbEntity
  8
LC-001-002-----0
 62
     7
370
    50
100
AcDbLine
 10
2052.448194
 20
1421.035154
 30
0.0
 11
2052.479185000001
 21
1421.389388
 31
0.0
  0
LINE
  5
131
102
{ACAD_REACTORS
330
810
102
}
330
1F
100
AcDbEntity
  8
LC-001-002-----0
 62
     7
370
    50
100
AcDbLine
 10
2053.440481
 20
1422.301623
 30
0.0
 11
2172.402547
 21
1426.45587
 31
0.0
  0
LINE
  5
132
102
{ACAD_REACTORS
330
810
102
}
330
1F
100
AcDbEntity
  8
LC-001-002-----0
 62
     7
370
    50
100
AcDbLine
 10
2204.907503
 20
1459.20655
 30
0.0
 11
2203.646912
 21
1450.489699
 31
0.0
  0
LINE
  5
133
102
{ACAD_REACTORS
330
810
102
}
330
1F
100
AcDbEntity
  8
LC-001-002-----0
 62
     7
370
    50
100
AcDbLine
 10
2203.646912
 20
1450.489699
 30
0.0
 11
2202.109291000001
 21
1442.860605
 31
0.0
  0
LINE
  5
134
102
{ACAD_REACTORS
330
810
102
}
330
1F
100
AcDbEntity
  8
LC-001-002-----0
 62
     7
370
    50
100
AcDbLine
 10
2202.109291000001
 20
1442.860605
 30
0.0
 11
2200.214295
 21
1436.142329
 31
0.0
  0
LINE
  5
135
102
{ACAD_REACTORS
330
810
102
}
330
1F
100
AcDbEntity
  8
LC-001-002-----0
 62
     7
370
    50
100
AcDbLine
 10
2200.214295
 20
1436.142329
 30
0.0
 11
2197.741042
 21
1430.112446
 31
0.0
  0
ARC
  5
136
102
{ACAD_REACTORS
330
810
102
}
330
1F
100
AcDbEntity
  8
LC-001-002-----0
 62
     7
370
    50
100
AcDbCircle
 10
1935.137209
 20
1421.302232
 30
0.0
 40
1.000000000177017
100
AcDbArc
 50
5.0
 51
88.0
  0
ARC
  5
137
102
{ACAD_REACTORS
330
810
102
}
330
1F
100
AcDbEntity
  8
LC-001-002-----0
 62
     7
370
    50
100
AcDbCircle
 10
2053.47538
 20
1421.302232
 30
0.0
 40
0.9999999999124952
100
AcDbArc
 50
92.0
 51
175.0
  0
LINE
  5
138
102
{ACAD_REACTORS
330
810
102
}
330
1F
100
AcDbEntity
  8
LC-001-002-----0
 62
     7
370
    50
100
AcDbLine
 10
2197.741042
 20
1430.112446
 30
0.0
 11
2194.530119
 21
1424.953367
 31
0.0
  0
LINE
  5
139
102
{ACAD_REACTORS
330
810
102
}
330
1F
100
AcDbEntity
  8
LC-001-002-----0
 62
     7
370
    50
100
AcDbLine
 10
2194.530119
 20
1424.953367
 30
0.0
 11
2190.453726
 21
1420.838672
 31
0.0
  0
LINE
  5
13A
102
{ACAD_REACTORS
330
810
102
}
330
1F
100
AcDbEntity
  8
LC-001-002-----0
 62
     7
370
    50
100
AcDbLine
 10
2190.453726
 20
1420.838672
 30
0.0
 11
2185.41763
 21
1417.90778
 31
0.0
  0
LINE
  5
13B
102
{ACAD_REACTORS
330
810
102
}
330
1F
100
AcDbEntity
  8
LC-001-002-----0
 62
     7
370
    50
100
AcDbLine
 10
2185.41763
 20
1417.90778
 30
0.0
 11
2179.456963
 21
1416.163947
 31
0.0
  0
LINE
  5
13C
102
{ACAD_REACTORS
330
810
102
}
330
1F
100
AcDbEntity
  8
LC-001-002-----0
 62
     7
370
    50
100
AcDbLine
 10
2179.456963
 20
1416.163947
 30
0.0
 11
2178.580484
 21
1416.07146
 31
0.0
  0
LINE
  5
13D
102
{ACAD_REACTORS
330
811
102
}
330
1F
100
AcDbEntity
  8
LC-001-002-----0
 62
     7
370
    50
100
AcDbLine
 10
2188.630758
 20
1203.001963
 30
0.0
 11
2167.968762
 21
1034.723507
 31
0.0
  0
LINE
  5
13E
102
{ACAD_REACTORS
330
811
102
}
330
1F
100
AcDbEntity
  8
LC-001-002-----0
 62
     7
370
    50
100
AcDbLine
 10
1799.981831
 20
1203.001963
 30
0.0
 11
1821.337124
 21
1029.077053
 31
0.0
  0
LINE
  5
13F
102
{ACAD_REACTORS
330
811
102
}
330
1F
100
AcDbEntity
  8
LC-001-002-----0
 62
     7
370
    50
100
AcDbLine
 10
2198.322955
 20
1208.270747
 30
0.0
 11
2194.586035
 21
1208.270747
 31
0.0
  0
LINE
  5
140
102
{ACAD_REACTORS
330
811
102
}
330
1F
100
AcDbEntity
  8
LC-001-002-----0
 62
     7
370
    50
100
AcDbLine
 10
1794.026554
 20
1208.270747
 30
0.0
 11
1790.289634
 21
1208.270747
 31
0.0
  0
LINE
  5
141
102
{ACAD_REACTORS
330
811
102
}
330
1F
100
AcDbEntity
  8
LC-001-002-----0
 62
     7
370
    50
100
AcDbLine
 10
2181.644563
 20
1219.953551
 30
0.0
 11
2159.035847
 21
1035.820331
 31
0.0
  0
LINE
  5
142
102
{ACAD_REACTORS
330
811
102
}
330
1F
100
AcDbEntity
  8
LC-001-002-----0
 62
     7
370
    50
100
AcDbLine
 10
1806.968026
 20
1219.953551
 30
0.0
 11
1830.27004
 21
1030.173877
 31
0.0
  0
LINE
  5
143
102
{ACAD_REACTORS
330
811
102
}
330
1F
100
AcDbEntity
  8
LC-001-002-----0
 62
     7
370
    50
100
AcDbLine
 10
1830.270265
 20
1030.172041
 30
0.0
 11
1831.195262
 21
1023.675874
 31
0.0
  0
LINE
  5
144
102
{ACAD_REACTORS
330
811
102
}
330
1F
100
AcDbEntity
  8
LC-001-002-----0
 62
     7
370
    50
100
AcDbLine
 10
1831.195262
 20
1023.675874
 30
0.0
 11
1832.302267
 21
1017.943099
 31
0.0
  0
LINE
  5
145
102
{ACAD_REACTORS
330
811
102
}
330
1F
100
AcDbEntity
  8
LC-001-002-----0
 62
     7
370
    50
100
AcDbLine
 10
1832.302267
 20
1017.943099
 30
0.0
 11
1833.648228
 21
1012.843215
 31
0.0
  0
LINE
  5
146
102
{ACAD_REACTORS
330
811
102
}
330
1F
100
AcDbEntity
  8
LC-001-002-----0
 62
     7
370
    50
100
AcDbLine
 10
1833.648228
 20
1012.843215
 30
0.0
 11
1835.387504
 21
1008.211986
 31
0.0
  0
LINE
  5
147
102
{ACAD_REACTORS
330
811
102
}
330
1F
100
AcDbEntity
  8
LC-001-002-----0
 62
     7
370
    50
100
AcDbLine
 10
2201.806294
 20
1221.270747
 30
0.0
 11
1786.806294
 21
1221.270747
 31
0.0
  0
LINE
  5
148
102
{ACAD_REACTORS
330
811
102
}
330
1F
100
AcDbEntity
  8
LC-001-002-----0
 62
     7
370
    50
100
AcDbLine
 10
1835.327786
 20
991.091592
 30
0.0
 11
1831.407438
 21
995.2374689999999
 31
0.0
  0
LINE
  5
149
102
{ACAD_REACTORS
330
811
102
}
330
1F
100
AcDbEntity
  8
LC-001-002-----0
 62
     7
370
    50
100
AcDbLine
 10
1831.407438
 20
995.2374689999999
 30
0.0
 11
1828.312734
 21
1000.378441
 31
0.0
  0
LINE
  5
14A
102
{ACAD_REACTORS
330
811
102
}
330
1F
100
AcDbEntity
  8
LC-001-002-----0
 62
     7
370
    50
100
AcDbLine
 10
1845.91279
 20
986.2178560000002
 30
0.0
 11
1845.790091
 21
986.2575470000001
 31
0.0
  0
LINE
  5
14B
102
{ACAD_REACTORS
330
811
102
}
330
1F
100
AcDbEntity
  8
LC-001-002-----0
 62
     7
370
    50
100
AcDbLine
 10
1835.387504
 20
1008.211986
 30
0.0
 11
1837.649926
 21
1004.160075
 31
0.0
  0
LINE
  5
14C
102
{ACAD_REACTORS
330
811
102
}
330
1F
100
AcDbEntity
  8
LC-001-002-----0
 62
     7
370
    50
100
AcDbLine
 10
1837.649926
 20
1004.160075
 30
0.0
 11
1840.577807
 21
1000.828406
 31
0.0
  0
LINE
  5
14D
102
{ACAD_REACTORS
330
811
102
}
330
1F
100
AcDbEntity
  8
LC-001-002-----0
 62
     7
370
    50
100
AcDbLine
 10
1853.87004
 20
996.3296320000001
 30
0.0
 11
1854.672108
 21
996.301623
 31
0.0
  0
ARC
  5
14E
102
{ACAD_REACTORS
330
811
102
}
330
1F
100
AcDbEntity
  8
LC-001-002-----0
 62
     7
370
    50
100
AcDbCircle
 10
1854.637209
 20
995.302232
 30
0.0
 40
1.000000000000234
100
AcDbArc
 50
5.0
 51
88.0
  0
LINE
  5
14F
102
{ACAD_REACTORS
330
811
102
}
330
1F
100
AcDbEntity
  8
LC-001-002-----0
 62
     7
370
    50
100
AcDbLine
 10
1855.633403
 20
995.389388
 30
0.0
 11
1855.664395
 21
995.0351539999999
 31
0.0
  0
ARC
  5
150
102
{ACAD_REACTORS
330
811
102
}
330
1F
100
AcDbEntity
  8
LC-001-002-----0
 62
     7
370
    50
100
AcDbCircle
 10
1856.660589
 20
995.1223099999999
 30
0.0
 40
1.000000000000333
100
AcDbArc
 50
185.0
 51
210.0
  0
ARC
  5
151
102
{ACAD_REACTORS
330
811
102
}
330
1F
100
AcDbEntity
  8
LC-001-002-----0
 62
     7
370
    50
100
AcDbCircle
 10
1856.660589
 20
995.1223099999999
 30
0.0
 40
0.9999999999996884
100
AcDbArc
 50
210.0
 51
260.0
  0
LINE
  5
152
102
{ACAD_REACTORS
330
811
102
}
330
1F
100
AcDbEntity
  8
LC-001-002-----0
 62
     7
370
    50
100
AcDbLine
 10
1856.486941
 20
994.1375019999998
 30
0.0
 11
1865.539286
 21
992.5413289999999
 31
0.0
  0
ARC
  5
153
102
{ACAD_REACTORS
330
811
102
}
330
1F
100
AcDbEntity
  8
LC-001-002-----0
 62
     7
370
    50
100
AcDbCircle
 10
1865.018341
 20
989.586906
 30
0.0
 40
2.999999999999933
100
AcDbArc
 50
5.0
 51
80.0
  0
LINE
  5
154
102
{ACAD_REACTORS
330
811
102
}
330
1F
100
AcDbEntity
  8
LC-001-002-----0
 62
     7
370
    50
100
AcDbLine
 10
1868.006925
 20
989.848373
 30
0.0
 11
1868.75737
 21
981.2707470000001
 31
0.0
  0
LINE
  5
155
102
{ACAD_REACTORS
330
811
102
}
330
1F
100
AcDbEntity
  8
LC-001-002-----0
 62
     7
370
    50
100
AcDbLine
 10
2135.435847
 20
1001.976086
 30
0.0
 11
1972.940481
 21
996.301623
 31
0.0
  0
LINE
  5
156
102
{ACAD_REACTORS
330
811
102
}
330
1F
100
AcDbEntity
  8
LC-001-002-----0
 62
     7
370
    50
100
AcDbLine
 10
1828.312734
 20
1000.378441
 30
0.0
 11
1825.92043
 21
1006.34896
 31
0.0
  0
LINE
  5
157
102
{ACAD_REACTORS
330
811
102
}
330
1F
100
AcDbEntity
  8
LC-001-002-----0
 62
     7
370
    50
100
AcDbLine
 10
1825.92043
 20
1006.34896
 30
0.0
 11
1824.077014
 21
1012.981733
 31
0.0
  0
LINE
  5
158
102
{ACAD_REACTORS
330
811
102
}
330
1F
100
AcDbEntity
  8
LC-001-002-----0
 62
     7
370
    50
100
AcDbLine
 10
1824.077014
 20
1012.981733
 30
0.0
 11
1822.573795
 21
1020.501766
 31
0.0
  0
ARC
  5
159
102
{ACAD_REACTORS
330
811
102
}
330
1F
100
AcDbEntity
  8
LC-001-002-----0
 62
     7
370
    50
100
AcDbCircle
 10
2183.133382
 20
1219.770747
 30
0.0
 40
1.5
100
AcDbArc
 50
90.0
 51
173.0
  0
ARC
  5
15A
102
{ACAD_REACTORS
330
811
102
}
330
1F
100
AcDbEntity
  8
LC-001-002-----0
 62
     7
370
    50
100
AcDbCircle
 10
2194.586035
 20
1202.270747
 30
0.0
 40
6.0
100
AcDbArc
 50
90.0
 51
173.0
  0
LINE
  5
15B
102
{ACAD_REACTORS
330
811
102
}
330
1F
100
AcDbEntity
  8
LC-001-002-----0
 62
     7
370
    50
100
AcDbLine
 10
1982.418166
 20
985.6258859999998
 30
0.0
 11
2135.855846
 21
990.9840479999999
 31
0.0
  0
ARC
  5
15C
102
{ACAD_REACTORS
330
811
102
}
330
1F
100
AcDbEntity
  8
LC-001-002-----0
 62
     7
370
    50
100
AcDbCircle
 10
1982.627563
 20
979.629541
 30
0.0
 40
6.000000000000002
100
AcDbArc
 50
92.0
 51
155.0
  0
LINE
  5
15D
102
{ACAD_REACTORS
330
811
102
}
330
1F
100
AcDbEntity
  8
LC-001-002-----0
 62
     7
370
    50
100
AcDbLine
 10
1977.189716
 20
982.1652509999999
 30
0.0
 11
1976.844769
 21
981.4255099999998
 31
0.0
  0
LINE
  5
15E
102
{ACAD_REACTORS
330
811
102
}
330
1F
100
AcDbEntity
  8
LC-001-002-----0
 62
     7
370
    50
100
AcDbLine
 10
1840.577807
 20
1000.828406
 30
0.0
 11
1844.304315
 21
998.3823710000001
 31
0.0
  0
LINE
  5
15F
102
{ACAD_REACTORS
330
811
102
}
330
1F
100
AcDbEntity
  8
LC-001-002-----0
 62
     7
370
    50
100
AcDbLine
 10
1844.304315
 20
998.3823710000001
 30
0.0
 11
1848.81567
 21
996.9086819999999
 31
0.0
  0
LINE
  5
160
102
{ACAD_REACTORS
330
811
102
}
330
1F
100
AcDbEntity
  8
LC-001-002-----0
 62
     7
370
    50
100
AcDbLine
 10
1848.81567
 20
996.9086819999999
 30
0.0
 11
1853.859233
 21
996.3300109999998
 31
0.0
  0
LINE
  5
161
102
{ACAD_REACTORS
330
811
102
}
330
1F
100
AcDbEntity
  8
LC-001-002-----0
 62
     7
370
    50
100
AcDbLine
 10
2167.968492
 20
1034.721312
 30
0.0
 11
2166.711437
 21
1026.026755
 31
0.0
  0
LINE
  5
162
102
{ACAD_REACTORS
330
811
102
}
330
1F
100
AcDbEntity
  8
LC-001-002-----0
 62
     7
370
    50
100
AcDbLine
 10
2166.711437
 20
1026.026755
 30
0.0
 11
2165.178558
 21
1018.415006
 31
0.0
  0
LINE
  5
163
102
{ACAD_REACTORS
330
811
102
}
330
1F
100
AcDbEntity
  8
LC-001-002-----0
 62
     7
370
    50
100
AcDbLine
 10
2165.178558
 20
1018.415006
 30
0.0
 11
2163.289078
 21
1011.706191
 31
0.0
  0
LINE
  5
164
102
{ACAD_REACTORS
330
811
102
}
330
1F
100
AcDbEntity
  8
LC-001-002-----0
 62
     7
370
    50
100
AcDbLine
 10
2163.289078
 20
1011.706191
 30
0.0
 11
2160.824452
 21
1005.682825
 31
0.0
  0
LINE
  5
165
102
{ACAD_REACTORS
330
811
102
}
330
1F
100
AcDbEntity
  8
LC-001-002-----0
 62
     7
370
    50
100
AcDbLine
 10
2160.824452
 20
1005.682825
 30
0.0
 11
2157.623374
 21
1000.52238
 31
0.0
  0
LINE
  5
166
102
{ACAD_REACTORS
330
811
102
}
330
1F
100
AcDbEntity
  8
LC-001-002-----0
 62
     7
370
    50
100
AcDbLine
 10
2157.623374
 20
1000.52238
 30
0.0
 11
2153.552664000001
 21
996.3961359999998
 31
0.0
  0
LINE
  5
167
102
{ACAD_REACTORS
330
811
102
}
330
1F
100
AcDbEntity
  8
LC-001-002-----0
 62
     7
370
    50
100
AcDbLine
 10
1850.085553
 20
982.8886359999998
 30
0.0
 11
1850.767819
 21
981.4255099999998
 31
0.0
  0
ARC
  5
168
102
{ACAD_REACTORS
330
811
102
}
330
1F
100
AcDbEntity
  8
LC-001-002-----0
 62
     7
370
    50
100
AcDbCircle
 10
1794.026554
 20
1202.270747
 30
0.0
 40
5.999999999999307
100
AcDbArc
 50
7.0
 51
90.0
  0
ARC
  5
169
102
{ACAD_REACTORS
330
811
102
}
330
1F
100
AcDbEntity
  8
LC-001-002-----0
 62
     7
370
    50
100
AcDbCircle
 10
1805.479206
 20
1219.770747
 30
0.0
 40
1.500000000000053
100
AcDbArc
 50
7.0
 51
90.0
  0
ARC
  5
16A
102
{ACAD_REACTORS
330
811
102
}
330
1F
100
AcDbEntity
  8
LC-001-002-----0
 62
     7
370
    50
100
AcDbCircle
 10
1844.647868
 20
980.3527109999999
 30
0.0
 40
5.999996399799772
100
AcDbArc
 50
25.06383
 51
77.82955600000001
  0
LINE
  5
16B
102
{ACAD_REACTORS
330
811
102
}
330
1F
100
AcDbEntity
  8
LC-001-002-----0
 62
     7
370
    50
100
AcDbLine
 10
1959.605663
 20
989.848373
 30
0.0
 11
1958.855218
 21
981.2707470000001
 31
0.0
  0
ARC
  5
16C
102
{ACAD_REACTORS
330
811
102
}
330
1F
100
AcDbEntity
  8
LC-001-002-----0
 62
     7
370
    50
100
AcDbCircle
 10
1962.594248
 20
989.586906
 30
0.0
 40
2.999999999999478
100
AcDbArc
 50
100.0
 51
175.0
  0
LINE
  5
16D
102
{ACAD_REACTORS
330
811
102
}
330
1F
100
AcDbEntity
  8
LC-001-002-----0
 62
     7
370
    50
100
AcDbLine
 10
1971.125647
 20
994.1375019999998
 30
0.0
 11
1962.073303
 21
992.5413289999999
 31
0.0
  0
ARC
  5
16E
102
{ACAD_REACTORS
330
811
102
}
330
1F
100
AcDbEntity
  8
LC-001-002-----0
 62
     7
370
    50
100
AcDbCircle
 10
1970.951999
 20
995.1223099999999
 30
0.0
 40
1.000000000000125
100
AcDbArc
 50
280.0
 51
355.0
  0
LINE
  5
16F
102
{ACAD_REACTORS
330
811
102
}
330
1F
100
AcDbEntity
  8
LC-001-002-----0
 62
     7
370
    50
100
AcDbLine
 10
1971.979185
 20
995.389388
 30
0.0
 11
1971.948194
 21
995.0351539999999
 31
0.0
  0
ARC
  5
170
102
{ACAD_REACTORS
330
811
102
}
330
1F
100
AcDbEntity
  8
LC-001-002-----0
 62
     7
370
    50
100
AcDbCircle
 10
1972.97538
 20
995.302232
 30
0.0
 40
0.9999999999998488
100
AcDbArc
 50
92.0
 51
175.0
  0
LINE
  5
171
102
{ACAD_REACTORS
330
811
102
}
330
1F
100
AcDbEntity
  8
LC-001-002-----0
 62
     7
370
    50
100
AcDbLine
 10
2153.552664000001
 20
996.3961359999998
 30
0.0
 11
2148.508513
 21
993.446795
 31
0.0
  0
LINE
  5
172
102
{ACAD_REACTORS
330
811
102
}
330
1F
100
AcDbEntity
  8
LC-001-002-----0
 62
     7
370
    50
100
AcDbLine
 10
1822.573795
 20
1020.501766
 30
0.0
 11
1821.337381
 21
1029.074963
 31
0.0
  0
LINE
  5
173
102
{ACAD_REACTORS
330
811
102
}
330
1F
100
AcDbEntity
  8
LC-001-002-----0
 62
     7
370
    50
100
AcDbLine
 10
2148.508513
 20
993.446795
 30
0.0
 11
2142.524849
 21
991.6894819999999
 31
0.0
  0
LINE
  5
174
102
{ACAD_REACTORS
330
811
102
}
330
1F
100
AcDbEntity
  8
LC-001-002-----0
 62
     7
370
    50
100
AcDbLine
 10
2142.524849
 20
991.6894819999999
 30
0.0
 11
2135.866
 21
990.9844039999999
 31
0.0
  0
LINE
  5
175
102
{ACAD_REACTORS
330
810
102
}
330
1F
100
AcDbEntity
  8
LC-001-002-----0
 62
     7
370
    50
100
AcDbLine
 10
1792.638746
 20
1460.297309
 30
0.0
 11
1793.563153
 21
1453.803591
 31
0.0
  0
LINE
  5
176
102
{ACAD_REACTORS
330
810
102
}
330
1F
100
AcDbEntity
  8
LC-001-002-----0
 62
     7
370
    50
100
AcDbLine
 10
1793.563153
 20
1453.803591
 30
0.0
 11
1794.668965
 21
1448.07286
 31
0.0
  0
LINE
  5
177
102
{ACAD_REACTORS
330
810
102
}
330
1F
100
AcDbEntity
  8
LC-001-002-----0
 62
     7
370
    50
100
AcDbLine
 10
1794.668965
 20
1448.07286
 30
0.0
 11
1796.01296
 21
1442.974699
 31
0.0
  0
LINE
  5
178
102
{ACAD_REACTORS
330
810
102
}
330
1F
100
AcDbEntity
  8
LC-001-002-----0
 62
     7
370
    50
100
AcDbLine
 10
1796.01296
 20
1442.974699
 30
0.0
 11
1797.749186
 21
1438.344618
 31
0.0
  0
LINE
  5
179
102
{ACAD_REACTORS
330
810
102
}
330
1F
100
AcDbEntity
  8
LC-001-002-----0
 62
     7
370
    50
100
AcDbLine
 10
1797.749186
 20
1438.344618
 30
0.0
 11
1800.007289
 21
1434.292673
 31
0.0
  0
LINE
  5
17A
102
{ACAD_REACTORS
330
810
102
}
330
1F
100
AcDbEntity
  8
LC-001-002-----0
 62
     7
370
    50
100
AcDbLine
 10
1800.007289
 20
1434.292673
 30
0.0
 11
1802.930094
 21
1430.959526
 31
0.0
  0
LINE
  5
17B
102
{ACAD_REACTORS
330
810
102
}
330
1F
100
AcDbEntity
  8
LC-001-002-----0
 62
     7
370
    50
100
AcDbLine
 10
1802.930094
 20
1430.959526
 30
0.0
 11
1806.651665
 21
1428.5112
 31
0.0
  0
LINE
  5
17C
102
{ACAD_REACTORS
330
810
102
}
330
1F
100
AcDbEntity
  8
LC-001-002-----0
 62
     7
370
    50
100
AcDbLine
 10
1806.651665
 20
1428.5112
 30
0.0
 11
1811.158896
 21
1427.035589
 31
0.0
  0
LINE
  5
17D
102
{ACAD_REACTORS
330
810
102
}
330
1F
100
AcDbEntity
  8
LC-001-002-----0
 62
     7
370
    50
100
AcDbLine
 10
1811.158896
 20
1427.035589
 30
0.0
 11
1816.199182
 21
1426.456273
 31
0.0
  0
LINE
  5
17E
102
{ACAD_REACTORS
330
810
102
}
330
1F
100
AcDbEntity
  8
LC-001-002-----0
 62
     7
370
    50
100
AcDbLine
 10
1815.790435
 20
1415.463818
 30
0.0
 11
1810.733939
 21
1415.90211
 31
0.0
  0
LINE
  5
17F
102
{ACAD_REACTORS
330
810
102
}
330
1F
100
AcDbEntity
  8
LC-001-002-----0
 62
     7
370
    50
100
AcDbLine
 10
1810.733939
 20
1415.90211
 30
0.0
 11
1810.032104
 21
1416.07146
 31
0.0
  0
LINE
  5
180
102
{ACAD_REACTORS
330
810
102
}
330
1F
100
AcDbEntity
  8
LC-001-002-----0
 62
     7
370
    50
100
AcDbLine
 10
1810.032104
 20
1416.07146
 30
0.0
 11
1809.155626
 21
1416.163947
 31
0.0
  0
LINE
  5
181
102
{ACAD_REACTORS
330
810
102
}
330
1F
100
AcDbEntity
  8
LC-001-002-----0
 62
     7
370
    50
100
AcDbLine
 10
1809.155626
 20
1416.163947
 30
0.0
 11
1803.194959
 21
1417.90778
 31
0.0
  0
LINE
  5
182
102
{ACAD_REACTORS
330
810
102
}
330
1F
100
AcDbEntity
  8
LC-001-002-----0
 62
     7
370
    50
100
AcDbLine
 10
1803.194959
 20
1417.90778
 30
0.0
 11
1798.158862
 21
1420.838672
 31
0.0
  0
LINE
  5
183
102
{ACAD_REACTORS
330
810
102
}
330
1F
100
AcDbEntity
  8
LC-001-002-----0
 62
     7
370
    50
100
AcDbLine
 10
1798.158862
 20
1420.838672
 30
0.0
 11
1794.08247
 21
1424.953367
 31
0.0
  0
LINE
  5
184
102
{ACAD_REACTORS
330
810
102
}
330
1F
100
AcDbEntity
  8
LC-001-002-----0
 62
     7
370
    50
100
AcDbLine
 10
1794.08247
 20
1424.953367
 30
0.0
 11
1790.871546
 21
1430.112446
 31
0.0
  0
LINE
  5
185
102
{ACAD_REACTORS
330
810
102
}
330
1F
100
AcDbEntity
  8
LC-001-002-----0
 62
     7
370
    50
100
AcDbLine
 10
1790.871546
 20
1430.112446
 30
0.0
 11
1788.398293
 21
1436.142329
 31
0.0
  0
LINE
  5
186
102
{ACAD_REACTORS
330
810
102
}
330
1F
100
AcDbEntity
  8
LC-001-002-----0
 62
     7
370
    50
100
AcDbLine
 10
1788.398293
 20
1436.142329
 30
0.0
 11
1786.503298
 21
1442.860605
 31
0.0
  0
LINE
  5
187
102
{ACAD_REACTORS
330
810
102
}
330
1F
100
AcDbEntity
  8
LC-001-002-----0
 62
     7
370
    50
100
AcDbLine
 10
1786.503298
 20
1442.860605
 30
0.0
 11
1784.965676
 21
1450.489699
 31
0.0
  0
LINE
  5
188
102
{ACAD_REACTORS
330
810
102
}
330
1F
100
AcDbEntity
  8
LC-001-002-----0
 62
     7
370
    50
100
AcDbLine
 10
1784.965676
 20
1450.489699
 30
0.0
 11
1783.705086
 21
1459.20655
 31
0.0
  0
LINE
  5
189
102
{ACAD_REACTORS
330
811
102
}
330
1F
100
AcDbEntity
  8
LC-001-002-----0
 62
     7
370
    50
100
AcDbLine
 10
2135.446437
 20
1001.976458
 30
0.0
 11
2140.503167
 21
1002.557832
 31
0.0
  0
LINE
  5
18A
102
{ACAD_REACTORS
330
811
102
}
330
1F
100
AcDbEntity
  8
LC-001-002-----0
 62
     7
370
    50
100
AcDbLine
 10
2140.503167
 20
1002.557832
 30
0.0
 11
2145.027975
 21
1004.04131
 31
0.0
  0
LINE
  5
18B
102
{ACAD_REACTORS
330
811
102
}
330
1F
100
AcDbEntity
  8
LC-001-002-----0
 62
     7
370
    50
100
AcDbLine
 10
2145.027975
 20
1004.04131
 30
0.0
 11
2148.757647
 21
1006.500992
 31
0.0
  0
LINE
  5
18C
102
{ACAD_REACTORS
330
811
102
}
330
1F
100
AcDbEntity
  8
LC-001-002-----0
 62
     7
370
    50
100
AcDbLine
 10
2148.757647
 20
1006.500992
 30
0.0
 11
2151.679946
 21
1009.841299
 31
0.0
  0
LINE
  5
18D
102
{ACAD_REACTORS
330
811
102
}
330
1F
100
AcDbEntity
  8
LC-001-002-----0
 62
     7
370
    50
100
AcDbLine
 10
2151.679946
 20
1009.841299
 30
0.0
 11
2153.934954
 21
1013.895032
 31
0.0
  0
LINE
  5
18E
102
{ACAD_REACTORS
330
811
102
}
330
1F
100
AcDbEntity
  8
LC-001-002-----0
 62
     7
370
    50
100
AcDbLine
 10
2153.934954
 20
1013.895032
 30
0.0
 11
2155.667994
 21
1018.522881
 31
0.0
  0
LINE
  5
18F
102
{ACAD_REACTORS
330
811
102
}
330
1F
100
AcDbEntity
  8
LC-001-002-----0
 62
     7
370
    50
100
AcDbLine
 10
2155.667994
 20
1018.522881
 30
0.0
 11
2157.009822
 21
1023.617169
 31
0.0
  0
LINE
  5
190
102
{ACAD_REACTORS
330
811
102
}
330
1F
100
AcDbEntity
  8
LC-001-002-----0
 62
     7
370
    50
100
AcDbLine
 10
2157.009822
 20
1023.617169
 30
0.0
 11
2158.113247
 21
1029.338184
 31
0.0
  0
LINE
  5
191
102
{ACAD_REACTORS
330
811
102
}
330
1F
100
AcDbEntity
  8
LC-001-002-----0
 62
     7
370
    50
100
AcDbLine
 10
2158.113247
 20
1029.338184
 30
0.0
 11
2159.03561
 21
1035.818403
 31
0.0
  0
LINE
  5
192
102
{ACAD_REACTORS
330
810
102
}
330
1F
100
AcDbEntity
  8
LC-001-002-----0
 62
     7
370
    25
100
AcDbLine
 10
2052.556294
 20
1422.270747
 30
0.0
 11
1936.056294
 21
1422.270747
 31
0.0
  0
LINE
  5
193
330
1F
100
AcDbEntity
  8
LC-003-003-----0
 62
     7
370
    25
100
AcDbLine
 10
1786.806294
 20
1221.270747
 30
0.0
 11
1786.806294
 21
1107.543677
 31
0.0
  0
INSERT
  5
1AD
330
1F
100
AcDbEntity
  8
LC-003-003-----0
 62
     7
370
    25
100
AcDbBlockReference
  2
LCDIM1
 10
0.0
 20
0.0
 30
0.0
  0
LINE
  5
1AE
330
1F
100
AcDbEntity
  8
LC-003-003-----0
 62
     7
370
    25
100
AcDbLine
 10
1790.289635
 20
1208.270743
 30
0.0
 11
1815.929037
 21
1112.583191
 31
0.0
  0
DIMENSION
  5
1AF
330
1F
100
AcDbEntity
  8
LC-003-003-----0
 62
     7
370
    25
100
AcDbDimension
  2
*D10
 10
1575.0
 20
1407.270747
 30
0.0
 11
1560.0
 21
1527.270747
 31
0.0
 70
   160
 71
     5
 42
240.0
 53
90.0
  3
LC-DIM-L-0025-02-02
100
AcDbAlignedDimension
 13
1709.681294
 23
1647.270747
 33
0.0
 14
1726.806294
 24
1407.270747
 34
0.0
 50
90.0
100
AcDbRotatedDimension
  0
DIMENSION
  5
1BC
330
1F
100
AcDbEntity
  8
LC-003-003-----0
 62
     7
370
    25
100
AcDbDimension
  2
*D11
 10
1675.0
 20
303.145747
 30
0.0
 11
1660.0
 21
527.770747
 31
0.0
 70
   160
 71
     5
 42
449.2499999999999
 53
90.0
  3
LC-DIM-L-0025-02-02
100
AcDbAlignedDimension
 13
1766.806294
 23
752.395747
 33
0.0
 14
1766.806294
 24
303.145747
 34
0.0
 50
90.0
100
AcDbRotatedDimension
  0
DIMENSION
  5
1CA
330
1F
100
AcDbEntity
  8
LC-003-003-----0
 62
     7
370
    25
100
AcDbDimension
  2
*D12
 10
2181.806294
 20
150.0
 30
0.0
 11
1994.306294
 21
165.0
 31
0.0
 70
   160
 71
     5
 42
375.0
  3
LC-DIM-L-0025-02-02
100
AcDbAlignedDimension
 13
1806.806294
 23
263.145747
 33
0.0
 14
2181.806294
 24
263.145747
 34
0.0
100
AcDbRotatedDimension
  0
DIMENSION
  5
7E9
330
1F
100
AcDbEntity
  8
LC-003-003-----0
 62
     7
370
    25
100
AcDbDimension
  2
*D31
 10
1913.806294
 20
200.0
 30
0.0
 11
1860.306294
 21
215.0
 31
0.0
 70
   160
 71
     5
 42
107.0
  3
LC-DIM-L-0025-02-02
100
AcDbAlignedDimension
 13
1806.806294
 23
263.145747
 33
0.0
 14
1913.806294
 24
263.145747
 34
0.0
100
AcDbRotatedDimension
  0
DIMENSION
  5
7F7
330
1F
100
AcDbEntity
  8
LC-003-003-----0
 62
     7
370
    25
100
AcDbDimension
  2
*D32
 10
2161.806294
 20
732.395747
 30
0.0
 11
2227.939088
 21
773.945719
 31
0.0
 70
   164
 71
     5
 42
40.0
  3
LC-DIM-R-0025-02-02
100
AcDbRadialDimension
 15
2192.442399
 25
758.1140099999999
 35
0.0
 40
1.0
  0
DIMENSION
  5
800
330
1F
100
AcDbEntity
  8
LC-003-003-----0
 62
     7
370
    25
100
AcDbDimension
  2
*D33
 10
2161.806294
 20
732.395747
 30
0.0
 11
2176.253932
 21
730.7609119999999
 31
0.0
 70
   164
 71
     5
 42
20.0
  3
LC-DIM-R-0025-02-02
100
AcDbRadialDimension
 15
2146.048683
 25
720.0791849999999
 35
0.0
 40
1.0
  0
ENDSEC
  0
SECTION
  2
OBJECTS
  0
DICTIONARY
  5
C
330
0
100
AcDbDictionary
281
     1
  3
ACAD_COLOR
350
81A
  3
ACAD_GROUP
350
D
  3
ACAD_LAYOUT
350
1A
  3
ACAD_MATERIAL
350
819
  3
ACAD_MLINESTYLE
350
17
  3
ACAD_PLOTSETTINGS
350
19
  3
ACAD_PLOTSTYLENAME
350
E
  3
ACDBHEADERROUNDTRIPXREC
350
822
  3
AcDbVariableDictionary
350
81C
  3
DWGPROPS
350
821
  0
DICTIONARY
  5
81A
102
{ACAD_REACTORS
330
C
102
}
330
C
100
AcDbDictionary
281
     1
  0
DICTIONARY
  5
D
102
{ACAD_REACTORS
330
C
102
}
330
C
100
AcDbDictionary
281
     1
  3
LCGROUP7540
350
812
  3
LCGROUP7542
350
811
  3
LCGROUP7545
350
810
  3
LCGROUP7754
350
80B
  3
LCGROUP7767
350
80D
  3
LCGROUP7773
350
80C
  3
LCGROUP7783
350
80E
  3
LCGROUP7799
350
80F
  3
LCGROUP7871
350
813
  3
LCGROUP7884
350
814
  3
LCGROUP7890
350
809
  3
LCGROUP7914
350
80A
  0
DICTIONARY
  5
1A
102
{ACAD_REACTORS
330
C
102
}
330
C
100
AcDbDictionary
281
     1
  3
Layout1
350
1E
  3
Layout2
350
26
  3
Model
350
22
  0
DICTIONARY
  5
819
102
{ACAD_REACTORS
330
C
102
}
330
C
100
AcDbDictionary
281
     1
  0
DICTIONARY
  5
17
102
{ACAD_REACTORS
330
C
102
}
330
C
100
AcDbDictionary
281
     1
  3
Standard
350
18
  0
DICTIONARY
  5
19
102
{ACAD_REACTORS
330
C
102
}
330
C
100
AcDbDictionary
281
     1
  0
ACDBDICTIONARYWDFLT
  5
E
102
{ACAD_REACTORS
330
C
102
}
330
C
100
AcDbDictionary
281
     1
  3
Normal
350
F
100
AcDbDictionaryWithDefault
340
F
  0
DICTIONARY
  5
822
102
{ACAD_REACTORS
330
C
102
}
330
C
100
AcDbDictionary
281
     1
  3
COLORDICT
350
824
  3
MATERIALDICT
350
823
  0
DICTIONARY
  5
81C
102
{ACAD_REACTORS
330
C
102
}
330
C
100
AcDbDictionary
281
     1
  3
DIMASSOC
350
81E
  3
HIDETEXT
350
81D
  3
PROJECTNAME
350
81F
  0
XRECORD
  5
821
102
{ACAD_REACTORS
330
C
102
}
330
C
100
AcDbXrecord
280
     1
  1
DWGPROPS COOKIE
  2

  3

  4

  6

  7

  8

  9

300
=
301
=
302
=
303
=
304
=
305
=
306
=
307
=
308
=
309
=
 40
0.0005081944444444
 41
2455509.580695521
 42
2455898.448125382
  1

 90
        0
  0
GROUP
  5
812
102
{ACAD_REACTORS
330
D
102
}
330
D
100
AcDbGroup
300
GRP7540
 70
     1
 71
     1
340
38
340
41
340
61
340
62
340
63
340
64
340
65
340
66
340
67
340
68
340
69
340
6A
340
6F
340
70
340
71
340
74
340
76
340
94
340
95
340
97
  0
GROUP
  5
811
102
{ACAD_REACTORS
330
D
102
}
330
D
100
AcDbGroup
300
GRP7542
 70
     1
 71
     1
340
39
340
3A
340
3D
340
3E
340
40
340
6D
340
85
340
B3
340
D4
340
13D
340
13E
340
13F
340
140
340
141
340
142
340
143
340
144
340
145
340
146
340
147
340
148
340
149
340
14A
340
14B
340
14C
340
14D
340
14E
340
14F
340
150
340
151
340
152
340
153
340
154
340
155
340
156
340
157
340
158
340
159
340
15A
340
15B
340
15C
340
15D
340
15E
340
15F
340
160
340
161
340
162
340
163
340
164
340
165
340
166
340
167
340
168
340
169
340
16A
340
16B
340
16C
340
16D
340
16E
340
16F
340
170
340
171
340
172
340
173
340
174
340
189
340
18A
340
18B
340
18C
340
18D
340
18E
340
18F
340
190
340
191
  0
GROUP
  5
810
102
{ACAD_REACTORS
330
D
102
}
330
D
100
AcDbGroup
300
GRP7545
 70
     1
 71
     1
340
3B
340
3C
340
3F
340
6B
340
6C
340
6E
340
72
340
73
340
75
340
93
340
96
340
B4
340
B5
340
D5
340
D6
340
F1
340
F2
340
F3
340
F4
340
F5
340
F6
340
F7
340
11A
340
11B
340
11C
340
11D
340
11E
340
11F
340
120
340
121
340
122
340
123
340
124
340
125
340
126
340
127
340
128
340
129
340
12A
340
12B
340
12C
340
12D
340
12E
340
12F
340
130
340
131
340
132
340
133
340
134
340
135
340
136
340
137
340
138
340
139
340
13A
340
13B
340
13C
340
175
340
176
340
177
340
178
340
179
340
17A
340
17B
340
17C
340
17D
340
17E
340
17F
340
180
340
181
340
182
340
183
340
184
340
185
340
186
340
187
340
188
340
192
  0
GROUP
  5
80B
102
{ACAD_REACTORS
330
D
102
}
330
D
100
AcDbGroup
300
GRP7754
 70
     1
 71
     1
  0
GROUP
  5
80D
102
{ACAD_REACTORS
330
D
102
}
330
D
100
AcDbGroup
300
S:\PKT-WS
 70
     1
 71
     1
  0
GROUP
  5
80C
102
{ACAD_REACTORS
330
D
102
}
330
D
100
AcDbGroup
300
GRP7773
 70
     1
 71
     1
  0
GROUP
  5
80E
102
{ACAD_REACTORS
330
D
102
}
330
D
100
AcDbGroup
300
GRP7783
 70
     1
 71
     1
  0
GROUP
  5
80F
102
{ACAD_REACTORS
330
D
102
}
330
D
100
AcDbGroup
300
GRP7799
 70
     1
 71
     1
  0
GROUP
  5
813
102
{ACAD_REACTORS
330
D
102
}
330
D
100
AcDbGroup
300
GRP7871
 70
     1
 71
     1
  0
GROUP
  5
814
102
{ACAD_REACTORS
330
D
102
}
330
D
100
AcDbGroup
300
S:\PKT-WS
 70
     1
 71
     1
  0
GROUP
  5
809
102
{ACAD_REACTORS
330
D
102
}
330
D
100
AcDbGroup
300
GRP7890
 70
     1
 71
     1
  0
GROUP
  5
80A
102
{ACAD_REACTORS
330
D
102
}
330
D
100
AcDbGroup
300
GRP7914
 70
     1
 71
     1
  0
LAYOUT
  5
1E
102
{ACAD_XDICTIONARY
360
825
102
}
102
{ACAD_REACTORS
330
1A
102
}
330
1A
100
AcDbPlotSettings
  1

  2

  4

  6

 40
0.0
 41
0.0
 42
0.0
 43
0.0
 44
0.0
 45
0.0
 46
0.0
 47
0.0
 48
0.0
 49
0.0
140
0.0
141
0.0
142
1.0
143
1.0
 70
   688
 72
     0
 73
     0
 74
     5
  7

 75
    16
147
1.0
148
0.0
149
0.0
100
AcDbLayout
  1
Layout1
 70
     1
 71
     1
 10
-435.0
 20
-307.5
 11
2535.0
 21
1792.5
 12
0.0
 22
0.0
 32
0.0
 14
-435.0
 24
-307.5
 34
0.0
 15
2535.0
 25
1792.5
 35
0.0
146
0.0
 13
0.0
 23
0.0
 33
0.0
 16
1.0
 26
0.0
 36
0.0
 17
0.0
 27
1.0
 37
0.0
 76
     0
330
1B
  0
LAYOUT
  5
26
102
{ACAD_XDICTIONARY
360
829
102
}
102
{ACAD_REACTORS
330
1A
102
}
330
1A
100
AcDbPlotSettings
  1

  2

  4

  6

 40
0.0
 41
0.0
 42
0.0
 43
0.0
 44
0.0
 45
0.0
 46
0.0
 47
0.0
 48
0.0
 49
0.0
140
0.0
141
0.0
142
1.0
143
1.0
 70
   688
 72
     0
 73
     0
 74
     5
  7

 75
    16
147
1.0
148
0.0
149
0.0
100
AcDbLayout
  1
Layout2
 70
     1
 71
     2
 10
0.0
 20
0.0
 11
0.0
 21
0.0
 12
0.0
 22
0.0
 32
0.0
 14
0.0
 24
0.0
 34
0.0
 15
0.0
 25
0.0
 35
0.0
146
0.0
 13
0.0
 23
0.0
 33
0.0
 16
1.0
 26
0.0
 36
0.0
 17
0.0
 27
1.0
 37
0.0
 76
     0
330
23
  0
LAYOUT
  5
22
102
{ACAD_XDICTIONARY
360
827
102
}
102
{ACAD_REACTORS
330
1A
102
}
330
1A
100
AcDbPlotSettings
  1

  2

  4

  6

 40
0.0
 41
0.0
 42
0.0
 43
0.0
 44
0.0
 45
0.0
 46
0.0
 47
0.0
 48
0.0
 49
0.0
140
0.0
141
0.0
142
1.0
143
1.0
 70
  1776
 72
     0
 73
     0
 74
     0
  7

 75
     0
147
1.0
148
0.0
149
0.0
100
AcDbLayout
  1
Model
 70
     1
 71
     0
 10
-435.0
 20
-307.5
 11
2535.0
 21
1792.5
 12
1050.0
 22
1485.0
 32
0.0
 14
-435.0
 24
-307.5
 34
0.0
 15
2535.0
 25
1792.5
 35
0.0
146
0.0
 13
0.0
 23
0.0
 33
0.0
 16
1.0
 26
0.0
 36
0.0
 17
0.0
 27
1.0
 37
0.0
 76
     0
330
1F
  0
MLINESTYLE
  5
18
102
{ACAD_REACTORS
330
17
102
}
330
17
100
AcDbMlineStyle
  2
STANDARD
 70
     0
  3

 62
   256
 51
90.0
 52
90.0
 71
     2
 49
0.5
 62
   256
  6
BYLAYER
 49
-0.5
 62
   256
  6
BYLAYER
  0
ACDBPLACEHOLDER
  5
F
102
{ACAD_REACTORS
330
E
102
}
330
E
  0
XRECORD
  5
824
102
{ACAD_REACTORS
330
822
102
}
330
822
100
AcDbXrecord
280
     1
340
81A
  0
XRECORD
  5
823
102
{ACAD_REACTORS
330
822
102
}
330
822
100
AcDbXrecord
280
     1
340
819
  0
DICTIONARYVAR
  5
81E
102
{ACAD_REACTORS
330
81C
102
}
330
81C
100
DictionaryVariables
280
     0
  1
2
  0
DICTIONARYVAR
  5
81D
102
{ACAD_REACTORS
330
81C
102
}
330
81C
100
DictionaryVariables
280
     0
  1
1
  0
DICTIONARYVAR
  5
81F
102
{ACAD_REACTORS
330
81C
102
}
330
81C
100
DictionaryVariables
280
     0
  1

  0
DICTIONARY
  5
825
330
1E
100
AcDbDictionary
280
     1
281
     1
  3
ACAD_XREC_ROUNDTRIP
360
826
  0
DICTIONARY
  5
829
330
26
100
AcDbDictionary
280
     1
281
     1
  3
ACAD_XREC_ROUNDTRIP
360
82A
  0
DICTIONARY
  5
827
330
22
100
AcDbDictionary
280
     1
281
     1
  3
ACAD_XREC_ROUNDTRIP
360
828
  0
XRECORD
  5
826
102
{ACAD_REACTORS
330
825
102
}
330
825
100
AcDbXrecord
280
     1
102
SHADEPLOT
 70
     0
102
SHADEPLOTRESLEVEL
 70
     2
102
SHADEPLOTCUSTOMDPI
 70
   300
  0
XRECORD
  5
82A
102
{ACAD_REACTORS
330
829
102
}
330
829
100
AcDbXrecord
280
     1
102
SHADEPLOT
 70
     0
102
SHADEPLOTRESLEVEL
 70
     2
102
SHADEPLOTCUSTOMDPI
 70
   300
  0
XRECORD
  5
828
102
{ACAD_REACTORS
330
827
102
}
330
827
100
AcDbXrecord
280
     1
102
SHADEPLOT
 70
     0
102
SHADEPLOTRESLEVEL
 70
     2
102
SHADEPLOTCUSTOMDPI
 70
   300
  0
ENDSEC
  0
EOF
