  0
SECTION
  2
HEADER
  9
$ACADVER
  1
AC1018
  9
$ACADMAINTVER
 70
     0
  9
$DWGCODEPAGE
  3
ANSI_1252
  9
$INSBASE
 10
0.0
 20
0.0
 30
0.0
  9
$EXTMIN
 10
0.0
 20
0.0
 30
0.0
  9
$EXTMAX
 10
2100.0
 20
2970.0
 30
0.0
  9
$LIMMIN
 10
0.0
 20
0.0
  9
$LIMMAX
 10
2100.0
 20
2970.0
  9
$ORTHOMODE
 70
     0
  9
$REGENMODE
 70
     1
  9
$FILLMODE
 70
     1
  9
$QTEXTMODE
 70
     0
  9
$MIRRTEXT
 70
     1
  9
$LTSCALE
 40
10.0
  9
$ATTMODE
 70
     1
  9
$TEXTSIZE
 40
2.5
  9
$TRACEWID
 40
1.0
  9
$TEXTSTYLE
  7
Standard
  9
$CLAYER
  8
0
  9
$CELTYPE
  6
ByLayer
  9
$CECOLOR
 62
     7
  9
$CELTSCALE
 40
1.0
  9
$DISPSILH
 70
     0
  9
$DIMSCALE
 40
10.0
  9
$DIMASZ
 40
3.5
  9
$DIMEXO
 40
0.625
  9
$DIMDLI
 40
3.75
  9
$DIMRND
 40
0.0
  9
$DIMDLE
 40
0.0
  9
$DIMEXE
 40
1.25
  9
$DIMTP
 40
0.0
  9
$DIMTM
 40
0.0
  9
$DIMTXT
 40
3.5
  9
$DIMCEN
 40
2.5
  9
$DIMTSZ
 40
0.0
  9
$DIMTOL
 70
     0
  9
$DIMLIM
 70
     0
  9
$DIMTIH
 70
     0
  9
$DIMTOH
 70
     0
  9
$DIMSE1
 70
     0
  9
$DIMSE2
 70
     0
  9
$DIMTAD
 70
     1
  9
$DIMZIN
 70
     8
  9
$DIMBLK
  1

  9
$DIMASO
 70
     1
  9
$DIMSHO
 70
     1
  9
$DIMPOST
  1

  9
$DIMAPOST
  1

  9
$DIMALT
 70
     0
  9
$DIMALTD
 70
     3
  9
$DIMALTF
 40
0.03937
  9
$DIMLFAC
 40
1.0
  9
$DIMTOFL
 70
     1
  9
$DIMTVP
 40
0.0
  9
$DIMTIX
 70
     0
  9
$DIMSOXD
 70
     0
  9
$DIMSAH
 70
     0
  9
$DIMBLK1
  1

  9
$DIMBLK2
  1

  9
$DIMSTYLE
  2
ISO-25
  9
$DIMCLRD
 70
     0
  9
$DIMCLRE
 70
     0
  9
$DIMCLRT
 70
     0
  9
$DIMTFAC
 40
1.0
  9
$DIMGAP
 40
0.625
  9
$DIMJUST
 70
     0
  9
$DIMSD1
 70
     0
  9
$DIMSD2
 70
     0
  9
$DIMTOLJ
 70
     0
  9
$DIMTZIN
 70
     8
  9
$DIMALTZ
 70
     0
  9
$DIMALTTZ
 70
     0
  9
$DIMUPT
 70
     0
  9
$DIMDEC
 70
     2
  9
$DIMTDEC
 70
     2
  9
$DIMALTU
 70
     2
  9
$DIMALTTD
 70
     3
  9
$DIMTXSTY
  7
Standard
  9
$DIMAUNIT
 70
     0
  9
$DIMADEC
 70
     0
  9
$DIMALTRND
 40
0.0
  9
$DIMAZIN
 70
     0
  9
$DIMDSEP
 70
    44
  9
$DIMATFIT
 70
     3
  9
$DIMFRAC
 70
     0
  9
$DIMLDRBLK
  1

  9
$DIMLUNIT
 70
     2
  9
$DIMLWD
 70
    -2
  9
$DIMLWE
 70
    -2
  9
$DIMTMOVE
 70
     0
  9
$LUNITS
 70
     2
  9
$LUPREC
 70
     4
  9
$SKETCHINC
 40
1.0
  9
$FILLETRAD
 40
10.0
  9
$AUNITS
 70
     0
  9
$AUPREC
 70
     0
  9
$MENU
  1
.
  9
$ELEVATION
 40
0.0
  9
$PELEVATION
 40
0.0
  9
$THICKNESS
 40
0.0
  9
$LIMCHECK
 70
     0
  9
$CHAMFERA
 40
10.0
  9
$CHAMFERB
 40
10.0
  9
$CHAMFERC
 40
20.0
  9
$CHAMFERD
 40
0.0
  9
$SKPOLY
 70
     0
  9
$TDCREATE
 40
2455509.606791053
  9
$TDUCREATE
 40
2455509.565124387
  9
$TDUPDATE
 40
2455509.606791065
  9
$TDUUPDATE
 40
2455509.565124398
  9
$TDINDWG
 40
0.0000000116
  9
$TDUSRTIMER
 40
0.0000000116
  9
$USRTIMER
 70
     1
  9
$ANGBASE
 50
0.0
  9
$ANGDIR
 70
     0
  9
$PDMODE
 70
     0
  9
$PDSIZE
 40
0.0
  9
$PLINEWID
 40
0.0
  9
$SPLFRAME
 70
     0
  9
$SPLINETYPE
 70
     6
  9
$SPLINESEGS
 70
     8
  9
$HANDSEED
  5
13F
  9
$SURFTAB1
 70
     6
  9
$SURFTAB2
 70
     6
  9
$SURFTYPE
 70
     6
  9
$SURFU
 70
     6
  9
$SURFV
 70
     6
  9
$UCSBASE
  2

  9
$UCSNAME
  2

  9
$UCSORG
 10
0.0
 20
0.0
 30
0.0
  9
$UCSXDIR
 10
1.0
 20
0.0
 30
0.0
  9
$UCSYDIR
 10
0.0
 20
1.0
 30
0.0
  9
$UCSORTHOREF
  2

  9
$UCSORTHOVIEW
 70
     0
  9
$UCSORGTOP
 10
0.0
 20
0.0
 30
0.0
  9
$UCSORGBOTTOM
 10
0.0
 20
0.0
 30
0.0
  9
$UCSORGLEFT
 10
0.0
 20
0.0
 30
0.0
  9
$UCSORGRIGHT
 10
0.0
 20
0.0
 30
0.0
  9
$UCSORGFRONT
 10
0.0
 20
0.0
 30
0.0
  9
$UCSORGBACK
 10
0.0
 20
0.0
 30
0.0
  9
$PUCSBASE
  2

  9
$PUCSNAME
  2

  9
$PUCSORG
 10
0.0
 20
0.0
 30
0.0
  9
$PUCSXDIR
 10
1.0
 20
0.0
 30
0.0
  9
$PUCSYDIR
 10
0.0
 20
1.0
 30
0.0
  9
$PUCSORTHOREF
  2

  9
$PUCSORTHOVIEW
 70
     0
  9
$PUCSORGTOP
 10
0.0
 20
0.0
 30
0.0
  9
$PUCSORGBOTTOM
 10
0.0
 20
0.0
 30
0.0
  9
$PUCSORGLEFT
 10
0.0
 20
0.0
 30
0.0
  9
$PUCSORGRIGHT
 10
0.0
 20
0.0
 30
0.0
  9
$PUCSORGFRONT
 10
0.0
 20
0.0
 30
0.0
  9
$PUCSORGBACK
 10
0.0
 20
0.0
 30
0.0
  9
$USERI1
 70
     0
  9
$USERI2
 70
     0
  9
$USERI3
 70
     0
  9
$USERI4
 70
     0
  9
$USERI5
 70
     0
  9
$USERR1
 40
0.0
  9
$USERR2
 40
0.0
  9
$USERR3
 40
0.0
  9
$USERR4
 40
0.0
  9
$USERR5
 40
0.0
  9
$WORLDVIEW
 70
     1
  9
$SHADEDGE
 70
     3
  9
$SHADEDIF
 70
    70
  9
$TILEMODE
 70
     1
  9
$MAXACTVP
 70
    64
  9
$PINSBASE
 10
0.0
 20
0.0
 30
0.0
  9
$PLIMCHECK
 70
     0
  9
$PEXTMIN
 10
0.0
 20
0.0
 30
0.0
  9
$PEXTMAX
 10
2100.0
 20
2970.0
 30
0.0
  9
$PLIMMIN
 10
0.0
 20
0.0
  9
$PLIMMAX
 10
2100.0
 20
2970.0
  9
$UNITMODE
 70
     0
  9
$VISRETAIN
 70
     1
  9
$PLINEGEN
 70
     0
  9
$PSLTSCALE
 70
     1
  9
$TREEDEPTH
 70
  3020
  9
$CMLSTYLE
  2
Standard
  9
$CMLJUST
 70
     0
  9
$CMLSCALE
 40
20.0
  9
$PROXYGRAPHICS
 70
     1
  9
$MEASUREMENT
 70
     1
  9
$CELWEIGHT
370
    -1
  9
$ENDCAPS
280
     0
  9
$JOINSTYLE
280
     0
  9
$LWDISPLAY
290
     0
  9
$INSUNITS
 70
     4
  9
$HYPERLINKBASE
  1

  9
$STYLESHEET
  1

  9
$XEDIT
290
     1
  9
$CEPSNTYPE
380
     0
  9
$PSTYLEMODE
290
     1
  9
$FINGERPRINTGUID
  2
{FAEB1C30-E019-11D5-929B-00C0DF256EC4}
  9
$VERSIONGUID
  2
{FAEB1C32-E019-11D5-929B-00C0DF256EC4}
  9
$EXTNAMES
290
     1
  9
$PSVPSCALE
 40
0.0
  9
$OLESTARTUP
290
     0
  9
$SORTENTS
280
   127
  9
$INDEXCTL
280
     0
  9
$HIDETEXT
280
     1
  9
$XCLIPFRAME
290
     0
  9
$HALOGAP
280
     0
  9
$OBSCOLOR
 70
   257
  9
$OBSLTYPE
280
     0
  9
$INTERSECTIONDISPLAY
280
     0
  9
$INTERSECTIONCOLOR
 70
   257
  9
$DIMASSOC
280
     2
  9
$PROJECTNAME
  1

  0
ENDSEC
  0
SECTION
  2
CLASSES
  0
CLASS
  1
ACDBDICTIONARYWDFLT
  2
AcDbDictionaryWithDefault
  3
ObjectDBX Classes
 90
        0
 91
        1
280
     0
281
     0
  0
ENDSEC
  0
SECTION
  2
TABLES
  0
TABLE
  2
VPORT
  5
8
330
0
100
AcDbSymbolTable
 70
     2
  0
VPORT
  5
29
330
8
100
AcDbSymbolTableRecord
100
AcDbViewportTableRecord
  2
*ACTIVE
 70
     0
 10
0.0
 20
0.0
 11
1.0
 21
1.0
 12
1050.0
 22
1485.0
 13
0.0
 23
0.0
 14
1.0
 24
1.0
 15
0.0
 25
0.0
 16
0.0
 26
0.0
 36
1.0
 17
0.0
 27
0.0
 37
0.0
 40
2970.0
 41
0.707071
 42
50.0
 43
0.0
 44
0.0
 50
0.0
 51
0.0
 71
    16
 72
   100
 73
     1
 74
     0
 75
     0
 76
     0
 77
     0
 78
     0
281
     0
 65
     0
110
0.0
120
0.0
130
0.0
111
1.0
121
0.0
131
0.0
112
0.0
122
1.0
132
0.0
 79
     0
146
0.0
  0
ENDTAB
  0
TABLE
  2
LTYPE
  5
5
330
0
100
AcDbSymbolTable
 70
     3
  0
LTYPE
  5
14
330
5
100
AcDbSymbolTableRecord
100
AcDbLinetypeTableRecord
  2
ByBlock
 70
     0
  3

 72
    65
 73
     0
 40
0.0
  0
LTYPE
  5
15
330
5
100
AcDbSymbolTableRecord
100
AcDbLinetypeTableRecord
  2
ByLayer
 70
     0
  3

 72
    65
 73
     0
 40
0.0
  0
LTYPE
  5
16
330
5
100
AcDbSymbolTableRecord
100
AcDbLinetypeTableRecord
  2
Continuous
 70
     0
  3
Solid line
 72
    65
 73
     0
 40
0.0
  0
LTYPE
  5
2A
330
5
100
AcDbSymbolTableRecord
100
AcDbLinetypeTableRecord
  2
DASHED
 70
     0
  3
__ __ __ __ __
 72
    65
 73
     2
 40
6.25
 49
5.0
 74
     4
 75
     0
340
0
 46
1.0
 50
0.0
 44
0.0
 45
0.0
 49
-1.25
 74
     4
 75
     0
340
0
 46
1.0
 50
0.0
 44
0.0
 45
0.0
  0
LTYPE
  5
7C
330
5
100
AcDbSymbolTableRecord
100
AcDbLinetypeTableRecord
  2
CENTER
 70
     0
  3
__ . __ . __ . __ . __
 72
    65
 73
     4
 40
7.5
 49
5.0
 74
     4
 75
     0
340
0
 46
1.0
 50
0.0
 44
0.0
 45
0.0
 49
-1.25
 74
     4
 75
     0
340
0
 46
1.0
 50
0.0
 44
0.0
 45
0.0
 49
0.0
 74
     4
 75
     0
340
0
 46
1.0
 50
0.0
 44
0.0
 45
0.0
 49
-1.25
 74
     4
 75
     0
340
0
 46
1.0
 50
0.0
 44
0.0
 45
0.0
  0
ENDTAB
  0
TABLE
  2
LAYER
  5
2
330
0
100
AcDbSymbolTable
 70
    11
  0
LAYER
  5
10
330
2
100
AcDbSymbolTableRecord
100
AcDbLayerTableRecord
  2
0
 70
     0
 62
     7
  6
Continuous
370
    -3
390
F
  0
LAYER
  5
2B
330
2
100
AcDbSymbolTableRecord
100
AcDbLayerTableRecord
  2
LC-INFO-1-10-mm-A4H-0
 70
     1
 62
     7
  6
ByBlock
370
    -3
390
F
  0
LAYER
  5
2C
330
2
100
AcDbSymbolTableRecord
100
AcDbLayerTableRecord
  2
LC-CUT-HIDDEN
 70
     0
 62
     7
  6
DASHED
370
    -3
390
F
  0
LAYER
  5
2D
330
2
100
AcDbSymbolTableRecord
100
AcDbLayerTableRecord
  2
LC-VIEWPORT
 70
     0
 62
     7
  6
ByBlock
370
    -3
390
F
  0
LAYER
  5
2E
330
2
100
AcDbSymbolTableRecord
100
AcDbLayerTableRecord
  2
LC-3D-HIDDEN
 70
     0
 62
     9
  6
DASHED
370
    -3
390
F
  0
LAYER
  5
30
330
2
100
AcDbSymbolTableRecord
100
AcDbLayerTableRecord
  2
LC-001-002-----0
 70
     0
 62
     1
  6
ByBlock
370
    -3
390
F
  0
LAYER
  5
44
330
2
100
AcDbSymbolTableRecord
100
AcDbLayerTableRecord
  2
LC-002-003-----0
 70
     0
 62
     2
  6
ByBlock
370
    -3
390
F
  0
LAYER
  5
46
330
2
100
AcDbSymbolTableRecord
100
AcDbLayerTableRecord
  2
Defpoints
 70
     0
 62
     7
  6
Continuous
290
     0
370
    -3
390
F
  0
LAYER
  5
7D
330
2
100
AcDbSymbolTableRecord
100
AcDbLayerTableRecord
  2
LC-003-006-MLN-0
 70
     0
 62
     2
  6
CENTER
370
    -3
390
F
  0
LAYER
  5
86
330
2
100
AcDbSymbolTableRecord
100
AcDbLayerTableRecord
  2
LC-004-002-RND-0
 70
     0
 62
     1
  6
ByBlock
370
    -3
390
F
  0
LAYER
  5
D4
330
2
100
AcDbSymbolTableRecord
100
AcDbLayerTableRecord
  2
LC-005-005-----0
 70
     0
 62
     2
  6
ByBlock
370
    -3
390
F
  0
ENDTAB
  0
TABLE
  2
STYLE
  5
3
330
0
100
AcDbSymbolTable
 70
     2
  0
STYLE
  5
11
330
3
100
AcDbSymbolTableRecord
100
AcDbTextStyleTableRecord
  2
Standard
 70
     0
 40
0.0
 41
1.0
 50
0.0
 71
     0
 42
2.5
  3
txt
  4

  0
STYLE
  5
2F
330
3
100
AcDbSymbolTableRecord
100
AcDbTextStyleTableRecord
  2
LCTX0-400-0-0pDIN-Schrift
 70
     0
 40
0.0
 41
0.8
 50
0.0
 71
     0
 42
3.5
  3
TXT
  4

  0
ENDTAB
  0
TABLE
  2
VIEW
  5
6
330
0
100
AcDbSymbolTable
 70
     0
  0
ENDTAB
  0
TABLE
  2
UCS
  5
7
330
0
100
AcDbSymbolTable
 70
     0
  0
ENDTAB
  0
TABLE
  2
APPID
  5
9
330
0
100
AcDbSymbolTable
 70
     1
  0
APPID
  5
12
330
9
100
AcDbSymbolTableRecord
100
AcDbRegAppTableRecord
  2
ACAD
 70
     0
  0
ENDTAB
  0
TABLE
  2
DIMSTYLE
  5
A
330
0
100
AcDbSymbolTable
 70
     4
100
AcDbDimStyleTable
  0
DIMSTYLE
105
27
330
A
100
AcDbSymbolTableRecord
100
AcDbDimStyleTableRecord
  2
ISO-25
 70
     0
 41
2.5
 42
0.625
 43
3.75
 44
1.25
 73
     0
 74
     0
 77
     1
 78
     8
140
2.5
141
2.5
143
0.03937
147
0.625
171
     3
172
     1
271
     2
272
     2
274
     3
278
    44
283
     0
284
     8
340
11
  0
DIMSTYLE
105
43
102
{ACAD_REACTORS
330
45
330
123
102
}
330
A
100
AcDbSymbolTableRecord
100
AcDbDimStyleTableRecord
  2
LC-DIM-R-0025-00-02
 70
     0
 40
10.0
 41
2.5
 42
0.0
 43
7.5
 44
1.8
 73
     0
 74
     0
 77
     1
 78
     8
140
2.5
141
0.0
146
0.71
147
1.5
176
     2
177
     2
178
     2
271
     0
278
    44
289
     1
340
2F
  0
DIMSTYLE
105
DD
102
{ACAD_REACTORS
330
DE
330
EB
330
F8
330
105
330
112
102
}
330
A
100
AcDbSymbolTableRecord
100
AcDbDimStyleTableRecord
  2
LC-DIM-L-0025-00-02
 70
     0
 40
10.0
 41
2.5
 42
0.0
 43
7.5
 44
1.8
 73
     0
 74
     0
 77
     1
 78
     8
140
2.5
141
0.0
146
0.71
147
1.5
172
     1
176
     2
177
     2
178
     2
271
     0
278
    44
289
     1
340
2F
  0
DIMSTYLE
105
12C
102
{ACAD_REACTORS
330
12D
102
}
330
A
100
AcDbSymbolTableRecord
100
AcDbDimStyleTableRecord
  2
LC-DIM-L-0025-02-02
 70
     0
 40
10.0
 41
2.5
 42
0.0
 43
7.5
 44
1.8
 73
     0
 74
     0
 77
     1
 78
     8
 79
     2
140
2.5
141
0.0
146
0.71
147
1.5
172
     1
176
     2
177
     2
178
     2
179
     2
271
     2
278
    44
289
     1
340
2F
  0
ENDTAB
  0
TABLE
  2
BLOCK_RECORD
  5
1
330
0
100
AcDbSymbolTable
 70
    10
  0
BLOCK_RECORD
  5
1F
330
1
100
AcDbSymbolTableRecord
100
AcDbBlockTableRecord
  2
*Model_Space
340
22
  0
BLOCK_RECORD
  5
1B
330
1
100
AcDbSymbolTableRecord
100
AcDbBlockTableRecord
  2
*Paper_Space
340
1E
  0
BLOCK_RECORD
  5
23
330
1
100
AcDbSymbolTableRecord
100
AcDbBlockTableRecord
  2
*Paper_Space0
340
26
  0
BLOCK_RECORD
  5
47
330
1
100
AcDbSymbolTableRecord
100
AcDbBlockTableRecord
  2
*D1
340
0
  0
BLOCK_RECORD
  5
D1
330
1
100
AcDbSymbolTableRecord
100
AcDbBlockTableRecord
  2
*X12
340
0
102
{BLKREFS
331
DC
102
}
  0
BLOCK_RECORD
  5
DF
330
1
100
AcDbSymbolTableRecord
100
AcDbBlockTableRecord
  2
*D3
340
0
  0
BLOCK_RECORD
  5
EC
330
1
100
AcDbSymbolTableRecord
100
AcDbBlockTableRecord
  2
*D4
340
0
  0
BLOCK_RECORD
  5
F9
330
1
100
AcDbSymbolTableRecord
100
AcDbBlockTableRecord
  2
*D5
340
0
  0
BLOCK_RECORD
  5
106
330
1
100
AcDbSymbolTableRecord
100
AcDbBlockTableRecord
  2
*D6
340
0
  0
BLOCK_RECORD
  5
113
330
1
100
AcDbSymbolTableRecord
100
AcDbBlockTableRecord
  2
*D7
340
0
  0
BLOCK_RECORD
  5
124
330
1
100
AcDbSymbolTableRecord
100
AcDbBlockTableRecord
  2
*D8
340
0
  0
BLOCK_RECORD
  5
12E
330
1
100
AcDbSymbolTableRecord
100
AcDbBlockTableRecord
  2
*D9
340
0
  0
ENDTAB
  0
ENDSEC
  0
SECTION
  2
BLOCKS
  0
BLOCK
  5
20
330
1F
100
AcDbEntity
  8
0
100
AcDbBlockBegin
  2
*Model_Space
 70
     0
 71
     0
 10
0.0
 20
0.0
 30
0.0
  3
*Model_Space
  1

  0
ENDBLK
  5
21
330
1F
100
AcDbEntity
  8
0
100
AcDbBlockEnd
  0
BLOCK
  5
1C
330
1B
100
AcDbEntity
 67
     1
  8
0
100
AcDbBlockBegin
  2
*Paper_Space
 70
     0
 71
     0
 10
0.0
 20
0.0
 30
0.0
  3
*Paper_Space
  1

  0
ENDBLK
  5
1D
330
1B
100
AcDbEntity
 67
     1
  8
0
100
AcDbBlockEnd
  0
BLOCK
  5
24
330
23
100
AcDbEntity
  8
0
100
AcDbBlockBegin
  2
*Paper_Space0
 70
     0
 71
     0
 10
0.0
 20
0.0
 30
0.0
  3
*Paper_Space0
  1

  0
ENDBLK
  5
25
330
23
100
AcDbEntity
  8
0
100
AcDbBlockEnd
  0
BLOCK
  5
4D
330
47
100
AcDbEntity
  8
0
100
AcDbBlockBegin
  2
*D1
 70
     1
 71
     0
 10
0.0
 20
0.0
 30
0.0
  3
*D1
  1

  0
LINE
  5
48
330
47
100
AcDbEntity
  8
LC-002-003-----0
 62
     2
370
    -2
100
AcDbLine
 10
626.962964
 20
1509.041714
 30
0.0
 11
637.768672
 21
1521.804974
 31
0.0
  0
MTEXT
  5
49
330
47
100
AcDbEntity
  8
LC-002-003-----0
 62
     2
100
AcDbMText
 10
590.205142
 20
1486.815632
 30
0.0
 40
25.0
 41
0.0
 71
     5
 72
     1
  1
\A1;R95
  7
LCTX0-400-0-0pDIN-Schrift
 11
0.6461522309025888
 21
0.7632085524282387
 31
0.0
 73
     1
 44
1.0
  0
SOLID
  5
4A
330
47
100
AcDbEntity
  8
LC-002-003-----0
 62
     2
100
AcDbTrace
 10
640.948707
 20
1519.112673
 30
0.0
 11
634.588636
 21
1524.497275
 31
0.0
 12
653.922477
 22
1540.885188
 32
0.0
 13
653.922477
 23
1540.885188
 33
0.0
  0
POINT
  5
4B
330
47
100
AcDbEntity
  8
Defpoints
 62
     0
100
AcDbPoint
 10
653.922477
 20
1540.885188
 30
0.0
  0
POINT
  5
4C
330
47
100
AcDbEntity
  8
Defpoints
 62
     0
100
AcDbPoint
 10
715.306939
 20
1613.39
 30
0.0
  0
ENDBLK
  5
4E
330
47
100
AcDbEntity
  8
0
100
AcDbBlockEnd
  0
BLOCK
  5
D2
330
D1
100
AcDbEntity
  8
0
100
AcDbBlockBegin
  2
*X12
 70
     1
 71
     0
 10
0.0
 20
0.0
 30
0.0
  3
*X12
  1

  4
*X1
  0
LINE
  5
D5
330
D1
100
AcDbEntity
  8
LC-005-005-----0
 62
     7
370
    25
100
AcDbLine
 10
552.561781
 20
2502.139514
 30
0.0
 11
581.691964
 21
2473.00933
 31
0.0
  0
LINE
  5
D6
330
D1
100
AcDbEntity
  8
LC-005-005-----0
 62
     7
370
    25
100
AcDbLine
 10
571.976236
 20
2511.00933
 30
0.0
 11
609.976236
 21
2473.00933
 31
0.0
  0
LINE
  5
D7
330
D1
100
AcDbEntity
  8
LC-005-005-----0
 62
     7
370
    25
100
AcDbLine
 10
600.260507
 20
2511.00933
 30
0.0
 11
627.828258
 21
2483.44158
 31
0.0
  0
LINE
  5
D8
330
D1
100
AcDbEntity
  8
LC-005-005-----0
 62
     7
370
    25
100
AcDbLine
 10
1190.785621
 20
2486.169641
 30
0.0
 11
1203.945932
 21
2473.00933
 31
0.0
  0
LINE
  5
D9
330
D1
100
AcDbEntity
  8
LC-005-005-----0
 62
     7
370
    25
100
AcDbLine
 10
1198.26192
 20
2506.977613
 30
0.0
 11
1232.230203
 21
2473.00933
 31
0.0
  0
LINE
  5
DA
330
D1
100
AcDbEntity
  8
LC-005-005-----0
 62
     7
370
    25
100
AcDbLine
 10
1222.514474
 20
2511.00933
 30
0.0
 11
1260.514474
 21
2473.00933
 31
0.0
  0
LINE
  5
DB
330
D1
100
AcDbEntity
  8
LC-005-005-----0
 62
     7
370
    25
100
AcDbLine
 10
1250.798746
 20
2511.00933
 30
0.0
 11
1267.897851
 21
2493.910224
 31
0.0
  0
ENDBLK
  5
D3
330
D1
100
AcDbEntity
  8
0
100
AcDbBlockEnd
  0
BLOCK
  5
E9
330
DF
100
AcDbEntity
  8
0
100
AcDbBlockBegin
  2
*D3
 70
     1
 71
     0
 10
0.0
 20
0.0
 30
0.0
  3
*D3
  1

  0
LINE
  5
E0
330
DF
100
AcDbEntity
  8
LC-002-003-----0
 62
     2
370
    -2
100
AcDbLine
 10
645.412044
 20
2511.00933
 30
0.0
 11
645.412044
 21
2594.479979
 31
0.0
  0
LINE
  5
E1
330
DF
100
AcDbEntity
  8
LC-002-003-----0
 62
     2
370
    -2
100
AcDbLine
 10
1173.201835
 20
2511.00933
 30
0.0
 11
1173.201835
 21
2594.479979
 31
0.0
  0
LINE
  5
E2
330
DF
100
AcDbEntity
  8
LC-002-003-----0
 62
     2
370
    -2
100
AcDbLine
 10
670.412044
 20
2576.479979
 30
0.0
 11
1148.201835
 21
2576.479979
 31
0.0
  0
SOLID
  5
E3
330
DF
100
AcDbEntity
  8
LC-002-003-----0
 62
     2
100
AcDbTrace
 10
670.412044
 20
2580.646646
 30
0.0
 11
670.412044
 21
2572.313312
 31
0.0
 12
645.412044
 22
2576.479979
 32
0.0
 13
645.412044
 23
2576.479979
 33
0.0
  0
SOLID
  5
E4
330
DF
100
AcDbEntity
  8
LC-002-003-----0
 62
     2
100
AcDbTrace
 10
1148.201835
 20
2572.313312
 30
0.0
 11
1148.201835
 21
2580.646646
 31
0.0
 12
1173.201835
 22
2576.479979
 32
0.0
 13
1173.201835
 23
2576.479979
 33
0.0
  0
MTEXT
  5
E5
330
DF
100
AcDbEntity
  8
LC-002-003-----0
 62
     2
100
AcDbMText
 10
897.75431
 20
2606.479979
 30
0.0
 40
25.0
 41
0.0
 71
     5
 72
     1
  1
\A1;528
  7
LCTX0-400-0-0pDIN-Schrift
 73
     1
 44
1.0
  0
POINT
  5
E6
330
DF
100
AcDbEntity
  8
Defpoints
 62
     0
100
AcDbPoint
 10
645.412044
 20
2511.00933
 30
0.0
  0
POINT
  5
E7
330
DF
100
AcDbEntity
  8
Defpoints
 62
     0
100
AcDbPoint
 10
1173.201835
 20
2511.00933
 30
0.0
  0
POINT
  5
E8
330
DF
100
AcDbEntity
  8
Defpoints
 62
     0
100
AcDbPoint
 10
1173.201835
 20
2576.479979
 30
0.0
  0
ENDBLK
  5
EA
330
DF
100
AcDbEntity
  8
0
100
AcDbBlockEnd
  0
BLOCK
  5
F6
330
EC
100
AcDbEntity
  8
0
100
AcDbBlockBegin
  2
*D4
 70
     1
 71
     0
 10
0.0
 20
0.0
 30
0.0
  3
*D4
  1

  0
LINE
  5
ED
330
EC
100
AcDbEntity
  8
LC-002-003-----0
 62
     2
370
    -2
100
AcDbLine
 10
609.306939
 20
2296.074124
 30
0.0
 11
609.306939
 21
2223.794348
 31
0.0
  0
LINE
  5
EE
330
EC
100
AcDbEntity
  8
LC-002-003-----0
 62
     2
370
    -2
100
AcDbLine
 10
1209.306939
 20
2296.074124
 30
0.0
 11
1209.306939
 21
2223.794348
 31
0.0
  0
LINE
  5
EF
330
EC
100
AcDbEntity
  8
LC-002-003-----0
 62
     2
370
    -2
100
AcDbLine
 10
634.306939
 20
2241.794348
 30
0.0
 11
1184.306939
 21
2241.794348
 31
0.0
  0
SOLID
  5
F0
330
EC
100
AcDbEntity
  8
LC-002-003-----0
 62
     2
100
AcDbTrace
 10
634.306939
 20
2245.961015
 30
0.0
 11
634.306939
 21
2237.627681
 31
0.0
 12
609.306939
 22
2241.794348
 32
0.0
 13
609.306939
 23
2241.794348
 33
0.0
  0
SOLID
  5
F1
330
EC
100
AcDbEntity
  8
LC-002-003-----0
 62
     2
100
AcDbTrace
 10
1184.306939
 20
2237.627681
 30
0.0
 11
1184.306939
 21
2245.961015
 31
0.0
 12
1209.306939
 22
2241.794348
 32
0.0
 13
1209.306939
 23
2241.794348
 33
0.0
  0
MTEXT
  5
F2
330
EC
100
AcDbEntity
  8
LC-002-003-----0
 62
     2
100
AcDbMText
 10
909.086561
 20
2271.794348
 30
0.0
 40
25.0
 41
0.0
 71
     5
 72
     1
  1
\A1;600
  7
LCTX0-400-0-0pDIN-Schrift
 73
     1
 44
1.0
  0
POINT
  5
F3
330
EC
100
AcDbEntity
  8
Defpoints
 62
     0
100
AcDbPoint
 10
609.306939
 20
2296.074124
 30
0.0
  0
POINT
  5
F4
330
EC
100
AcDbEntity
  8
Defpoints
 62
     0
100
AcDbPoint
 10
1209.306939
 20
2296.074124
 30
0.0
  0
POINT
  5
F5
330
EC
100
AcDbEntity
  8
Defpoints
 62
     0
100
AcDbPoint
 10
1209.306939
 20
2241.794348
 30
0.0
  0
ENDBLK
  5
F7
330
EC
100
AcDbEntity
  8
0
100
AcDbBlockEnd
  0
BLOCK
  5
103
330
F9
100
AcDbEntity
  8
0
100
AcDbBlockBegin
  2
*D5
 70
     1
 71
     0
 10
0.0
 20
0.0
 30
0.0
  3
*D5
  1

  0
LINE
  5
FA
330
F9
100
AcDbEntity
  8
LC-002-003-----0
 62
     2
370
    -2
100
AcDbLine
 10
620.306939
 20
1613.39
 30
0.0
 11
620.306939
 21
1390.501511
 31
0.0
  0
LINE
  5
FB
330
F9
100
AcDbEntity
  8
LC-002-003-----0
 62
     2
370
    -2
100
AcDbLine
 10
1198.306939
 20
1613.39
 30
0.0
 11
1198.306939
 21
1390.501511
 31
0.0
  0
LINE
  5
FC
330
F9
100
AcDbEntity
  8
LC-002-003-----0
 62
     2
370
    -2
100
AcDbLine
 10
645.306939
 20
1408.501511
 30
0.0
 11
1173.306939
 21
1408.501511
 31
0.0
  0
SOLID
  5
FD
330
F9
100
AcDbEntity
  8
LC-002-003-----0
 62
     2
100
AcDbTrace
 10
645.306939
 20
1412.668178
 30
0.0
 11
645.306939
 21
1404.334845
 31
0.0
 12
620.306939
 22
1408.501511
 32
0.0
 13
620.306939
 23
1408.501511
 33
0.0
  0
SOLID
  5
FE
330
F9
100
AcDbEntity
  8
LC-002-003-----0
 62
     2
100
AcDbTrace
 10
1173.306939
 20
1404.334845
 30
0.0
 11
1173.306939
 21
1412.668178
 31
0.0
 12
1198.306939
 22
1408.501511
 32
0.0
 13
1198.306939
 23
1408.501511
 33
0.0
  0
MTEXT
  5
FF
330
F9
100
AcDbEntity
  8
LC-002-003-----0
 62
     2
100
AcDbMText
 10
907.113297
 20
1438.501511
 30
0.0
 40
25.0
 41
0.0
 71
     5
 72
     1
  1
\A1;578
  7
LCTX0-400-0-0pDIN-Schrift
 73
     1
 44
1.0
  0
POINT
  5
100
330
F9
100
AcDbEntity
  8
Defpoints
 62
     0
100
AcDbPoint
 10
620.306939
 20
1613.39
 30
0.0
  0
POINT
  5
101
330
F9
100
AcDbEntity
  8
Defpoints
 62
     0
100
AcDbPoint
 10
1198.306939
 20
1613.39
 30
0.0
  0
POINT
  5
102
330
F9
100
AcDbEntity
  8
Defpoints
 62
     0
100
AcDbPoint
 10
1198.306939
 20
1408.501511
 30
0.0
  0
ENDBLK
  5
104
330
F9
100
AcDbEntity
  8
0
100
AcDbBlockEnd
  0
BLOCK
  5
110
330
106
100
AcDbEntity
  8
0
100
AcDbBlockBegin
  2
*D6
 70
     1
 71
     0
 10
0.0
 20
0.0
 30
0.0
  3
*D6
  1

  0
LINE
  5
107
330
106
100
AcDbEntity
  8
LC-002-003-----0
 62
     2
370
    -2
100
AcDbLine
 10
1103.306939
 20
1968.39
 30
0.0
 11
1368.361273
 21
1968.39
 31
0.0
  0
LINE
  5
108
330
106
100
AcDbEntity
  8
LC-002-003-----0
 62
     2
370
    -2
100
AcDbLine
 10
1103.306939
 20
1518.39
 30
0.0
 11
1368.361273
 21
1518.39
 31
0.0
  0
LINE
  5
109
330
106
100
AcDbEntity
  8
LC-002-003-----0
 62
     2
370
    -2
100
AcDbLine
 10
1350.361273
 20
1943.39
 30
0.0
 11
1350.361273
 21
1543.39
 31
0.0
  0
SOLID
  5
10A
330
106
100
AcDbEntity
  8
LC-002-003-----0
 62
     2
100
AcDbTrace
 10
1354.527939
 20
1943.39
 30
0.0
 11
1346.194606
 21
1943.39
 31
0.0
 12
1350.361273
 22
1968.39
 32
0.0
 13
1350.361273
 23
1968.39
 33
0.0
  0
SOLID
  5
10B
330
106
100
AcDbEntity
  8
LC-002-003-----0
 62
     2
100
AcDbTrace
 10
1346.194606
 20
1543.39
 30
0.0
 11
1354.527939
 21
1543.39
 31
0.0
 12
1350.361273
 22
1518.39
 32
0.0
 13
1350.361273
 23
1518.39
 33
0.0
  0
MTEXT
  5
10C
330
106
100
AcDbEntity
  8
LC-002-003-----0
 62
     2
100
AcDbMText
 10
1320.361273
 20
1738.636852
 30
0.0
 40
25.0
 41
0.0
 71
     5
 72
     1
  1
\A1;450
  7
LCTX0-400-0-0pDIN-Schrift
 11
6.123031769111886E-17
 21
1.0
 31
0.0
 73
     1
 44
1.0
  0
POINT
  5
10D
330
106
100
AcDbEntity
  8
Defpoints
 62
     0
100
AcDbPoint
 10
1103.306939
 20
1968.39
 30
0.0
  0
POINT
  5
10E
330
106
100
AcDbEntity
  8
Defpoints
 62
     0
100
AcDbPoint
 10
1103.306939
 20
1518.39
 30
0.0
  0
POINT
  5
10F
330
106
100
AcDbEntity
  8
Defpoints
 62
     0
100
AcDbPoint
 10
1350.361273
 20
1518.39
 30
0.0
  0
ENDBLK
  5
111
330
106
100
AcDbEntity
  8
0
100
AcDbBlockEnd
  0
BLOCK
  5
11D
330
113
100
AcDbEntity
  8
0
100
AcDbBlockBegin
  2
*D7
 70
     1
 71
     0
 10
0.0
 20
0.0
 30
0.0
  3
*D7
  1

  0
LINE
  5
114
330
113
100
AcDbEntity
  8
LC-002-003-----0
 62
     2
370
    -2
100
AcDbLine
 10
1717.491832
 20
1943.284896
 30
0.0
 11
1833.748265
 21
1943.284896
 31
0.0
  0
LINE
  5
115
330
113
100
AcDbEntity
  8
LC-002-003-----0
 62
     2
370
    -2
100
AcDbLine
 10
1717.491832
 20
1543.495104
 30
0.0
 11
1833.748265
 21
1543.495104
 31
0.0
  0
LINE
  5
116
330
113
100
AcDbEntity
  8
LC-002-003-----0
 62
     2
370
    -2
100
AcDbLine
 10
1815.748265
 20
1918.284896
 30
0.0
 11
1815.748265
 21
1568.495104
 31
0.0
  0
SOLID
  5
117
330
113
100
AcDbEntity
  8
LC-002-003-----0
 62
     2
100
AcDbTrace
 10
1819.914932
 20
1918.284896
 30
0.0
 11
1811.581598
 21
1918.284896
 31
0.0
 12
1815.748265
 22
1943.284896
 32
0.0
 13
1815.748265
 23
1943.284896
 33
0.0
  0
SOLID
  5
118
330
113
100
AcDbEntity
  8
LC-002-003-----0
 62
     2
100
AcDbTrace
 10
1811.581598
 20
1568.495104
 30
0.0
 11
1819.914932
 21
1568.495104
 31
0.0
 12
1815.748265
 22
1543.495104
 32
0.0
 13
1815.748265
 23
1543.495104
 33
0.0
  0
MTEXT
  5
119
330
113
100
AcDbEntity
  8
LC-002-003-----0
 62
     2
100
AcDbMText
 10
1785.748265
 20
1735.595149
 30
0.0
 40
25.0
 41
0.0
 71
     5
 72
     1
  1
\A1;400
  7
LCTX0-400-0-0pDIN-Schrift
 11
6.123031769111886E-17
 21
1.0
 31
0.0
 73
     1
 44
1.0
  0
POINT
  5
11A
330
113
100
AcDbEntity
  8
Defpoints
 62
     0
100
AcDbPoint
 10
1717.491832
 20
1943.284896
 30
0.0
  0
POINT
  5
11B
330
113
100
AcDbEntity
  8
Defpoints
 62
     0
100
AcDbPoint
 10
1717.491832
 20
1543.495104
 30
0.0
  0
POINT
  5
11C
330
113
100
AcDbEntity
  8
Defpoints
 62
     0
100
AcDbPoint
 10
1815.748265
 20
1543.495104
 30
0.0
  0
ENDBLK
  5
11E
330
113
100
AcDbEntity
  8
0
100
AcDbBlockEnd
  0
BLOCK
  5
12A
330
124
100
AcDbEntity
  8
0
100
AcDbBlockBegin
  2
*D8
 70
     1
 71
     0
 10
0.0
 20
0.0
 30
0.0
  3
*D8
  1

  0
LINE
  5
125
330
124
100
AcDbEntity
  8
LC-002-003-----0
 62
     2
370
    -2
100
AcDbLine
 10
736.639483
 20
1638.394274
 30
0.0
 11
744.445574
 21
1647.54394
 31
0.0
  0
MTEXT
  5
126
330
124
100
AcDbEntity
  8
LC-002-003-----0
 62
     2
100
AcDbMText
 10
696.145654
 20
1619.423442
 30
0.0
 40
25.0
 41
0.0
 71
     5
 72
     1
  1
\A1;R70
  7
LCTX0-400-0-0pDIN-Schrift
 11
0.6490411575875699
 21
0.7607532949369247
 31
0.0
 73
     1
 44
1.0
  0
SOLID
  5
127
330
124
100
AcDbEntity
  8
LC-002-003-----0
 62
     2
100
AcDbTrace
 10
747.61538
 20
1644.839602
 30
0.0
 11
741.275769
 21
1650.248278
 31
0.0
 12
760.671603
 22
1666.562772
 32
0.0
 13
760.671603
 23
1666.562772
 33
0.0
  0
POINT
  5
128
330
124
100
AcDbEntity
  8
Defpoints
 62
     0
100
AcDbPoint
 10
760.671603
 20
1666.562772
 30
0.0
  0
POINT
  5
129
330
124
100
AcDbEntity
  8
Defpoints
 62
     0
100
AcDbPoint
 10
715.306939
 20
1613.39
 30
0.0
  0
ENDBLK
  5
12B
330
124
100
AcDbEntity
  8
0
100
AcDbBlockEnd
  0
BLOCK
  5
138
330
12E
100
AcDbEntity
  8
0
100
AcDbBlockBegin
  2
*D9
 70
     1
 71
     0
 10
0.0
 20
0.0
 30
0.0
  3
*D9
  1

  0
LINE
  5
12F
330
12E
100
AcDbEntity
  8
LC-002-003-----0
 62
     2
370
    -2
100
AcDbLine
 10
909.306939
 20
2511.00933
 30
0.0
 11
949.789522
 21
2511.00933
 31
0.0
  0
LINE
  5
130
330
12E
100
AcDbEntity
  8
LC-002-003-----0
 62
     2
370
    -2
100
AcDbLine
 10
909.306939
 20
2332.009284
 30
0.0
 11
949.789522
 21
2332.009284
 31
0.0
  0
LINE
  5
131
330
12E
100
AcDbEntity
  8
LC-002-003-----0
 62
     2
370
    -2
100
AcDbLine
 10
931.789522
 20
2486.00933
 30
0.0
 11
931.789522
 21
2357.009284
 31
0.0
  0
SOLID
  5
132
330
12E
100
AcDbEntity
  8
LC-002-003-----0
 62
     2
100
AcDbTrace
 10
935.956188
 20
2486.00933
 30
0.0
 11
927.622855
 21
2486.00933
 31
0.0
 12
931.789522
 22
2511.00933
 32
0.0
 13
931.789522
 23
2511.00933
 33
0.0
  0
SOLID
  5
133
330
12E
100
AcDbEntity
  8
LC-002-003-----0
 62
     2
100
AcDbTrace
 10
927.622855
 20
2357.009284
 30
0.0
 11
935.956188
 21
2357.009284
 31
0.0
 12
931.789522
 22
2332.009284
 32
0.0
 13
931.789522
 23
2332.009284
 33
0.0
  0
MTEXT
  5
134
330
12E
100
AcDbEntity
  8
LC-002-003-----0
 62
     2
100
AcDbMText
 10
901.789522
 20
2422.715571
 30
0.0
 40
25.0
 41
0.0
 71
     5
 72
     1
  1
\A1;179
  7
LCTX0-400-0-0pDIN-Schrift
 11
6.123031769111886E-17
 21
1.0
 31
0.0
 73
     1
 44
1.0
  0
POINT
  5
135
330
12E
100
AcDbEntity
  8
Defpoints
 62
     0
100
AcDbPoint
 10
909.306939
 20
2511.00933
 30
0.0
  0
POINT
  5
136
330
12E
100
AcDbEntity
  8
Defpoints
 62
     0
100
AcDbPoint
 10
909.306939
 20
2332.009284
 30
0.0
  0
POINT
  5
137
330
12E
100
AcDbEntity
  8
Defpoints
 62
     0
100
AcDbPoint
 10
931.789522
 20
2332.009284
 30
0.0
  0
ENDBLK
  5
139
330
12E
100
AcDbEntity
  8
0
100
AcDbBlockEnd
  0
ENDSEC
  0
SECTION
  2
ENTITIES
  0
LINE
  5
31
330
1F
100
AcDbEntity
  8
LC-001-002-----0
 62
     7
370
    50
100
AcDbLine
 10
644.406535
 20
2511.00933
 30
0.0
 11
909.306939
 21
2511.00933
 31
0.0
  0
LINE
  5
32
330
1F
100
AcDbEntity
  8
LC-001-002-----0
 62
     7
370
    50
100
AcDbLine
 10
1174.207343
 20
2511.00933
 30
0.0
 11
909.306939
 21
2511.00933
 31
0.0
  0
LINE
  5
33
330
1F
100
AcDbEntity
  8
LC-001-002-----0
 62
     7
370
    50
100
AcDbLine
 10
1103.306939
 20
1543.495104
 30
0.0
 11
715.306939
 21
1543.495104
 31
0.0
  0
LINE
  5
34
330
1F
100
AcDbEntity
  8
LC-001-002-----0
 62
     7
370
    50
100
AcDbLine
 10
620.306939
 20
2511.00933
 30
0.0
 11
644.406535
 21
2511.00933
 31
0.0
  0
LINE
  5
35
330
1F
100
AcDbEntity
  8
LC-001-002-----0
 62
     7
370
    50
100
AcDbLine
 10
1173.201835
 20
1613.39
 30
0.0
 11
1173.201835
 21
1873.39
 31
0.0
  0
LINE
  5
36
330
1F
100
AcDbEntity
  8
LC-001-002-----0
 62
     7
370
    50
100
AcDbLine
 10
1198.306939
 20
2511.00933
 30
0.0
 11
1174.207343
 21
2511.00933
 31
0.0
  0
LINE
  5
37
330
1F
100
AcDbEntity
  8
LC-001-002-----0
 62
     7
370
    50
100
AcDbLine
 10
1717.491832
 20
1968.39
 30
0.0
 11
1706.491832
 21
1965.442559
 31
0.0
  0
LINE
  5
38
102
{ACAD_REACTORS
330
13B
102
}
330
1F
100
AcDbEntity
  8
LC-001-002-----0
 62
     7
370
    50
100
AcDbLine
 10
1103.306939
 20
1943.59
 30
0.0
 11
715.306939
 21
1943.59
 31
0.0
  0
CIRCLE
  5
39
102
{ACAD_REACTORS
330
13B
102
}
330
1F
100
AcDbEntity
  8
LC-001-002-----0
 62
     7
370
    50
100
AcDbCircle
 10
909.306939
 20
1743.39
 30
0.0
 40
46.0
  0
CIRCLE
  5
3A
102
{ACAD_REACTORS
330
13B
102
}
330
1F
100
AcDbEntity
  8
LC-001-002-----0
 62
     7
370
    50
100
AcDbCircle
 10
909.306939
 20
1743.39
 30
0.0
 40
59.37665997141221
  0
LINE
  5
3B
102
{ACAD_REACTORS
330
13B
102
}
330
1F
100
AcDbEntity
  8
LC-001-002-----0
 62
     7
370
    50
100
AcDbLine
 10
715.306939
 20
1518.39
 30
0.0
 11
1103.306939
 21
1518.39
 31
0.0
  0
ARC
  5
3C
102
{ACAD_REACTORS
330
13B
102
}
330
1F
100
AcDbEntity
  8
LC-001-002-----0
 62
     7
370
    50
100
AcDbCircle
 10
1103.306939
 20
1613.39
 30
0.0
 40
95.0
100
AcDbArc
 50
270.0
 51
0.0
  0
LINE
  5
3D
102
{ACAD_REACTORS
330
13B
102
}
330
1F
100
AcDbEntity
  8
LC-001-002-----0
 62
     7
370
    50
100
AcDbLine
 10
1198.306939
 20
1613.39
 30
0.0
 11
1198.306939
 21
1873.39
 31
0.0
  0
ARC
  5
3E
102
{ACAD_REACTORS
330
13B
102
}
330
1F
100
AcDbEntity
  8
LC-001-002-----0
 62
     7
370
    50
100
AcDbCircle
 10
1103.306939
 20
1873.39
 30
0.0
 40
95.0
100
AcDbArc
 50
0.0
 51
90.0
  0
LINE
  5
3F
102
{ACAD_REACTORS
330
13B
102
}
330
1F
100
AcDbEntity
  8
LC-001-002-----0
 62
     7
370
    50
100
AcDbLine
 10
1103.306939
 20
1968.39
 30
0.0
 11
715.306939
 21
1968.39
 31
0.0
  0
ARC
  5
40
102
{ACAD_REACTORS
330
13B
102
}
330
1F
100
AcDbEntity
  8
LC-001-002-----0
 62
     7
370
    50
100
AcDbCircle
 10
715.306939
 20
1873.39
 30
0.0
 40
95.0
100
AcDbArc
 50
90.0
 51
180.0
  0
LINE
  5
41
102
{ACAD_REACTORS
330
13B
102
}
330
1F
100
AcDbEntity
  8
LC-001-002-----0
 62
     7
370
    50
100
AcDbLine
 10
620.306939
 20
1873.39
 30
0.0
 11
620.306939
 21
1613.39
 31
0.0
  0
ARC
  5
42
102
{ACAD_REACTORS
330
13B
102
}
330
1F
100
AcDbEntity
  8
LC-001-002-----0
 62
     7
370
    50
100
AcDbCircle
 10
715.306939
 20
1613.39
 30
0.0
 40
95.0
100
AcDbArc
 50
180.0
 51
270.0
  0
DIMENSION
  5
45
102
{ACAD_REACTORS
330
13B
102
}
330
1F
100
AcDbEntity
  8
LC-002-003-----0
 62
     7
370
    25
100
AcDbDimension
  2
*D1
 10
715.306939
 20
1613.39
 30
0.0
 11
590.205142
 21
1486.815632
 31
0.0
 70
   164
  1
<>
 71
     5
 42
95.0
  3
LC-DIM-R-0025-00-02
100
AcDbRadialDimension
 15
653.922477
 25
1540.885188
 35
0.0
 40
1.0
  0
LINE
  5
4F
102
{ACAD_REACTORS
330
13B
102
}
330
1F
100
AcDbEntity
  8
LC-001-002-----0
 62
     7
370
    25
100
AcDbLine
 10
931.200759
 20
1940.765955
 30
0.0
 11
887.420862
 21
1940.765955
 31
0.0
  0
LINE
  5
50
102
{ACAD_REACTORS
330
13B
102
}
330
1F
100
AcDbEntity
  8
LC-001-002-----0
 62
     7
370
    25
100
AcDbLine
 10
887.420862
 20
1939.538109
 30
0.0
 11
931.200759
 21
1939.538109
 31
0.0
  0
ARC
  5
51
102
{ACAD_REACTORS
330
13B
102
}
330
1F
100
AcDbEntity
  8
LC-001-002-----0
 62
     7
370
    25
100
AcDbCircle
 10
931.200759
 20
1940.159775
 30
0.0
 40
0.6061805727596609
100
AcDbArc
 50
277.765797
 51
90.0
  0
ARC
  5
52
102
{ACAD_REACTORS
330
13B
102
}
330
1F
100
AcDbEntity
  8
LC-001-002-----0
 62
     7
370
    25
100
AcDbCircle
 10
887.420862
 20
1940.152032
 30
0.0
 40
0.6139228045112759
100
AcDbArc
 50
90.0
 51
270.0
  0
ARC
  5
53
330
1F
100
AcDbEntity
  8
LC-001-002-----0
 62
     7
370
    50
100
AcDbCircle
 10
715.306939
 20
1613.39
 30
0.0
 40
69.8948957647907
100
AcDbArc
 50
180.0
 51
270.0
  0
LINE
  5
54
102
{ACAD_REACTORS
330
13C
102
}
330
1F
100
AcDbEntity
  8
LC-001-002-----0
 62
     7
370
    50
100
AcDbLine
 10
645.412044
 20
2511.00933
 30
0.0
 11
660.127154
 21
2371.004402
 31
0.0
  0
LINE
  5
55
102
{ACAD_REACTORS
330
13C
102
}
330
1F
100
AcDbEntity
  8
LC-001-002-----0
 62
     7
370
    50
100
AcDbLine
 10
1173.201835
 20
2511.00933
 30
0.0
 11
1158.486724
 21
2371.004402
 31
0.0
  0
LINE
  5
56
102
{ACAD_REACTORS
330
13C
102
}
330
1F
100
AcDbEntity
  8
LC-001-002-----0
 62
     7
370
    50
100
AcDbLine
 10
848.21815
 20
2313.63
 30
0.0
 11
863.306939
 21
2313.63
 31
0.0
  0
LINE
  5
57
102
{ACAD_REACTORS
330
13C
102
}
330
1F
100
AcDbEntity
  8
LC-001-002-----0
 62
     7
370
    50
100
AcDbLine
 10
955.306939
 20
2313.63
 30
0.0
 11
970.395729
 21
2313.63
 31
0.0
  0
LINE
  5
58
102
{ACAD_REACTORS
330
13C
102
}
330
1F
100
AcDbEntity
  8
LC-001-002-----0
 62
     7
370
    50
100
AcDbLine
 10
638.994713
 20
2495.531973
 30
0.0
 11
652.382358
 21
2368.15704
 31
0.0
  0
LINE
  5
59
102
{ACAD_REACTORS
330
13C
102
}
330
1F
100
AcDbEntity
  8
LC-001-002-----0
 62
     7
370
    50
100
AcDbLine
 10
1179.619165
 20
2495.531973
 30
0.0
 11
1166.231521
 21
2368.15704
 31
0.0
  0
LINE
  5
5A
102
{ACAD_REACTORS
330
13C
102
}
330
1F
100
AcDbEntity
  8
LC-001-002-----0
 62
     7
370
    50
100
AcDbLine
 10
630.306939
 20
2500.00933
 30
0.0
 11
634.022104
 21
2500.00933
 31
0.0
  0
LINE
  5
5B
102
{ACAD_REACTORS
330
13C
102
}
330
1F
100
AcDbEntity
  8
LC-001-002-----0
 62
     7
370
    50
100
AcDbLine
 10
1184.591775
 20
2500.00933
 30
0.0
 11
1188.306939
 21
2500.00933
 31
0.0
  0
ARC
  5
5C
102
{ACAD_REACTORS
330
13C
102
}
330
1F
100
AcDbEntity
  8
LC-001-002-----0
 62
     7
370
    50
100
AcDbCircle
 10
695.929943
 20
2374.767427
 30
0.0
 40
36.00000000000005
100
AcDbArc
 50
186.000252
 51
267.49939
  0
ARC
  5
5D
102
{ACAD_REACTORS
330
13C
102
}
330
1F
100
AcDbEntity
  8
LC-001-002-----0
 62
     7
370
    50
100
AcDbCircle
 10
1122.683936
 20
2374.767427
 30
0.0
 40
36.0000000000001
100
AcDbArc
 50
272.50061
 51
353.999748
  0
LINE
  5
5E
102
{ACAD_REACTORS
330
13C
102
}
330
1F
100
AcDbEntity
  8
LC-001-002-----0
 62
     7
370
    50
100
AcDbLine
 10
955.306939
 20
2313.63
 30
0.0
 11
863.306939
 21
2313.63
 31
0.0
  0
ARC
  5
5F
102
{ACAD_REACTORS
330
13C
102
}
330
1F
100
AcDbEntity
  8
LC-001-002-----0
 62
     7
370
    50
100
AcDbCircle
 10
1122.472557
 20
2372.756293
 30
0.0
 40
44.00000000000004
100
AcDbArc
 50
272.500528
 51
353.999809
  0
ARC
  5
60
102
{ACAD_REACTORS
330
13C
102
}
330
1F
100
AcDbEntity
  8
LC-001-002-----0
 62
     7
370
    50
100
AcDbCircle
 10
696.141321
 20
2372.756293
 30
0.0
 40
44.00000000000001
100
AcDbArc
 50
186.000191
 51
267.499472
  0
LINE
  5
61
102
{ACAD_REACTORS
330
13C
102
}
330
1F
100
AcDbEntity
  8
LC-001-002-----0
 62
     7
370
    50
100
AcDbLine
 10
849.156778
 20
2332.043102
 30
0.0
 11
694.359645
 21
2338.801691
 31
0.0
  0
ARC
  5
62
102
{ACAD_REACTORS
330
13C
102
}
330
1F
100
AcDbEntity
  8
LC-001-002-----0
 62
     7
370
    50
100
AcDbCircle
 10
849.088295
 20
2330.474596
 30
0.0
 40
1.570000000000124
100
AcDbArc
 50
35.0
 51
87.5
  0
LINE
  5
63
102
{ACAD_REACTORS
330
13C
102
}
330
1F
100
AcDbEntity
  8
LC-001-002-----0
 62
     7
370
    50
100
AcDbLine
 10
851.915647
 20
2329.173931
 30
0.0
 11
850.374364
 21
2331.375111
 31
0.0
  0
ARC
  5
64
102
{ACAD_REACTORS
330
13C
102
}
330
1F
100
AcDbEntity
  8
LC-001-002-----0
 62
     7
370
    50
100
AcDbCircle
 10
853.201716
 20
2330.074446
 30
0.0
 40
1.570000000000141
100
AcDbArc
 50
215.0
 51
245.0
  0
LINE
  5
65
102
{ACAD_REACTORS
330
13C
102
}
330
1F
100
AcDbEntity
  8
LC-001-002-----0
 62
     7
370
    50
100
AcDbLine
 10
862.302321
 20
2324.098461
 30
0.0
 11
852.538205
 21
2328.651543
 31
0.0
  0
ARC
  5
66
102
{ACAD_REACTORS
330
13C
102
}
330
1F
100
AcDbEntity
  8
LC-001-002-----0
 62
     7
370
    50
100
AcDbCircle
 10
864.415413
 20
2328.63
 30
0.0
 40
4.999999999999833
100
AcDbArc
 50
245.0
 51
257.191412
  0
LINE
  5
67
102
{ACAD_REACTORS
330
13C
102
}
330
1F
100
AcDbEntity
  8
LC-001-002-----0
 62
     7
370
    50
100
AcDbLine
 10
863.306939
 20
2313.63
 30
0.0
 11
863.306939
 21
2323.754419
 31
0.0
  0
ARC
  5
68
102
{ACAD_REACTORS
330
13C
102
}
330
1F
100
AcDbEntity
  8
LC-001-002-----0
 62
     7
370
    50
100
AcDbCircle
 10
848.21815
 20
2316.63
 30
0.0
 40
2.999999999999851
100
AcDbArc
 50
205.0
 51
270.0
  0
LINE
  5
69
102
{ACAD_REACTORS
330
13C
102
}
330
1F
100
AcDbEntity
  8
LC-001-002-----0
 62
     7
370
    50
100
AcDbLine
 10
845.499227
 20
2315.362145
 30
0.0
 11
843.786328
 21
2319.035469
 31
0.0
  0
ARC
  5
6A
102
{ACAD_REACTORS
330
13C
102
}
330
1F
100
AcDbEntity
  8
LC-001-002-----0
 62
     7
370
    50
100
AcDbCircle
 10
838.348481
 20
2316.49976
 30
0.0
 40
5.999999999999987
100
AcDbArc
 50
25.0
 51
87.5
  0
LINE
  5
6B
102
{ACAD_REACTORS
330
13C
102
}
330
1F
100
AcDbEntity
  8
LC-001-002-----0
 62
     7
370
    50
100
AcDbLine
 10
838.610197
 20
2322.494049
 30
0.0
 11
694.222068
 21
2328.798171
 31
0.0
  0
ARC
  5
6C
102
{ACAD_REACTORS
330
13C
102
}
330
1F
100
AcDbEntity
  8
LC-001-002-----0
 62
     7
370
    50
100
AcDbCircle
 10
634.022104
 20
2495.00933
 30
0.0
 40
5.00000000000006
100
AcDbArc
 50
6.0
 51
90.0
  0
ARC
  5
6D
102
{ACAD_REACTORS
330
13C
102
}
330
1F
100
AcDbEntity
  8
LC-001-002-----0
 62
     7
370
    50
100
AcDbCircle
 10
1184.591775
 20
2495.00933
 30
0.0
 40
5.0
100
AcDbArc
 50
90.0
 51
174.0
  0
LINE
  5
6E
102
{ACAD_REACTORS
330
13C
102
}
330
1F
100
AcDbEntity
  8
LC-001-002-----0
 62
     7
370
    50
100
AcDbLine
 10
980.003681
 20
2322.494049
 30
0.0
 11
1124.39181
 21
2328.798171
 31
0.0
  0
ARC
  5
6F
102
{ACAD_REACTORS
330
13C
102
}
330
1F
100
AcDbEntity
  8
LC-001-002-----0
 62
     7
370
    50
100
AcDbCircle
 10
980.265398
 20
2316.49976
 30
0.0
 40
5.999999999999949
100
AcDbArc
 50
92.5
 51
155.0
  0
LINE
  5
70
102
{ACAD_REACTORS
330
13C
102
}
330
1F
100
AcDbEntity
  8
LC-001-002-----0
 62
     7
370
    50
100
AcDbLine
 10
973.114652
 20
2315.362145
 30
0.0
 11
974.827551
 21
2319.035469
 31
0.0
  0
ARC
  5
71
102
{ACAD_REACTORS
330
13C
102
}
330
1F
100
AcDbEntity
  8
LC-001-002-----0
 62
     7
370
    50
100
AcDbCircle
 10
970.395729
 20
2316.63
 30
0.0
 40
3.0
100
AcDbArc
 50
270.0
 51
335.0
  0
LINE
  5
72
102
{ACAD_REACTORS
330
13C
102
}
330
1F
100
AcDbEntity
  8
LC-001-002-----0
 62
     7
370
    50
100
AcDbLine
 10
955.306939
 20
2313.63
 30
0.0
 11
955.306939
 21
2323.754419
 31
0.0
  0
ARC
  5
73
102
{ACAD_REACTORS
330
13C
102
}
330
1F
100
AcDbEntity
  8
LC-001-002-----0
 62
     7
370
    50
100
AcDbCircle
 10
954.198466
 20
2328.63
 30
0.0
 40
5.00000000000016
100
AcDbArc
 50
282.808588
 51
295.0
  0
ARC
  5
74
102
{ACAD_REACTORS
330
13C
102
}
330
1F
100
AcDbEntity
  8
LC-001-002-----0
 62
     7
370
    50
100
AcDbCircle
 10
969.525583
 20
2330.474596
 30
0.0
 40
1.570000000000045
100
AcDbArc
 50
92.5
 51
145.0
  0
LINE
  5
75
102
{ACAD_REACTORS
330
13C
102
}
330
1F
100
AcDbEntity
  8
LC-001-002-----0
 62
     7
370
    50
100
AcDbLine
 10
969.457101
 20
2332.043102
 30
0.0
 11
1124.254234
 21
2338.801691
 31
0.0
  0
LINE
  5
76
102
{ACAD_REACTORS
330
13C
102
}
330
1F
100
AcDbEntity
  8
LC-001-002-----0
 62
     7
370
    50
100
AcDbLine
 10
973.114652
 20
2315.362145
 30
0.0
 11
974.827551
 21
2319.035469
 31
0.0
  0
ARC
  5
77
102
{ACAD_REACTORS
330
13C
102
}
330
1F
100
AcDbEntity
  8
LC-001-002-----0
 62
     7
370
    50
100
AcDbCircle
 10
980.265398
 20
2316.49976
 30
0.0
 40
5.999999999999896
100
AcDbArc
 50
92.5
 51
155.0
  0
LINE
  5
78
102
{ACAD_REACTORS
330
13C
102
}
330
1F
100
AcDbEntity
  8
LC-001-002-----0
 62
     7
370
    50
100
AcDbLine
 10
956.311557
 20
2324.098461
 30
0.0
 11
966.075674
 21
2328.651543
 31
0.0
  0
ARC
  5
79
102
{ACAD_REACTORS
330
13C
102
}
330
1F
100
AcDbEntity
  8
LC-001-002-----0
 62
     7
370
    50
100
AcDbCircle
 10
965.412163
 20
2330.074446
 30
0.0
 40
1.570000000000267
100
AcDbArc
 50
295.0
 51
325.0
  0
LINE
  5
7A
102
{ACAD_REACTORS
330
13C
102
}
330
1F
100
AcDbEntity
  8
LC-001-002-----0
 62
     7
370
    50
100
AcDbLine
 10
966.698232
 20
2329.173931
 30
0.0
 11
968.239514
 21
2331.375111
 31
0.0
  0
LINE
  5
7B
102
{ACAD_REACTORS
330
13C
102
}
330
1F
100
AcDbEntity
  8
LC-001-002-----0
 62
     7
370
    50
100
AcDbLine
 10
863.306925
 20
2323.754394
 30
0.0
 11
955.306953
 21
2323.754394
 31
0.0
  0
LINE
  5
7E
102
{ACAD_REACTORS
330
13C
102
}
330
1F
100
AcDbEntity
  8
LC-003-006-MLN-0
 62
     7
370
    25
100
AcDbLine
 10
909.306939
 20
2335.009284
 30
0.0
 11
909.306939
 21
2310.63
 31
0.0
  0
LINE
  5
7F
102
{ACAD_REACTORS
330
13C
102
}
330
1F
100
AcDbEntity
  8
LC-001-002-----0
 62
     7
370
    25
100
AcDbLine
 10
852.53821
 20
2328.82937
 30
0.0
 11
966.075679
 21
2328.82937
 31
0.0
  0
LINE
  5
80
102
{ACAD_REACTORS
330
13C
102
}
330
1F
100
AcDbEntity
  8
LC-001-002-----0
 62
     7
370
    25
100
AcDbLine
 10
849.930315
 20
2332.009284
 30
0.0
 11
968.683563
 21
2332.009284
 31
0.0
  0
LINE
  5
81
330
1F
100
AcDbEntity
  8
LC-001-002-----0
 62
     7
370
    50
100
AcDbLine
 10
623.25438
 20
2500.00933
 30
0.0
 11
620.306939
 21
2511.00933
 31
0.0
  0
LINE
  5
82
330
1F
100
AcDbEntity
  8
LC-001-002-----0
 62
     7
370
    50
100
AcDbLine
 10
623.25438
 20
2500.00933
 30
0.0
 11
633.822104
 21
2500.00933
 31
0.0
  0
LINE
  5
83
330
1F
100
AcDbEntity
  8
LC-001-002-----0
 62
     7
370
    50
100
AcDbLine
 10
1198.306939
 20
2511.00933
 30
0.0
 11
1174.207343
 21
2511.00933
 31
0.0
  0
LINE
  5
84
330
1F
100
AcDbEntity
  8
LC-001-002-----0
 62
     7
370
    50
100
AcDbLine
 10
1195.359498
 20
2500.00933
 30
0.0
 11
1184.791775
 21
2500.00933
 31
0.0
  0
LINE
  5
85
330
1F
100
AcDbEntity
  8
LC-001-002-----0
 62
     7
370
    50
100
AcDbLine
 10
1195.359498
 20
2500.00933
 30
0.0
 11
1198.306939
 21
2511.00933
 31
0.0
  0
ARC
  5
87
102
{ACAD_REACTORS
330
13D
102
}
330
1F
100
AcDbEntity
  8
LC-004-002-RND-0
 62
     7
370
    50
100
AcDbCircle
 10
1578.442746
 20
1892.47195
 30
0.0
 40
36.00000000000001
100
AcDbArc
 50
96.0
 51
177.5
  0
ARC
  5
88
102
{ACAD_REACTORS
330
13D
102
}
330
1F
100
AcDbEntity
  8
LC-004-002-RND-0
 62
     7
370
    50
100
AcDbCircle
 10
1576.431612
 20
1892.260571
 30
0.0
 40
44.00000000000004
100
AcDbArc
 50
96.0
 51
177.5
  0
LINE
  5
89
102
{ACAD_REACTORS
330
13D
102
}
330
1F
100
AcDbEntity
  8
LC-001-002-----0
 62
     7
370
    50
100
AcDbLine
 10
1717.491832
 20
1944.290404
 30
0.0
 11
1717.491832
 21
1743.39
 31
0.0
  0
LINE
  5
8A
102
{ACAD_REACTORS
330
13D
102
}
330
1F
100
AcDbEntity
  8
LC-001-002-----0
 62
     7
370
    50
100
AcDbLine
 10
1717.491832
 20
1943.284896
 30
0.0
 11
1574.679721
 21
1928.274738
 31
0.0
  0
LINE
  5
8B
102
{ACAD_REACTORS
330
13D
102
}
330
1F
100
AcDbEntity
  8
LC-001-002-----0
 62
     7
370
    50
100
AcDbLine
 10
1520.112501
 20
1804.478789
 30
0.0
 11
1520.112501
 21
1789.39
 31
0.0
  0
LINE
  5
8C
102
{ACAD_REACTORS
330
13D
102
}
330
1F
100
AcDbEntity
  8
LC-001-002-----0
 62
     7
370
    50
100
AcDbLine
 10
1520.112501
 20
1697.39
 30
0.0
 11
1520.112501
 21
1682.301211
 31
0.0
  0
LINE
  5
8D
102
{ACAD_REACTORS
330
13D
102
}
330
1F
100
AcDbEntity
  8
LC-001-002-----0
 62
     7
370
    50
100
AcDbLine
 10
1702.014474
 20
1949.702226
 30
0.0
 11
1571.832359
 21
1936.019535
 31
0.0
  0
LINE
  5
8E
102
{ACAD_REACTORS
330
13D
102
}
330
1F
100
AcDbEntity
  8
LC-001-002-----0
 62
     7
370
    50
100
AcDbLine
 10
1706.491832
 20
1965.442559
 30
0.0
 11
1706.491832
 21
1954.674836
 31
0.0
  0
LINE
  5
8F
102
{ACAD_REACTORS
330
13D
102
}
330
1F
100
AcDbEntity
  8
LC-001-002-----0
 62
     7
370
    50
100
AcDbLine
 10
1520.112501
 20
1697.39
 30
0.0
 11
1520.112501
 21
1789.39
 31
0.0
  0
LINE
  5
90
102
{ACAD_REACTORS
330
13D
102
}
330
1F
100
AcDbEntity
  8
LC-001-002-----0
 62
     7
370
    50
100
AcDbLine
 10
1538.525603
 20
1803.540161
 30
0.0
 11
1542.47701
 21
1894.042248
 31
0.0
  0
ARC
  5
91
102
{ACAD_REACTORS
330
13D
102
}
330
1F
100
AcDbEntity
  8
LC-001-002-----0
 62
     7
370
    50
100
AcDbCircle
 10
1536.957098
 20
1803.608644
 30
0.0
 40
1.570000000000031
100
AcDbArc
 50
305.0
 51
357.5
  0
LINE
  5
92
102
{ACAD_REACTORS
330
13D
102
}
330
1F
100
AcDbEntity
  8
LC-001-002-----0
 62
     7
370
    50
100
AcDbLine
 10
1535.656433
 20
1800.781292
 30
0.0
 11
1537.857613
 21
1802.322575
 31
0.0
  0
ARC
  5
93
102
{ACAD_REACTORS
330
13D
102
}
330
1F
100
AcDbEntity
  8
LC-001-002-----0
 62
     7
370
    50
100
AcDbCircle
 10
1536.556948
 20
1799.495224
 30
0.0
 40
1.570000000000141
100
AcDbArc
 50
125.0
 51
155.0
  0
LINE
  5
94
102
{ACAD_REACTORS
330
13D
102
}
330
1F
100
AcDbEntity
  8
LC-001-002-----0
 62
     7
370
    50
100
AcDbLine
 10
1530.580962
 20
1790.394618
 30
0.0
 11
1535.134045
 21
1800.158734
 31
0.0
  0
ARC
  5
95
102
{ACAD_REACTORS
330
13D
102
}
330
1F
100
AcDbEntity
  8
LC-001-002-----0
 62
     7
370
    50
100
AcDbCircle
 10
1535.112501
 20
1788.281527
 30
0.0
 40
4.999999999999785
100
AcDbArc
 50
155.0
 51
167.191412
  0
LINE
  5
96
102
{ACAD_REACTORS
330
13D
102
}
330
1F
100
AcDbEntity
  8
LC-001-002-----0
 62
     7
370
    50
100
AcDbLine
 10
1520.112501
 20
1789.39
 30
0.0
 11
1530.236921
 21
1789.39
 31
0.0
  0
ARC
  5
97
102
{ACAD_REACTORS
330
13D
102
}
330
1F
100
AcDbEntity
  8
LC-001-002-----0
 62
     7
370
    50
100
AcDbCircle
 10
1523.112501
 20
1804.478789
 30
0.0
 40
2.999999999999851
100
AcDbArc
 50
115.0
 51
180.0
  0
LINE
  5
98
102
{ACAD_REACTORS
330
13D
102
}
330
1F
100
AcDbEntity
  8
LC-001-002-----0
 62
     7
370
    50
100
AcDbLine
 10
1521.844647
 20
1807.197713
 30
0.0
 11
1525.517971
 21
1808.910612
 31
0.0
  0
ARC
  5
99
102
{ACAD_REACTORS
330
13D
102
}
330
1F
100
AcDbEntity
  8
LC-001-002-----0
 62
     7
370
    50
100
AcDbCircle
 10
1522.982261
 20
1814.348458
 30
0.0
 40
5.999999999999884
100
AcDbArc
 50
295.0
 51
357.5
  0
LINE
  5
9A
102
{ACAD_REACTORS
330
13D
102
}
330
1F
100
AcDbEntity
  8
LC-001-002-----0
 62
     7
370
    50
100
AcDbLine
 10
1528.97655
 20
1814.086742
 30
0.0
 11
1532.47349
 21
1894.179824
 31
0.0
  0
ARC
  5
9B
102
{ACAD_REACTORS
330
13D
102
}
330
1F
100
AcDbEntity
  8
LC-001-002-----0
 62
     7
370
    50
100
AcDbCircle
 10
1701.491832
 20
1954.674836
 30
0.0
 40
5.000000000000738
100
AcDbArc
 50
276.0
 51
0.0
  0
LINE
  5
9C
102
{ACAD_REACTORS
330
13D
102
}
330
1F
100
AcDbEntity
  8
LC-001-002-----0
 62
     7
370
    50
100
AcDbLine
 10
1528.97655
 20
1672.693258
 30
0.0
 11
1532.47349
 21
1592.600176
 31
0.0
  0
ARC
  5
9D
102
{ACAD_REACTORS
330
13D
102
}
330
1F
100
AcDbEntity
  8
LC-001-002-----0
 62
     7
370
    50
100
AcDbCircle
 10
1522.982261
 20
1672.431542
 30
0.0
 40
5.999999999999949
100
AcDbArc
 50
2.5
 51
65.0
  0
LINE
  5
9E
102
{ACAD_REACTORS
330
13D
102
}
330
1F
100
AcDbEntity
  8
LC-001-002-----0
 62
     7
370
    50
100
AcDbLine
 10
1521.844647
 20
1679.582287
 30
0.0
 11
1525.517971
 21
1677.869388
 31
0.0
  0
ARC
  5
9F
102
{ACAD_REACTORS
330
13D
102
}
330
1F
100
AcDbEntity
  8
LC-001-002-----0
 62
     7
370
    50
100
AcDbCircle
 10
1523.112501
 20
1682.301211
 30
0.0
 40
3.0
100
AcDbArc
 50
180.0
 51
245.0
  0
LINE
  5
A0
102
{ACAD_REACTORS
330
13D
102
}
330
1F
100
AcDbEntity
  8
LC-001-002-----0
 62
     7
370
    50
100
AcDbLine
 10
1520.112501
 20
1697.39
 30
0.0
 11
1530.236921
 21
1697.39
 31
0.0
  0
ARC
  5
A1
102
{ACAD_REACTORS
330
13D
102
}
330
1F
100
AcDbEntity
  8
LC-001-002-----0
 62
     7
370
    50
100
AcDbCircle
 10
1535.112501
 20
1698.498473
 30
0.0
 40
5.000000000000235
100
AcDbArc
 50
192.808588
 51
205.0
  0
ARC
  5
A2
102
{ACAD_REACTORS
330
13D
102
}
330
1F
100
AcDbEntity
  8
LC-001-002-----0
 62
     7
370
    50
100
AcDbCircle
 10
1536.957098
 20
1683.171356
 30
0.0
 40
1.57000000000004
100
AcDbArc
 50
2.5
 51
55.0
  0
LINE
  5
A3
102
{ACAD_REACTORS
330
13D
102
}
330
1F
100
AcDbEntity
  8
LC-001-002-----0
 62
     7
370
    50
100
AcDbLine
 10
1538.525603
 20
1683.239839
 30
0.0
 11
1542.47701
 21
1592.737752
 31
0.0
  0
LINE
  5
A4
102
{ACAD_REACTORS
330
13D
102
}
330
1F
100
AcDbEntity
  8
LC-001-002-----0
 62
     7
370
    50
100
AcDbLine
 10
1521.844647
 20
1679.582287
 30
0.0
 11
1525.517971
 21
1677.869388
 31
0.0
  0
ARC
  5
A5
102
{ACAD_REACTORS
330
13D
102
}
330
1F
100
AcDbEntity
  8
LC-001-002-----0
 62
     7
370
    50
100
AcDbCircle
 10
1522.982261
 20
1672.431542
 30
0.0
 40
5.999999999999896
100
AcDbArc
 50
2.5
 51
65.0
  0
LINE
  5
A6
102
{ACAD_REACTORS
330
13D
102
}
330
1F
100
AcDbEntity
  8
LC-001-002-----0
 62
     7
370
    50
100
AcDbLine
 10
1530.580962
 20
1696.385382
 30
0.0
 11
1535.134045
 21
1686.621266
 31
0.0
  0
ARC
  5
A7
102
{ACAD_REACTORS
330
13D
102
}
330
1F
100
AcDbEntity
  8
LC-001-002-----0
 62
     7
370
    50
100
AcDbCircle
 10
1536.556948
 20
1687.284776
 30
0.0
 40
1.570000000000123
100
AcDbArc
 50
205.0
 51
235.0
  0
LINE
  5
A8
102
{ACAD_REACTORS
330
13D
102
}
330
1F
100
AcDbEntity
  8
LC-001-002-----0
 62
     7
370
    50
100
AcDbLine
 10
1535.656433
 20
1685.998708
 30
0.0
 11
1537.857613
 21
1684.457425
 31
0.0
  0
LINE
  5
A9
102
{ACAD_REACTORS
330
13D
102
}
330
1F
100
AcDbEntity
  8
LC-001-002-----0
 62
     7
370
    50
100
AcDbLine
 10
1717.491832
 20
1968.39
 30
0.0
 11
1717.491832
 21
1944.290404
 31
0.0
  0
LINE
  5
AA
102
{ACAD_REACTORS
330
13D
102
}
330
1F
100
AcDbEntity
  8
LC-001-002-----0
 62
     7
370
    50
100
AcDbLine
 10
1530.236895
 20
1789.390014
 30
0.0
 11
1530.236895
 21
1697.389986
 31
0.0
  0
LINE
  5
AB
102
{ACAD_REACTORS
330
13D
102
}
330
1F
100
AcDbEntity
  8
LC-003-006-MLN-0
 62
     7
370
    25
100
AcDbLine
 10
1541.491786
 20
1743.39
 30
0.0
 11
1517.112501
 21
1743.39
 31
0.0
  0
LINE
  5
AC
102
{ACAD_REACTORS
330
13D
102
}
330
1F
100
AcDbEntity
  8
LC-001-002-----0
 62
     7
370
    25
100
AcDbLine
 10
1535.311871
 20
1800.158729
 30
0.0
 11
1535.311871
 21
1686.621261
 31
0.0
  0
LINE
  5
AD
102
{ACAD_REACTORS
330
13D
102
}
330
1F
100
AcDbEntity
  8
LC-001-002-----0
 62
     7
370
    25
100
AcDbLine
 10
1538.491786
 20
1802.766624
 30
0.0
 11
1538.491786
 21
1684.013376
 31
0.0
  0
LINE
  5
AE
102
{ACAD_REACTORS
330
13D
102
}
330
1F
100
AcDbEntity
  8
LC-001-002-----0
 62
     7
370
    50
100
AcDbLine
 10
1717.491832
 20
1542.489596
 30
0.0
 11
1717.491832
 21
1743.39
 31
0.0
  0
ARC
  5
AF
102
{ACAD_REACTORS
330
13E
102
}
330
1F
100
AcDbEntity
  8
LC-004-002-RND-0
 62
     7
370
    50
100
AcDbCircle
 10
1578.442746
 20
1594.30805
 30
0.0
 40
36.0
100
AcDbArc
 50
182.5
 51
264.0
  0
ARC
  5
B0
102
{ACAD_REACTORS
330
13E
102
}
330
1F
100
AcDbEntity
  8
LC-004-002-RND-0
 62
     7
370
    50
100
AcDbCircle
 10
1576.431612
 20
1594.519429
 30
0.0
 40
44.0
100
AcDbArc
 50
182.5
 51
264.0
  0
LINE
  5
B1
102
{ACAD_REACTORS
330
13E
102
}
330
1F
100
AcDbEntity
  8
LC-001-002-----0
 62
     7
370
    50
100
AcDbLine
 10
1717.491832
 20
1543.495104
 30
0.0
 11
1574.679721
 21
1558.505262
 31
0.0
  0
LINE
  5
B2
102
{ACAD_REACTORS
330
13E
102
}
330
1F
100
AcDbEntity
  8
LC-001-002-----0
 62
     7
370
    50
100
AcDbLine
 10
1702.014474
 20
1537.077774
 30
0.0
 11
1571.832359
 21
1550.760465
 31
0.0
  0
LINE
  5
B3
102
{ACAD_REACTORS
330
13E
102
}
330
1F
100
AcDbEntity
  8
LC-001-002-----0
 62
     7
370
    50
100
AcDbLine
 10
1706.491832
 20
1528.39
 30
0.0
 11
1706.491832
 21
1532.105164
 31
0.0
  0
ARC
  5
B4
102
{ACAD_REACTORS
330
13E
102
}
330
1F
100
AcDbEntity
  8
LC-001-002-----0
 62
     7
370
    50
100
AcDbCircle
 10
1701.491832
 20
1532.105164
 30
0.0
 40
5.000000000000682
100
AcDbArc
 50
0.0
 51
84.0
  0
LINE
  5
B5
102
{ACAD_REACTORS
330
13E
102
}
330
1F
100
AcDbEntity
  8
LC-001-002-----0
 62
     7
370
    50
100
AcDbLine
 10
1717.491832
 20
1518.39
 30
0.0
 11
1717.491832
 21
1542.489596
 31
0.0
  0
LINE
  5
B6
330
1F
100
AcDbEntity
  8
LC-001-002-----0
 62
     7
370
    50
100
AcDbLine
 10
1717.491832
 20
1518.39
 30
0.0
 11
1706.491832
 21
1521.337441
 31
0.0
  0
LINE
  5
B7
330
1F
100
AcDbEntity
  8
LC-001-002-----0
 62
     7
370
    50
100
AcDbLine
 10
1706.491832
 20
1521.337441
 30
0.0
 11
1706.491832
 21
1532.105164
 31
0.0
  0
LINE
  5
B8
102
{ACAD_REACTORS
330
13A
102
}
330
1F
100
AcDbEntity
  8
LC-001-002-----0
 62
     7
370
    50
100
AcDbLine
 10
1199.342215
 20
2511.00933
 30
0.0
 11
1195.590927
 21
2497.00933
 31
0.0
  0
LINE
  5
B9
102
{ACAD_REACTORS
330
13A
102
}
330
1F
100
AcDbEntity
  8
LC-001-002-----0
 62
     7
370
    50
100
AcDbLine
 10
1199.342215
 20
2511.00933
 30
0.0
 11
1264.062679
 21
2511.00933
 31
0.0
  0
LINE
  5
BA
102
{ACAD_REACTORS
330
13A
102
}
330
1F
100
AcDbEntity
  8
LC-001-002-----0
 62
     7
370
    25
100
AcDbLine
 10
1264.062679
 20
2511.00933
 30
0.0
 11
1268.718028
 21
2490.253471
 31
0.0
  0
LINE
  5
BB
102
{ACAD_REACTORS
330
13A
102
}
330
1F
100
AcDbEntity
  8
LC-001-002-----0
 62
     7
370
    50
100
AcDbLine
 10
1195.590927
 20
2497.00933
 30
0.0
 11
1190.785621
 21
2497.00933
 31
0.0
  0
LINE
  5
BC
102
{ACAD_REACTORS
330
13A
102
}
330
1F
100
AcDbEntity
  8
LC-001-002-----0
 62
     7
370
    50
100
AcDbLine
 10
1190.785621
 20
2473.00933
 30
0.0
 11
1264.274286
 21
2473.00933
 31
0.0
  0
LINE
  5
BD
102
{ACAD_REACTORS
330
13A
102
}
330
1F
100
AcDbEntity
  8
LC-001-002-----0
 62
     7
370
    50
100
AcDbLine
 10
1190.785621
 20
2497.00933
 30
0.0
 11
1190.785621
 21
2473.00933
 31
0.0
  0
LINE
  5
BE
102
{ACAD_REACTORS
330
13A
102
}
330
1F
100
AcDbEntity
  8
LC-001-002-----0
 62
     7
370
    25
100
AcDbLine
 10
1268.718028
 20
2490.253471
 30
0.0
 11
1264.274286
 21
2473.00933
 31
0.0
  0
LINE
  5
BF
102
{ACAD_REACTORS
330
13A
102
}
330
1F
100
AcDbEntity
  8
LC-001-002-----0
 62
     7
370
    25
100
AcDbLine
 10
1190.306939
 20
2296.074124
 30
0.0
 11
1200.628044
 21
2293.503386
 31
0.0
  0
LINE
  5
C0
102
{ACAD_REACTORS
330
13A
102
}
330
1F
100
AcDbEntity
  8
LC-001-002-----0
 62
     7
370
    50
100
AcDbLine
 10
1209.306939
 20
2296.074124
 30
0.0
 11
1209.306939
 21
2473.00933
 31
0.0
  0
LINE
  5
C1
102
{ACAD_REACTORS
330
13A
102
}
330
1F
100
AcDbEntity
  8
LC-001-002-----0
 62
     7
370
    25
100
AcDbLine
 10
1200.628044
 20
2293.503386
 30
0.0
 11
1209.306939
 21
2296.074124
 31
0.0
  0
LINE
  5
C2
102
{ACAD_REACTORS
330
13A
102
}
330
1F
100
AcDbEntity
  8
LC-001-002-----0
 62
     7
370
    50
100
AcDbLine
 10
1190.306939
 20
2296.074124
 30
0.0
 11
1190.306939
 21
2473.00933
 31
0.0
  0
LINE
  5
C3
102
{ACAD_REACTORS
330
13A
102
}
330
1F
100
AcDbEntity
  8
LC-001-002-----0
 62
     7
370
    50
100
AcDbLine
 10
628.306939
 20
2296.074124
 30
0.0
 11
628.306939
 21
2473.00933
 31
0.0
  0
LINE
  5
C4
102
{ACAD_REACTORS
330
13A
102
}
330
1F
100
AcDbEntity
  8
LC-001-002-----0
 62
     7
370
    50
100
AcDbLine
 10
609.306939
 20
2296.074124
 30
0.0
 11
609.306939
 21
2473.00933
 31
0.0
  0
LINE
  5
C5
102
{ACAD_REACTORS
330
13A
102
}
330
1F
100
AcDbEntity
  8
LC-001-002-----0
 62
     7
370
    50
100
AcDbLine
 10
627.828258
 20
2473.00933
 30
0.0
 11
554.339593
 21
2473.00933
 31
0.0
  0
LINE
  5
C6
102
{ACAD_REACTORS
330
13A
102
}
330
1F
100
AcDbEntity
  8
LC-001-002-----0
 62
     7
370
    50
100
AcDbLine
 10
627.828258
 20
2497.00933
 30
0.0
 11
627.828258
 21
2473.00933
 31
0.0
  0
LINE
  5
C7
102
{ACAD_REACTORS
330
13A
102
}
330
1F
100
AcDbEntity
  8
LC-001-002-----0
 62
     7
370
    50
100
AcDbLine
 10
623.022952
 20
2497.00933
 30
0.0
 11
627.828258
 21
2497.00933
 31
0.0
  0
LINE
  5
C8
102
{ACAD_REACTORS
330
13A
102
}
330
1F
100
AcDbEntity
  8
LC-001-002-----0
 62
     7
370
    50
100
AcDbLine
 10
619.271663
 20
2511.00933
 30
0.0
 11
623.022952
 21
2497.00933
 31
0.0
  0
LINE
  5
C9
102
{ACAD_REACTORS
330
13A
102
}
330
1F
100
AcDbEntity
  8
LC-001-002-----0
 62
     7
370
    50
100
AcDbLine
 10
619.271663
 20
2511.00933
 30
0.0
 11
554.5512
 21
2511.00933
 31
0.0
  0
LINE
  5
CA
102
{ACAD_REACTORS
330
13A
102
}
330
1F
100
AcDbEntity
  8
LC-001-002-----0
 62
     7
370
    25
100
AcDbLine
 10
628.306939
 20
2296.074124
 30
0.0
 11
617.985834
 21
2293.503386
 31
0.0
  0
LINE
  5
CB
102
{ACAD_REACTORS
330
13A
102
}
330
1F
100
AcDbEntity
  8
LC-001-002-----0
 62
     7
370
    25
100
AcDbLine
 10
617.985834
 20
2293.503386
 30
0.0
 11
609.306939
 21
2296.074124
 31
0.0
  0
LINE
  5
CC
102
{ACAD_REACTORS
330
13A
102
}
330
1F
100
AcDbEntity
  8
LC-001-002-----0
 62
     7
370
    25
100
AcDbLine
 10
554.5512
 20
2511.00933
 30
0.0
 11
549.895851
 21
2490.253471
 31
0.0
  0
LINE
  5
CD
102
{ACAD_REACTORS
330
13A
102
}
330
1F
100
AcDbEntity
  8
LC-001-002-----0
 62
     7
370
    25
100
AcDbLine
 10
549.895851
 20
2490.253471
 30
0.0
 11
554.339593
 21
2473.00933
 31
0.0
  0
LINE
  5
CE
330
1F
100
AcDbEntity
  8
LC-001-002-----0
 62
     7
370
    50
100
AcDbLine
 10
609.306939
 20
2473.00933
 30
0.0
 11
628.306939
 21
2473.00933
 31
0.0
  0
LINE
  5
CF
330
1F
100
AcDbEntity
  8
LC-001-002-----0
 62
     7
370
    50
100
AcDbLine
 10
751.806939
 20
2511.00933
 30
0.0
 11
1190.765105
 21
2511.00933
 31
0.0
  0
LINE
  5
D0
330
1F
100
AcDbEntity
  8
LC-001-002-----0
 62
     7
370
    50
100
AcDbLine
 10
1190.306939
 20
2473.00933
 30
0.0
 11
1209.306939
 21
2473.00933
 31
0.0
  0
INSERT
  5
DC
330
1F
100
AcDbEntity
  8
LC-005-005-----0
 62
     7
370
    25
100
AcDbBlockReference
  2
*X12
 10
0.0
 20
0.0
 30
0.0
  0
DIMENSION
  5
DE
330
1F
100
AcDbEntity
  8
LC-002-003-----0
 62
     7
370
    25
100
AcDbDimension
  2
*D3
 10
1173.201835
 20
2576.479979
 30
0.0
 11
897.75431
 21
2606.479979
 31
0.0
 70
   160
 71
     5
 42
527.789792
  3
LC-DIM-L-0025-00-02
100
AcDbAlignedDimension
 13
645.412044
 23
2511.00933
 33
0.0
 14
1173.201835
 24
2511.00933
 34
0.0
100
AcDbRotatedDimension
  0
DIMENSION
  5
EB
330
1F
100
AcDbEntity
  8
LC-002-003-----0
 62
     7
370
    25
100
AcDbDimension
  2
*D4
 10
1209.306939
 20
2241.794348
 30
0.0
 11
909.086561
 21
2271.794348
 31
0.0
 70
   160
 71
     5
 42
600.0
  3
LC-DIM-L-0025-00-02
100
AcDbAlignedDimension
 13
609.306939
 23
2296.074124
 33
0.0
 14
1209.306939
 24
2296.074124
 34
0.0
100
AcDbRotatedDimension
  0
DIMENSION
  5
F8
330
1F
100
AcDbEntity
  8
LC-002-003-----0
 62
     7
370
    25
100
AcDbDimension
  2
*D5
 10
1198.306939
 20
1408.501511
 30
0.0
 11
907.113297
 21
1438.501511
 31
0.0
 70
   160
 71
     5
 42
578.0
  3
LC-DIM-L-0025-00-02
100
AcDbAlignedDimension
 13
620.306939
 23
1613.39
 33
0.0
 14
1198.306939
 24
1613.39
 34
0.0
100
AcDbRotatedDimension
  0
DIMENSION
  5
105
330
1F
100
AcDbEntity
  8
LC-002-003-----0
 62
     7
370
    25
100
AcDbDimension
  2
*D6
 10
1350.361273
 20
1518.39
 30
0.0
 11
1320.361273
 21
1738.636852
 31
0.0
 70
   160
 71
     5
 42
450.0
 53
90.0
  3
LC-DIM-L-0025-00-02
100
AcDbAlignedDimension
 13
1103.306939
 23
1968.39
 33
0.0
 14
1103.306939
 24
1518.39
 34
0.0
 50
90.0
100
AcDbRotatedDimension
  0
DIMENSION
  5
112
330
1F
100
AcDbEntity
  8
LC-002-003-----0
 62
     7
370
    25
100
AcDbDimension
  2
*D7
 10
1815.748265
 20
1543.495104
 30
0.0
 11
1785.748265
 21
1735.595149
 31
0.0
 70
   160
 71
     5
 42
399.789792
 53
90.0
  3
LC-DIM-L-0025-00-02
100
AcDbAlignedDimension
 13
1717.491832
 23
1943.284896
 33
0.0
 14
1717.491832
 24
1543.495104
 34
0.0
 50
90.0
100
AcDbRotatedDimension
  0
LINE
  5
11F
330
1F
100
AcDbEntity
  8
LC-001-002-----0
 62
     7
370
    50
100
AcDbLine
 10
645.412044
 20
1873.39
 30
0.0
 11
645.412044
 21
1613.39
 31
0.0
  0
ARC
  5
120
330
1F
100
AcDbEntity
  8
LC-001-002-----0
 62
     7
370
    50
100
AcDbCircle
 10
715.306939
 20
1873.39
 30
0.0
 40
69.89489576479082
100
AcDbArc
 50
90.0
 51
180.0
  0
ARC
  5
121
330
1F
100
AcDbEntity
  8
LC-001-002-----0
 62
     7
370
    50
100
AcDbCircle
 10
1103.306939
 20
1873.39
 30
0.0
 40
69.89489576479082
100
AcDbArc
 50
0.0
 51
90.0
  0
ARC
  5
122
330
1F
100
AcDbEntity
  8
LC-001-002-----0
 62
     7
370
    50
100
AcDbCircle
 10
1103.306939
 20
1613.39
 30
0.0
 40
69.89489576479059
100
AcDbArc
 50
270.0
 51
0.0
  0
DIMENSION
  5
123
330
1F
100
AcDbEntity
  8
LC-002-003-----0
 62
     7
370
    25
100
AcDbDimension
  2
*D8
 10
715.306939
 20
1613.39
 30
0.0
 11
696.145654
 21
1619.423442
 31
0.0
 70
   164
 71
     5
 42
69.894896
  3
LC-DIM-R-0025-00-02
100
AcDbRadialDimension
 15
760.671603
 25
1666.562772
 35
0.0
 40
1.0
  0
DIMENSION
  5
12D
330
1F
100
AcDbEntity
  8
LC-002-003-----0
 62
     7
370
    25
100
AcDbDimension
  2
*D9
 10
931.789522
 20
2332.009284
 30
0.0
 11
901.789522
 21
2422.715571
 31
0.0
 70
   160
 71
     5
 42
179.000046
 53
90.0
  3
LC-DIM-L-0025-02-02
100
AcDbAlignedDimension
 13
909.306939
 23
2511.00933
 33
0.0
 14
909.306939
 24
2332.009284
 34
0.0
 50
90.0
100
AcDbRotatedDimension
  0
ENDSEC
  0
SECTION
  2
OBJECTS
  0
DICTIONARY
  5
C
330
0
100
AcDbDictionary
281
     1
  3
ACAD_GROUP
350
D
  3
ACAD_LAYOUT
350
1A
  3
ACAD_MLINESTYLE
350
17
  3
ACAD_PLOTSETTINGS
350
19
  3
ACAD_PLOTSTYLENAME
350
E
  0
DICTIONARY
  5
D
102
{ACAD_REACTORS
330
C
102
}
330
C
100
AcDbDictionary
281
     1
  3
LCGROUP124
350
13C
  3
LCGROUP214
350
13D
  3
LCGROUP23
350
13B
  3
LCGROUP260
350
13E
  3
LCGROUP275
350
13A
  0
DICTIONARY
  5
1A
102
{ACAD_REACTORS
330
C
102
}
330
C
100
AcDbDictionary
281
     1
  3
Layout1
350
1E
  3
Layout2
350
26
  3
Model
350
22
  0
DICTIONARY
  5
17
102
{ACAD_REACTORS
330
C
102
}
330
C
100
AcDbDictionary
281
     1
  3
Standard
350
18
  0
DICTIONARY
  5
19
102
{ACAD_REACTORS
330
C
102
}
330
C
100
AcDbDictionary
281
     1
  0
ACDBDICTIONARYWDFLT
  5
E
102
{ACAD_REACTORS
330
C
102
}
330
C
100
AcDbDictionary
281
     1
  3
Normal
350
F
100
AcDbDictionaryWithDefault
340
F
  0
GROUP
  5
13C
102
{ACAD_REACTORS
330
D
102
}
330
D
100
AcDbGroup
300
GRP124
 70
     1
 71
     1
340
54
340
55
340
56
340
57
340
58
340
59
340
5A
340
5B
340
5C
340
5D
340
5E
340
5F
340
60
340
61
340
62
340
63
340
64
340
65
340
66
340
67
340
68
340
69
340
6A
340
6B
340
6C
340
6D
340
6E
340
6F
340
70
340
71
340
72
340
73
340
74
340
75
340
76
340
77
340
78
340
79
340
7A
340
7B
340
7E
340
7F
340
80
  0
GROUP
  5
13D
102
{ACAD_REACTORS
330
D
102
}
330
D
100
AcDbGroup
300
GRP214
 70
     1
 71
     1
340
87
340
88
340
89
340
8A
340
8B
340
8C
340
8D
340
8E
340
8F
340
90
340
91
340
92
340
93
340
94
340
95
340
96
340
97
340
98
340
99
340
9A
340
9B
340
9C
340
9D
340
9E
340
9F
340
A0
340
A1
340
A2
340
A3
340
A4
340
A5
340
A6
340
A7
340
A8
340
A9
340
AA
340
AB
340
AC
340
AD
340
AE
  0
GROUP
  5
13B
102
{ACAD_REACTORS
330
D
102
}
330
D
100
AcDbGroup
300
GRP23
 70
     1
 71
     1
340
38
340
39
340
3A
340
3B
340
3C
340
3D
340
3E
340
3F
340
40
340
41
340
42
340
45
340
4F
340
50
340
51
340
52
  0
GROUP
  5
13E
102
{ACAD_REACTORS
330
D
102
}
330
D
100
AcDbGroup
300
Gruppe 248
 70
     1
 71
     1
340
AF
340
B0
340
B1
340
B2
340
B3
340
B4
340
B5
  0
GROUP
  5
13A
102
{ACAD_REACTORS
330
D
102
}
330
D
100
AcDbGroup
300
GRP275
 70
     1
 71
     1
340
B8
340
B9
340
BA
340
BB
340
BC
340
BD
340
BE
340
BF
340
C0
340
C1
340
C2
340
C3
340
C4
340
C5
340
C6
340
C7
340
C8
340
C9
340
CA
340
CB
340
CC
340
CD
  0
LAYOUT
  5
1E
102
{ACAD_REACTORS
330
1A
102
}
330
1A
100
AcDbPlotSettings
  1

  2

  4

  6

 40
0.0
 41
0.0
 42
0.0
 43
0.0
 44
0.0
 45
0.0
 46
0.0
 47
0.0
 48
0.0
 49
0.0
140
0.0
141
0.0
142
1.0
143
1.0
 70
   688
 72
     0
 73
     0
 74
     5
  7

 75
    16
 76
     0
 77
     2
 78
   300
147
1.0
148
0.0
149
0.0
100
AcDbLayout
  1
Layout1
 70
     1
 71
     1
 10
0.0
 20
0.0
 11
2100.0
 21
2970.0
 12
0.0
 22
0.0
 32
0.0
 14
0.0
 24
0.0
 34
0.0
 15
2100.0
 25
2970.0
 35
0.0
146
0.0
 13
0.0
 23
0.0
 33
0.0
 16
1.0
 26
0.0
 36
0.0
 17
0.0
 27
1.0
 37
0.0
 76
     0
330
1B
  0
LAYOUT
  5
26
102
{ACAD_REACTORS
330
1A
102
}
330
1A
100
AcDbPlotSettings
  1

  2

  4

  6

 40
0.0
 41
0.0
 42
0.0
 43
0.0
 44
0.0
 45
0.0
 46
0.0
 47
0.0
 48
0.0
 49
0.0
140
0.0
141
0.0
142
1.0
143
1.0
 70
   688
 72
     0
 73
     0
 74
     5
  7

 75
    16
 76
     0
 77
     2
 78
   300
147
1.0
148
0.0
149
0.0
100
AcDbLayout
  1
Layout2
 70
     1
 71
     2
 10
0.0
 20
0.0
 11
0.0
 21
0.0
 12
0.0
 22
0.0
 32
0.0
 14
0.0
 24
0.0
 34
0.0
 15
0.0
 25
0.0
 35
0.0
146
0.0
 13
0.0
 23
0.0
 33
0.0
 16
1.0
 26
0.0
 36
0.0
 17
0.0
 27
1.0
 37
0.0
 76
     0
330
23
  0
LAYOUT
  5
22
102
{ACAD_REACTORS
330
1A
102
}
330
1A
100
AcDbPlotSettings
  1

  2

  4

  6

 40
0.0
 41
0.0
 42
0.0
 43
0.0
 44
0.0
 45
0.0
 46
0.0
 47
0.0
 48
0.0
 49
0.0
140
0.0
141
0.0
142
1.0
143
1.0
 70
  1776
 72
     0
 73
     0
 74
     0
  7

 75
     0
 76
     0
 77
     2
 78
   300
147
1.0
148
0.0
149
0.0
100
AcDbLayout
  1
Model
 70
     1
 71
     0
 10
0.0
 20
0.0
 11
2100.0
 21
2970.0
 12
0.0
 22
0.0
 32
0.0
 14
0.0
 24
0.0
 34
0.0
 15
2100.0
 25
2970.0
 35
0.0
146
0.0
 13
0.0
 23
0.0
 33
0.0
 16
1.0
 26
0.0
 36
0.0
 17
0.0
 27
1.0
 37
0.0
 76
     0
330
1F
  0
MLINESTYLE
  5
18
102
{ACAD_REACTORS
330
17
102
}
330
17
100
AcDbMlineStyle
  2
Standard
 70
     0
  3

 62
   256
 51
90.0
 52
90.0
 71
     2
 49
0.5
 62
   256
  6
BYLAYER
 49
-0.5
 62
   256
  6
BYLAYER
  0
ACDBPLACEHOLDER
  5
F
102
{ACAD_REACTORS
330
E
102
}
330
E
  0
ENDSEC
  0
EOF
