  0
SECTION
  2
HEADER
  9
$ACADVER
  1
AC1015
  9
$ACADMAINTVER
 70
    20
  9
$DWGCODEPAGE
  3
ANSI_1252
  9
$INSBASE
 10
1050.0
 20
1485.0
 30
0.0
  9
$EXTMIN
 10
-410.0
 20
-282.5
 30
0.0
  9
$EXTMAX
 10
2238.931294
 20
1767.5
 30
0.0
  9
$LIMMIN
 10
-435.0
 20
-307.5
  9
$LIMMAX
 10
2535.0
 20
1792.5
  9
$ORTHOMODE
 70
     0
  9
$REGENMODE
 70
     1
  9
$FILLMODE
 70
     1
  9
$QTEXTMODE
 70
     0
  9
$MIRRTEXT
 70
     1
  9
$LTSCALE
 40
5.0
  9
$ATTMODE
 70
     1
  9
$TEXTSIZE
 40
2.5
  9
$TRACEWID
 40
1.0
  9
$TEXTSTYLE
  7
Standard
  9
$CLAYER
  8
0
  9
$CELTYPE
  6
ByLayer
  9
$CECOLOR
 62
     7
  9
$CELTSCALE
 40
1.0
  9
$DISPSILH
 70
     0
  9
$DIMSCALE
 40
5.0
  9
$DIMASZ
 40
3.5
  9
$DIMEXO
 40
0.625
  9
$DIMDLI
 40
3.75
  9
$DIMRND
 40
0.0
  9
$DIMDLE
 40
0.0
  9
$DIMEXE
 40
1.25
  9
$DIMTP
 40
0.0
  9
$DIMTM
 40
0.0
  9
$DIMTXT
 40
3.5
  9
$DIMCEN
 40
2.5
  9
$DIMTSZ
 40
0.0
  9
$DIMTOL
 70
     0
  9
$DIMLIM
 70
     0
  9
$DIMTIH
 70
     0
  9
$DIMTOH
 70
     0
  9
$DIMSE1
 70
     0
  9
$DIMSE2
 70
     0
  9
$DIMTAD
 70
     1
  9
$DIMZIN
 70
     8
  9
$DIMBLK
  1

  9
$DIMASO
 70
     1
  9
$DIMSHO
 70
     1
  9
$DIMPOST
  1

  9
$DIMAPOST
  1

  9
$DIMALT
 70
     0
  9
$DIMALTD
 70
     3
  9
$DIMALTF
 40
0.03937
  9
$DIMLFAC
 40
1.0
  9
$DIMTOFL
 70
     1
  9
$DIMTVP
 40
0.0
  9
$DIMTIX
 70
     0
  9
$DIMSOXD
 70
     0
  9
$DIMSAH
 70
     0
  9
$DIMBLK1
  1

  9
$DIMBLK2
  1

  9
$DIMSTYLE
  2
ISO-25
  9
$DIMCLRD
 70
     0
  9
$DIMCLRE
 70
     0
  9
$DIMCLRT
 70
     0
  9
$DIMTFAC
 40
1.0
  9
$DIMGAP
 40
0.625
  9
$DIMJUST
 70
     0
  9
$DIMSD1
 70
     0
  9
$DIMSD2
 70
     0
  9
$DIMTOLJ
 70
     0
  9
$DIMTZIN
 70
     8
  9
$DIMALTZ
 70
     0
  9
$DIMALTTZ
 70
     0
  9
$DIMUPT
 70
     0
  9
$DIMDEC
 70
     2
  9
$DIMTDEC
 70
     2
  9
$DIMALTU
 70
     2
  9
$DIMALTTD
 70
     3
  9
$DIMTXSTY
  7
Standard
  9
$DIMAUNIT
 70
     0
  9
$DIMADEC
 70
     0
  9
$DIMALTRND
 40
0.0
  9
$DIMAZIN
 70
     0
  9
$DIMDSEP
 70
    44
  9
$DIMATFIT
 70
     3
  9
$DIMFRAC
 70
     0
  9
$DIMLDRBLK
  1

  9
$DIMLUNIT
 70
     2
  9
$DIMLWD
 70
    -2
  9
$DIMLWE
 70
    -2
  9
$DIMTMOVE
 70
     0
  9
$LUNITS
 70
     2
  9
$LUPREC
 70
     4
  9
$SKETCHINC
 40
1.0
  9
$FILLETRAD
 40
10.0
  9
$AUNITS
 70
     0
  9
$AUPREC
 70
     0
  9
$MENU
  1
.
  9
$ELEVATION
 40
0.0
  9
$PELEVATION
 40
0.0
  9
$THICKNESS
 40
0.0
  9
$LIMCHECK
 70
     0
  9
$CHAMFERA
 40
10.0
  9
$CHAMFERB
 40
10.0
  9
$CHAMFERC
 40
20.0
  9
$CHAMFERD
 40
0.0
  9
$SKPOLY
 70
     0
  9
$TDCREATE
 40
2455509.579924398
  9
$TDUCREATE
 40
2455509.538257732
  9
$TDUPDATE
 40
2455964.649055394
  9
$TDUUPDATE
 40
2455964.607388727
  9
$TDINDWG
 40
0.0011082292
  9
$TDUSRTIMER
 40
0.0011082292
  9
$USRTIMER
 70
     1
  9
$ANGBASE
 50
0.0
  9
$ANGDIR
 70
     0
  9
$PDMODE
 70
     0
  9
$PDSIZE
 40
0.0
  9
$PLINEWID
 40
0.0
  9
$SPLFRAME
 70
     0
  9
$SPLINETYPE
 70
     6
  9
$SPLINESEGS
 70
     8
  9
$HANDSEED
  5
827
  9
$SURFTAB1
 70
     6
  9
$SURFTAB2
 70
     6
  9
$SURFTYPE
 70
     6
  9
$SURFU
 70
     6
  9
$SURFV
 70
     6
  9
$UCSBASE
  2

  9
$UCSNAME
  2

  9
$UCSORG
 10
0.0
 20
0.0
 30
0.0
  9
$UCSXDIR
 10
1.0
 20
0.0
 30
0.0
  9
$UCSYDIR
 10
0.0
 20
1.0
 30
0.0
  9
$UCSORTHOREF
  2

  9
$UCSORTHOVIEW
 70
     0
  9
$UCSORGTOP
 10
0.0
 20
0.0
 30
0.0
  9
$UCSORGBOTTOM
 10
0.0
 20
0.0
 30
0.0
  9
$UCSORGLEFT
 10
0.0
 20
0.0
 30
0.0
  9
$UCSORGRIGHT
 10
0.0
 20
0.0
 30
0.0
  9
$UCSORGFRONT
 10
0.0
 20
0.0
 30
0.0
  9
$UCSORGBACK
 10
0.0
 20
0.0
 30
0.0
  9
$PUCSBASE
  2

  9
$PUCSNAME
  2

  9
$PUCSORG
 10
0.0
 20
0.0
 30
0.0
  9
$PUCSXDIR
 10
1.0
 20
0.0
 30
0.0
  9
$PUCSYDIR
 10
0.0
 20
1.0
 30
0.0
  9
$PUCSORTHOREF
  2

  9
$PUCSORTHOVIEW
 70
     0
  9
$PUCSORGTOP
 10
0.0
 20
0.0
 30
0.0
  9
$PUCSORGBOTTOM
 10
0.0
 20
0.0
 30
0.0
  9
$PUCSORGLEFT
 10
0.0
 20
0.0
 30
0.0
  9
$PUCSORGRIGHT
 10
0.0
 20
0.0
 30
0.0
  9
$PUCSORGFRONT
 10
0.0
 20
0.0
 30
0.0
  9
$PUCSORGBACK
 10
0.0
 20
0.0
 30
0.0
  9
$USERI1
 70
     0
  9
$USERI2
 70
     0
  9
$USERI3
 70
     0
  9
$USERI4
 70
     0
  9
$USERI5
 70
     0
  9
$USERR1
 40
0.0
  9
$USERR2
 40
0.0
  9
$USERR3
 40
0.0
  9
$USERR4
 40
0.0
  9
$USERR5
 40
0.0
  9
$WORLDVIEW
 70
     1
  9
$SHADEDGE
 70
     3
  9
$SHADEDIF
 70
    70
  9
$TILEMODE
 70
     1
  9
$MAXACTVP
 70
    64
  9
$PINSBASE
 10
0.0
 20
0.0
 30
0.0
  9
$PLIMCHECK
 70
     0
  9
$PEXTMIN
 10
-435.0
 20
-307.5
 30
0.0
  9
$PEXTMAX
 10
2535.0
 20
1792.5
 30
0.0
  9
$PLIMMIN
 10
-435.0
 20
-307.5
  9
$PLIMMAX
 10
2535.0
 20
1792.5
  9
$UNITMODE
 70
     0
  9
$VISRETAIN
 70
     1
  9
$PLINEGEN
 70
     0
  9
$PSLTSCALE
 70
     1
  9
$TREEDEPTH
 70
  3020
  9
$CMLSTYLE
  2
Standard
  9
$CMLJUST
 70
     0
  9
$CMLSCALE
 40
20.0
  9
$PROXYGRAPHICS
 70
     1
  9
$MEASUREMENT
 70
     1
  9
$CELWEIGHT
370
    -1
  9
$ENDCAPS
280
     0
  9
$JOINSTYLE
280
     0
  9
$LWDISPLAY
290
     0
  9
$INSUNITS
 70
     4
  9
$HYPERLINKBASE
  1

  9
$STYLESHEET
  1

  9
$XEDIT
290
     1
  9
$CEPSNTYPE
380
     0
  9
$PSTYLEMODE
290
     1
  9
$FINGERPRINTGUID
  2
{FAEB1C30-E019-11D5-929B-00C0DF256EC4}
  9
$VERSIONGUID
  2
{CD14F82F-0E23-42EE-812C-61E9EBC1BED1}
  9
$EXTNAMES
290
     1
  9
$PSVPSCALE
 40
0.0
  9
$OLESTARTUP
290
     0
  0
ENDSEC
  0
SECTION
  2
CLASSES
  0
CLASS
  1
ACDBDICTIONARYWDFLT
  2
AcDbDictionaryWithDefault
  3
ObjectDBX Classes
 90
        0
280
     0
281
     0
  0
CLASS
  1
DICTIONARYVAR
  2
AcDbDictionaryVar
  3
ObjectDBX Classes
 90
        0
280
     0
281
     0
  0
CLASS
  1
ACDBPLACEHOLDER
  2
AcDbPlaceHolder
  3
ObjectDBX Classes
 90
        0
280
     0
281
     0
  0
CLASS
  1
LAYOUT
  2
AcDbLayout
  3
ObjectDBX Classes
 90
        0
280
     0
281
     0
  0
ENDSEC
  0
SECTION
  2
TABLES
  0
TABLE
  2
VPORT
  5
8
330
0
100
AcDbSymbolTable
 70
     2
  0
VPORT
  5
81C
330
8
100
AcDbSymbolTableRecord
100
AcDbViewportTableRecord
  2
*Active
 70
     0
 10
0.0
 20
0.0
 11
1.0
 21
1.0
 12
3520.476253917793
 22
370.4962754370599
 13
0.0
 23
0.0
 14
1.0
 24
1.0
 15
0.0
 25
0.0
 16
0.0
 26
0.0
 36
1.0
 17
0.0
 27
0.0
 37
0.0
 40
4714.862468852551
 41
1.932762836185819
 42
50.0
 43
0.0
 44
0.0
 50
0.0
 51
0.0
 71
    16
 72
   100
 73
     1
 74
     0
 75
     0
 76
     0
 77
     0
 78
     0
281
     0
 65
     0
110
0.0
120
0.0
130
0.0
111
1.0
121
0.0
131
0.0
112
0.0
122
1.0
132
0.0
 79
     0
146
0.0
  0
ENDTAB
  0
TABLE
  2
LTYPE
  5
5
330
0
100
AcDbSymbolTable
 70
     4
  0
LTYPE
  5
14
330
5
100
AcDbSymbolTableRecord
100
AcDbLinetypeTableRecord
  2
ByBlock
 70
     0
  3

 72
    65
 73
     0
 40
0.0
  0
LTYPE
  5
15
330
5
100
AcDbSymbolTableRecord
100
AcDbLinetypeTableRecord
  2
ByLayer
 70
     0
  3

 72
    65
 73
     0
 40
0.0
  0
LTYPE
  5
16
330
5
100
AcDbSymbolTableRecord
100
AcDbLinetypeTableRecord
  2
Continuous
 70
     0
  3
Solid line
 72
    65
 73
     0
 40
0.0
  0
LTYPE
  5
2A
330
5
100
AcDbSymbolTableRecord
100
AcDbLinetypeTableRecord
  2
DASHED
 70
     0
  3
__ __ __ __ __
 72
    65
 73
     2
 40
6.25
 49
5.0
 74
     4
 75
     0
340
0
 46
1.0
 50
0.0
 44
0.0
 45
0.0
 49
-1.25
 74
     4
 75
     0
340
0
 46
1.0
 50
0.0
 44
0.0
 45
0.0
  0
LTYPE
  5
6E
330
5
100
AcDbSymbolTableRecord
100
AcDbLinetypeTableRecord
  2
CENTER
 70
     0
  3
__ . __ . __ . __ . __
 72
    65
 73
     4
 40
7.5
 49
5.0
 74
     4
 75
     0
340
0
 46
1.0
 50
0.0
 44
0.0
 45
0.0
 49
-1.25
 74
     4
 75
     0
340
0
 46
1.0
 50
0.0
 44
0.0
 45
0.0
 49
0.0
 74
     4
 75
     0
340
0
 46
1.0
 50
0.0
 44
0.0
 45
0.0
 49
-1.25
 74
     4
 75
     0
340
0
 46
1.0
 50
0.0
 44
0.0
 45
0.0
  0
LTYPE
  5
1EE
330
5
100
AcDbSymbolTableRecord
100
AcDbLinetypeTableRecord
  2
DIVIDE
 70
     0
  3
__ . . __ . . __ . . __
 72
    65
 73
     6
 40
8.75
 49
5.0
 74
     4
 75
     0
340
0
 46
1.0
 50
0.0
 44
0.0
 45
0.0
 49
-1.25
 74
     4
 75
     0
340
0
 46
1.0
 50
0.0
 44
0.0
 45
0.0
 49
0.0
 74
     4
 75
     0
340
0
 46
1.0
 50
0.0
 44
0.0
 45
0.0
 49
-1.25
 74
     4
 75
     0
340
0
 46
1.0
 50
0.0
 44
0.0
 45
0.0
 49
0.0
 74
     4
 75
     0
340
0
 46
1.0
 50
0.0
 44
0.0
 45
0.0
 49
-1.25
 74
     4
 75
     0
340
0
 46
1.0
 50
0.0
 44
0.0
 45
0.0
  0
ENDTAB
  0
TABLE
  2
LAYER
  5
2
330
0
100
AcDbSymbolTable
 70
    15
  0
LAYER
  5
10
330
2
100
AcDbSymbolTableRecord
100
AcDbLayerTableRecord
  2
0
 70
     0
 62
     7
  6
Continuous
370
    -3
390
F
  0
LAYER
  5
2B
330
2
100
AcDbSymbolTableRecord
100
AcDbLayerTableRecord
  2
LC-INFO-1-5-mm-A2-0
 70
     1
 62
     7
  6
ByBlock
370
    -3
390
F
  0
LAYER
  5
2C
330
2
100
AcDbSymbolTableRecord
100
AcDbLayerTableRecord
  2
LC-CUT-HIDDEN
 70
     0
 62
     7
  6
DASHED
370
    -3
390
F
  0
LAYER
  5
2D
330
2
100
AcDbSymbolTableRecord
100
AcDbLayerTableRecord
  2
LC-VIEWPORT
 70
     0
 62
     7
  6
ByBlock
370
    -3
390
F
  0
LAYER
  5
2E
330
2
100
AcDbSymbolTableRecord
100
AcDbLayerTableRecord
  2
LC-3D-HIDDEN
 70
     0
 62
     9
  6
DASHED
370
    -3
390
F
  0
LAYER
  5
32
330
2
100
AcDbSymbolTableRecord
100
AcDbLayerTableRecord
  2
LC-001-002-----0
 70
     0
 62
     1
  6
ByBlock
370
    -3
390
F
  0
LAYER
  5
3C
330
2
100
AcDbSymbolTableRecord
100
AcDbLayerTableRecord
  2
LC-002-100-D10-0
 70
     0
 62
    44
  6
ByBlock
370
    -3
390
F
  0
LAYER
  5
6F
330
2
100
AcDbSymbolTableRecord
100
AcDbLayerTableRecord
  2
LC-003-006-MLN-0
 70
     0
 62
     2
  6
CENTER
370
    -3
390
F
  0
LAYER
  5
79
330
2
100
AcDbSymbolTableRecord
100
AcDbLayerTableRecord
  2
LC-004-002-RND-0
 70
     0
 62
     1
  6
ByBlock
370
    -3
390
F
  0
LAYER
  5
B4
330
2
100
AcDbSymbolTableRecord
100
AcDbLayerTableRecord
  2
LC-005-005-----0
 70
     0
 62
     2
  6
ByBlock
370
    -3
390
F
  0
LAYER
  5
150
330
2
100
AcDbSymbolTableRecord
100
AcDbLayerTableRecord
  2
LC-006-003-----0
 70
     0
 62
     2
  6
ByBlock
370
    -3
390
F
  0
LAYER
  5
169
330
2
100
AcDbSymbolTableRecord
100
AcDbLayerTableRecord
  2
LC-007-003-MTG-0
 70
     0
 62
     2
  6
ByBlock
370
    -3
390
F
  0
LAYER
  5
16F
330
2
100
AcDbSymbolTableRecord
100
AcDbLayerTableRecord
  2
Defpoints
 70
     0
 62
     7
  6
Continuous
290
     0
370
    -3
390
F
  0
LAYER
  5
1D0
330
2
100
AcDbSymbolTableRecord
100
AcDbLayerTableRecord
  2
LC-008-004-----0
 70
     0
 62
     7
  6
ByBlock
370
    -3
390
F
  0
LAYER
  5
1EF
330
2
100
AcDbSymbolTableRecord
100
AcDbLayerTableRecord
  2
LC-009-101-----0
 70
     0
 62
    51
  6
DIVIDE
370
    -3
390
F
  0
ENDTAB
  0
TABLE
  2
STYLE
  5
3
330
0
100
AcDbSymbolTable
 70
     4
  0
STYLE
  5
11
330
3
100
AcDbSymbolTableRecord
100
AcDbTextStyleTableRecord
  2
Standard
 70
     0
 40
0.0
 41
1.0
 50
0.0
 71
     0
 42
2.5
  3
txt
  4

  0
STYLE
  5
2F
330
3
100
AcDbSymbolTableRecord
100
AcDbTextStyleTableRecord
  2
LCTX0-400-0-0pDIN-Schrift
 70
     0
 40
0.0
 41
1.0
 50
0.0
 71
     0
 42
3.5
  3
TXT
  4

  0
STYLE
  5
30
330
3
100
AcDbSymbolTableRecord
100
AcDbTextStyleTableRecord
  2
LCTX0-560-0-0-DIN-Schrift
 70
     0
 40
0.0
 41
1.0
 50
0.0
 71
     0
 42
3.5
  3
MONOTXT
  4

  0
STYLE
  5
31
330
3
100
AcDbSymbolTableRecord
100
AcDbTextStyleTableRecord
  2
LCTX0-400-0-0-DIN-Schrift
 70
     0
 40
0.0
 41
1.0
 50
0.0
 71
     0
 42
3.5
  3
MONOTXT
  4

  0
ENDTAB
  0
TABLE
  2
VIEW
  5
6
330
0
100
AcDbSymbolTable
 70
     0
  0
ENDTAB
  0
TABLE
  2
UCS
  5
7
330
0
100
AcDbSymbolTable
 70
     0
  0
ENDTAB
  0
TABLE
  2
APPID
  5
9
330
0
100
AcDbSymbolTable
 70
     1
  0
APPID
  5
12
330
9
100
AcDbSymbolTableRecord
100
AcDbRegAppTableRecord
  2
ACAD
 70
     0
  0
ENDTAB
  0
TABLE
  2
DIMSTYLE
  5
A
330
0
100
AcDbSymbolTable
 70
     6
100
AcDbDimStyleTable
 71
     0
  0
DIMSTYLE
105
27
330
A
100
AcDbSymbolTableRecord
100
AcDbDimStyleTableRecord
  2
ISO-25
 70
     0
 41
2.5
 42
0.625
 43
3.75
 44
1.25
 73
     0
 74
     0
 77
     1
 78
     8
140
2.5
141
2.5
143
0.03937
147
0.625
171
     3
172
     1
271
     2
272
     2
274
     3
278
    44
283
     0
284
     8
340
11
  0
DIMSTYLE
105
152
330
A
100
AcDbSymbolTableRecord
100
AcDbDimStyleTableRecord
  2
LC-DIM-W-0025-02-32
 70
     0
 40
5.0
 41
2.5
 42
0.0
 43
7.5
 44
1.8
 73
     0
 74
     0
 75
     1
 76
     1
 77
     1
 78
     8
 79
     2
140
2.5
141
0.0
146
0.71
147
1.5
176
     2
177
     2
178
     2
179
     2
271
     2
278
    44
289
     1
340
2F
  0
DIMSTYLE
105
16D
102
{ACAD_REACTORS
330
16E
330
17D
330
199
330
1A6
330
1B3
330
1C2
102
}
330
A
100
AcDbSymbolTableRecord
100
AcDbDimStyleTableRecord
  2
LC-DIM-L-0025-03-02
 70
     0
 40
5.0
 41
2.5
 42
0.0
 43
7.5
 44
1.8
 73
     0
 74
     0
 77
     1
 78
     8
 79
     2
140
2.5
141
0.0
146
0.71
147
1.5
172
     1
176
     2
177
     2
178
     2
179
     3
271
     3
278
    44
289
     1
340
2F
  0
DIMSTYLE
105
18B
102
{ACAD_REACTORS
330
18C
102
}
330
A
100
AcDbSymbolTableRecord
100
AcDbDimStyleTableRecord
  2
LC-DIM-L-0025-02-02
 70
     0
 40
5.0
 41
2.5
 42
0.0
 43
7.5
 44
1.8
 73
     0
 74
     0
 77
     1
 78
     8
 79
     2
140
2.5
141
0.0
146
0.71
147
1.5
172
     1
176
     2
177
     2
178
     2
179
     2
271
     2
278
    44
289
     1
340
2F
  0
DIMSTYLE
105
7C8
102
{ACAD_REACTORS
330
7C9
102
}
330
A
100
AcDbSymbolTableRecord
100
AcDbDimStyleTableRecord
  2
LC-DIM-L-0025-01-02
 70
     0
 40
5.0
 41
2.5
 42
0.0
 43
7.5
 44
1.8
 73
     0
 74
     0
 77
     1
 78
     8
 79
     2
140
2.5
141
0.0
146
0.71
147
1.5
172
     1
176
     2
177
     2
178
     2
179
     1
271
     1
278
    44
289
     1
340
2F
  0
DIMSTYLE
105
7D6
102
{ACAD_REACTORS
330
7D7
330
7E0
102
}
330
A
100
AcDbSymbolTableRecord
100
AcDbDimStyleTableRecord
  2
LC-DIM-R-0025-03-02
 70
     0
 40
5.0
 41
2.5
 42
0.0
 43
7.5
 44
1.8
 73
     0
 74
     0
 77
     1
 78
     8
 79
     2
140
2.5
141
0.0
146
0.71
147
1.5
176
     2
177
     2
178
     2
179
     3
271
     3
278
    44
289
     1
340
2F
  0
ENDTAB
  0
TABLE
  2
BLOCK_RECORD
  5
1
330
0
100
AcDbSymbolTable
 70
    34
  0
BLOCK_RECORD
  5
1F
330
1
100
AcDbSymbolTableRecord
100
AcDbBlockTableRecord
  2
*Model_Space
340
22
  0
BLOCK_RECORD
  5
1B
330
1
100
AcDbSymbolTableRecord
100
AcDbBlockTableRecord
  2
*Paper_Space
340
1E
  0
BLOCK_RECORD
  5
23
330
1
100
AcDbSymbolTableRecord
100
AcDbBlockTableRecord
  2
*Paper_Space0
340
26
  0
BLOCK_RECORD
  5
B1
330
1
100
AcDbSymbolTableRecord
100
AcDbBlockTableRecord
  2
*X1
340
0
102
{BLKREFS
331
C9
102
}
  0
BLOCK_RECORD
  5
CB
330
1
100
AcDbSymbolTableRecord
100
AcDbBlockTableRecord
  2
*X2
340
0
102
{BLKREFS
331
E1
102
}
  0
BLOCK_RECORD
  5
F4
330
1
100
AcDbSymbolTableRecord
100
AcDbBlockTableRecord
  2
*X3
340
0
102
{BLKREFS
331
10C
102
}
  0
BLOCK_RECORD
  5
130
330
1
100
AcDbSymbolTableRecord
100
AcDbBlockTableRecord
  2
*X4
340
0
102
{BLKREFS
331
14F
102
}
  0
BLOCK_RECORD
  5
153
330
1
100
AcDbSymbolTableRecord
100
AcDbBlockTableRecord
  2
LCDIM1
340
0
102
{BLKREFS
331
16B
102
}
  0
BLOCK_RECORD
  5
170
330
1
100
AcDbSymbolTableRecord
100
AcDbBlockTableRecord
  2
*D6
340
0
  0
BLOCK_RECORD
  5
17E
330
1
100
AcDbSymbolTableRecord
100
AcDbBlockTableRecord
  2
*D7
340
0
  0
BLOCK_RECORD
  5
18D
330
1
100
AcDbSymbolTableRecord
100
AcDbBlockTableRecord
  2
*D8
340
0
  0
BLOCK_RECORD
  5
19A
330
1
100
AcDbSymbolTableRecord
100
AcDbBlockTableRecord
  2
*D9
340
0
  0
BLOCK_RECORD
  5
1A7
330
1
100
AcDbSymbolTableRecord
100
AcDbBlockTableRecord
  2
*D10
340
0
  0
BLOCK_RECORD
  5
1B4
330
1
100
AcDbSymbolTableRecord
100
AcDbBlockTableRecord
  2
*D11
340
0
  0
BLOCK_RECORD
  5
1C3
330
1
100
AcDbSymbolTableRecord
100
AcDbBlockTableRecord
  2
*D12
340
0
  0
BLOCK_RECORD
  5
202
330
1
100
AcDbSymbolTableRecord
100
AcDbBlockTableRecord
  2
*D13
340
0
  0
BLOCK_RECORD
  5
210
330
1
100
AcDbSymbolTableRecord
100
AcDbBlockTableRecord
  2
*D14
340
0
  0
BLOCK_RECORD
  5
228
330
1
100
AcDbSymbolTableRecord
100
AcDbBlockTableRecord
  2
*X15
340
0
  0
BLOCK_RECORD
  5
3B2
330
1
100
AcDbSymbolTableRecord
100
AcDbBlockTableRecord
  2
*X16
340
0
  0
BLOCK_RECORD
  5
41F
330
1
100
AcDbSymbolTableRecord
100
AcDbBlockTableRecord
  2
*X17
340
0
  0
BLOCK_RECORD
  5
470
330
1
100
AcDbSymbolTableRecord
100
AcDbBlockTableRecord
  2
*D18
340
0
  0
BLOCK_RECORD
  5
47E
330
1
100
AcDbSymbolTableRecord
100
AcDbBlockTableRecord
  2
*D19
340
0
  0
BLOCK_RECORD
  5
48C
330
1
100
AcDbSymbolTableRecord
100
AcDbBlockTableRecord
  2
*D20
340
0
  0
BLOCK_RECORD
  5
499
330
1
100
AcDbSymbolTableRecord
100
AcDbBlockTableRecord
  2
*D21
340
0
  0
BLOCK_RECORD
  5
4FD
330
1
100
AcDbSymbolTableRecord
100
AcDbBlockTableRecord
  2
*D22
340
0
  0
BLOCK_RECORD
  5
50B
330
1
100
AcDbSymbolTableRecord
100
AcDbBlockTableRecord
  2
*D23
340
0
  0
BLOCK_RECORD
  5
523
330
1
100
AcDbSymbolTableRecord
100
AcDbBlockTableRecord
  2
*X24
340
0
  0
BLOCK_RECORD
  5
6AD
330
1
100
AcDbSymbolTableRecord
100
AcDbBlockTableRecord
  2
*X25
340
0
  0
BLOCK_RECORD
  5
71A
330
1
100
AcDbSymbolTableRecord
100
AcDbBlockTableRecord
  2
*X26
340
0
  0
BLOCK_RECORD
  5
76B
330
1
100
AcDbSymbolTableRecord
100
AcDbBlockTableRecord
  2
*D27
340
0
  0
BLOCK_RECORD
  5
779
330
1
100
AcDbSymbolTableRecord
100
AcDbBlockTableRecord
  2
*D28
340
0
  0
BLOCK_RECORD
  5
787
330
1
100
AcDbSymbolTableRecord
100
AcDbBlockTableRecord
  2
*D29
340
0
  0
BLOCK_RECORD
  5
794
330
1
100
AcDbSymbolTableRecord
100
AcDbBlockTableRecord
  2
*D30
340
0
  0
BLOCK_RECORD
  5
7CA
330
1
100
AcDbSymbolTableRecord
100
AcDbBlockTableRecord
  2
*D31
340
0
  0
BLOCK_RECORD
  5
7D8
330
1
100
AcDbSymbolTableRecord
100
AcDbBlockTableRecord
  2
*D32
340
0
  0
BLOCK_RECORD
  5
7E1
330
1
100
AcDbSymbolTableRecord
100
AcDbBlockTableRecord
  2
*D33
340
0
  0
ENDTAB
  0
ENDSEC
  0
SECTION
  2
BLOCKS
  0
BLOCK
  5
20
330
1F
100
AcDbEntity
  8
0
100
AcDbBlockBegin
  2
*Model_Space
 70
     0
 10
0.0
 20
0.0
 30
0.0
  3
*Model_Space
  1

  0
ENDBLK
  5
21
330
1F
100
AcDbEntity
  8
0
100
AcDbBlockEnd
  0
BLOCK
  5
1C
330
1B
100
AcDbEntity
 67
     1
  8
0
100
AcDbBlockBegin
  2
*Paper_Space
 70
     0
 10
0.0
 20
0.0
 30
0.0
  3
*Paper_Space
  1

  0
ENDBLK
  5
1D
330
1B
100
AcDbEntity
 67
     1
  8
0
100
AcDbBlockEnd
  0
BLOCK
  5
24
330
23
100
AcDbEntity
  8
0
100
AcDbBlockBegin
  2
*Paper_Space0
 70
     0
 10
0.0
 20
0.0
 30
0.0
  3
*Paper_Space0
  1

  0
ENDBLK
  5
25
330
23
100
AcDbEntity
  8
0
100
AcDbBlockEnd
  0
BLOCK
  5
B2
330
B1
100
AcDbEntity
  8
0
100
AcDbBlockBegin
  2
*X1
 70
     1
 10
0.0
 20
0.0
 30
0.0
  3
*X1
  1

  4
*X1
  0
LINE
  5
B5
330
B1
100
AcDbEntity
  8
LC-005-005-----0
 62
     7
370
    25
100
AcDbLine
 10
2116.883536
 20
1013.796957
 30
0.0
 11
2147.544104
 21
1044.457526
 31
0.0
  0
LINE
  5
B6
330
B1
100
AcDbEntity
  8
LC-005-005-----0
 62
     7
370
    25
100
AcDbLine
 10
2102.229676
 20
1013.285233
 30
0.0
 11
2113.634652
 21
1024.690209
 31
0.0
  0
LINE
  5
B7
330
B1
100
AcDbEntity
  8
LC-005-005-----0
 62
     7
370
    25
100
AcDbLine
 10
2139.526487
 20
1050.582044
 30
0.0
 11
2150.134901000001
 21
1061.190458
 31
0.0
  0
LINE
  5
B8
330
B1
100
AcDbEntity
  8
LC-005-005-----0
 62
     7
370
    25
100
AcDbLine
 10
2087.575816
 20
1012.773509
 30
0.0
 11
2098.980792
 21
1024.178485
 31
0.0
  0
LINE
  5
B9
330
B1
100
AcDbEntity
  8
LC-005-005-----0
 62
     7
370
    25
100
AcDbLine
 10
2141.777602
 20
1066.975294
 30
0.0
 11
2152.114388
 21
1077.31208
 31
0.0
  0
LINE
  5
BA
330
B1
100
AcDbEntity
  8
LC-005-005-----0
 62
     7
370
    25
100
AcDbLine
 10
2072.921957
 20
1012.261785
 30
0.0
 11
2084.326932
 21
1023.666761
 31
0.0
  0
LINE
  5
BB
330
B1
100
AcDbEntity
  8
LC-005-005-----0
 62
     7
370
    25
100
AcDbLine
 10
2143.757088
 20
1083.096916
 30
0.0
 11
2154.093874
 21
1093.433702
 31
0.0
  0
LINE
  5
BC
330
B1
100
AcDbEntity
  8
LC-005-005-----0
 62
     7
370
    25
100
AcDbLine
 10
2058.268097
 20
1011.750061
 30
0.0
 11
2069.673073
 21
1023.155036
 31
0.0
  0
LINE
  5
BD
330
B1
100
AcDbEntity
  8
LC-005-005-----0
 62
     7
370
    25
100
AcDbLine
 10
2145.736574
 20
1099.218538
 30
0.0
 11
2156.07336
 21
1109.555324
 31
0.0
  0
LINE
  5
BE
330
B1
100
AcDbEntity
  8
LC-005-005-----0
 62
     7
370
    25
100
AcDbLine
 10
2043.614237
 20
1011.238337
 30
0.0
 11
2055.019213
 21
1022.643312
 31
0.0
  0
LINE
  5
BF
330
B1
100
AcDbEntity
  8
LC-005-005-----0
 62
     7
370
    25
100
AcDbLine
 10
2147.71606
 20
1115.34016
 30
0.0
 11
2158.052847
 21
1125.676946
 31
0.0
  0
LINE
  5
C0
330
B1
100
AcDbEntity
  8
LC-005-005-----0
 62
     7
370
    25
100
AcDbLine
 10
2028.960378
 20
1010.726613
 30
0.0
 11
2040.365353
 21
1022.131588
 31
0.0
  0
LINE
  5
C1
330
B1
100
AcDbEntity
  8
LC-005-005-----0
 62
     7
370
    25
100
AcDbLine
 10
2149.695547
 20
1131.461782
 30
0.0
 11
2160.032333
 21
1141.798568
 31
0.0
  0
LINE
  5
C2
330
B1
100
AcDbEntity
  8
LC-005-005-----0
 62
     7
370
    25
100
AcDbLine
 10
2014.306518
 20
1010.214889
 30
0.0
 11
2025.711494
 21
1021.619864
 31
0.0
  0
LINE
  5
C3
330
B1
100
AcDbEntity
  8
LC-005-005-----0
 62
     7
370
    25
100
AcDbLine
 10
2151.675033
 20
1147.583404
 30
0.0
 11
2162.011819
 21
1157.92019
 31
0.0
  0
LINE
  5
C4
330
B1
100
AcDbEntity
  8
LC-005-005-----0
 62
     7
370
    25
100
AcDbLine
 10
1999.465791
 20
1009.516298
 30
0.0
 11
2011.057634
 21
1021.10814
 31
0.0
  0
LINE
  5
C5
330
B1
100
AcDbEntity
  8
LC-005-005-----0
 62
     7
370
    25
100
AcDbLine
 10
2153.654519
 20
1163.705025
 30
0.0
 11
2164.82737
 21
1174.877876
 31
0.0
  0
LINE
  5
C6
330
B1
100
AcDbEntity
  8
LC-005-005-----0
 62
     7
370
    25
100
AcDbLine
 10
2166.225376
 20
1176.275883
 30
0.0
 11
2175.682995
 21
1185.733501
 31
0.0
  0
LINE
  5
C7
330
B1
100
AcDbEntity
  8
LC-005-005-----0
 62
     7
370
    25
100
AcDbLine
 10
1982.199576
 20
1006.392218
 30
0.0
 11
1996.403774
 21
1020.596416
 31
0.0
  0
LINE
  5
C8
330
B1
100
AcDbEntity
  8
LC-005-005-----0
 62
     7
370
    25
100
AcDbLine
 10
2155.634005
 20
1179.826647
 30
0.0
 11
2166.199576
 21
1190.392218
 31
0.0
  0
ENDBLK
  5
B3
330
B1
100
AcDbEntity
  8
0
100
AcDbBlockEnd
  0
BLOCK
  5
CC
330
CB
100
AcDbEntity
  8
0
100
AcDbBlockBegin
  2
*X2
 70
     1
 10
0.0
 20
0.0
 30
0.0
  3
*X2
  1

  4
*X2
  0
LINE
  5
CE
330
CB
100
AcDbEntity
  8
LC-005-005-----0
 62
     7
370
    25
100
AcDbLine
 10
1883.204626
 20
1006.392218
 30
0.0
 11
1886.850876
 21
1010.038467
 31
0.0
  0
LINE
  5
CF
330
CB
100
AcDbEntity
  8
LC-005-005-----0
 62
     7
370
    25
100
AcDbLine
 10
1869.062491
 20
1006.392218
 30
0.0
 11
1880.038517
 21
1017.368244
 31
0.0
  0
LINE
  5
D0
330
CB
100
AcDbEntity
  8
LC-005-005-----0
 62
     7
370
    25
100
AcDbLine
 10
1860.129605
 20
1011.601467
 30
0.0
 11
1869.300318
 21
1020.772181
 31
0.0
  0
LINE
  5
D1
330
CB
100
AcDbEntity
  8
LC-005-005-----0
 62
     7
370
    25
100
AcDbLine
 10
1851.585776
 20
1017.199774
 30
0.0
 11
1859.090774
 21
1024.704772
 31
0.0
  0
LINE
  5
D2
330
CB
100
AcDbEntity
  8
LC-005-005-----0
 62
     7
370
    25
100
AcDbLine
 10
1845.960668
 20
1025.716801
 30
0.0
 11
1853.257851
 21
1033.013985
 31
0.0
  0
LINE
  5
D3
330
CB
100
AcDbEntity
  8
LC-005-005-----0
 62
     7
370
    25
100
AcDbLine
 10
1842.41618
 20
1036.314449
 30
0.0
 11
1850.059683
 21
1043.957952
 31
0.0
  0
LINE
  5
D4
330
CB
100
AcDbEntity
  8
LC-005-005-----0
 62
     7
370
    25
100
AcDbLine
 10
1840.178477
 20
1048.218882
 30
0.0
 11
1848.158198
 21
1056.198603
 31
0.0
  0
LINE
  5
D5
330
CB
100
AcDbEntity
  8
LC-005-005-----0
 62
     7
370
    25
100
AcDbLine
 10
1838.535672
 20
1060.718212
 30
0.0
 11
1846.611654
 21
1068.794195
 31
0.0
  0
LINE
  5
D6
330
CB
100
AcDbEntity
  8
LC-005-005-----0
 62
     7
370
    25
100
AcDbLine
 10
1836.989128
 20
1073.313804
 30
0.0
 11
1845.06511
 21
1081.389786
 31
0.0
  0
LINE
  5
D7
330
CB
100
AcDbEntity
  8
LC-005-005-----0
 62
     7
370
    25
100
AcDbLine
 10
1835.442583
 20
1085.909395
 30
0.0
 11
1843.518566
 21
1093.985378
 31
0.0
  0
LINE
  5
D8
330
CB
100
AcDbEntity
  8
LC-005-005-----0
 62
     7
370
    25
100
AcDbLine
 10
1833.896039
 20
1098.504987
 30
0.0
 11
1841.972022
 21
1106.580969
 31
0.0
  0
LINE
  5
D9
330
CB
100
AcDbEntity
  8
LC-005-005-----0
 62
     7
370
    25
100
AcDbLine
 10
1832.349495
 20
1111.100578
 30
0.0
 11
1840.425477
 21
1119.176561
 31
0.0
  0
LINE
  5
DA
330
CB
100
AcDbEntity
  8
LC-005-005-----0
 62
     7
370
    25
100
AcDbLine
 10
1830.802951
 20
1123.69617
 30
0.0
 11
1838.878933
 21
1131.772152
 31
0.0
  0
LINE
  5
DB
330
CB
100
AcDbEntity
  8
LC-005-005-----0
 62
     7
370
    25
100
AcDbLine
 10
1829.256407
 20
1136.291761
 30
0.0
 11
1837.332389
 21
1144.367744
 31
0.0
  0
LINE
  5
DC
330
CB
100
AcDbEntity
  8
LC-005-005-----0
 62
     7
370
    25
100
AcDbLine
 10
1827.709863
 20
1148.887353
 30
0.0
 11
1835.785845
 21
1156.963335
 31
0.0
  0
LINE
  5
DD
330
CB
100
AcDbEntity
  8
LC-005-005-----0
 62
     7
370
    25
100
AcDbLine
 10
1826.163318
 20
1161.482944
 30
0.0
 11
1834.239301
 21
1169.558927
 31
0.0
  0
LINE
  5
DE
330
CB
100
AcDbEntity
  8
LC-005-005-----0
 62
     7
370
    25
100
AcDbLine
 10
1824.37914
 20
1173.840901
 30
0.0
 11
1832.692757
 21
1182.154518
 31
0.0
  0
LINE
  5
DF
330
CB
100
AcDbEntity
  8
LC-005-005-----0
 62
     7
370
    25
100
AcDbLine
 10
1814.873785
 20
1178.477682
 30
0.0
 11
1826.788321
 21
1190.392218
 31
0.0
  0
LINE
  5
E0
330
CB
100
AcDbEntity
  8
LC-005-005-----0
 62
     7
370
    25
100
AcDbLine
 10
1811.8852
 20
1189.631232
 30
0.0
 11
1812.646185
 21
1190.392218
 31
0.0
  0
ENDBLK
  5
CD
330
CB
100
AcDbEntity
  8
0
100
AcDbBlockEnd
  0
BLOCK
  5
F5
330
F4
100
AcDbEntity
  8
0
100
AcDbBlockBegin
  2
*X3
 70
     1
 10
0.0
 20
0.0
 30
0.0
  3
*X3
  1

  4
*X3
  0
LINE
  5
F7
330
F4
100
AcDbEntity
  8
LC-005-005-----0
 62
     7
370
    25
100
AcDbLine
 10
2182.225725
 20
1432.692537
 30
0.0
 11
2208.714598
 21
1459.18141
 31
0.0
  0
LINE
  5
F8
330
F4
100
AcDbEntity
  8
LC-005-005-----0
 62
     7
370
    25
100
AcDbLine
 10
2167.380262
 20
1431.989209
 30
0.0
 11
2178.785237
 21
1443.394185
 31
0.0
  0
LINE
  5
F9
330
F4
100
AcDbEntity
  8
LC-005-005-----0
 62
     7
370
    25
100
AcDbLine
 10
2200.799633
 20
1465.40858
 30
0.0
 11
2211.709311
 21
1476.318259
 31
0.0
  0
LINE
  5
FA
330
F4
100
AcDbEntity
  8
LC-005-005-----0
 62
     7
370
    25
100
AcDbLine
 10
2152.726402
 20
1431.477485
 30
0.0
 11
2164.131378
 21
1442.882461
 31
0.0
  0
LINE
  5
FB
330
F4
100
AcDbEntity
  8
LC-005-005-----0
 62
     7
370
    25
100
AcDbLine
 10
2203.352011
 20
1482.103094
 30
0.0
 11
2213.688797
 21
1492.439881
 31
0.0
  0
LINE
  5
FC
330
F4
100
AcDbEntity
  8
LC-005-005-----0
 62
     7
370
    25
100
AcDbLine
 10
2138.072542000001
 20
1430.965761
 30
0.0
 11
2149.477518
 21
1442.370737
 31
0.0
  0
LINE
  5
FD
330
F4
100
AcDbEntity
  8
LC-005-005-----0
 62
     7
370
    25
100
AcDbLine
 10
2205.331498
 20
1498.224716
 30
0.0
 11
2215.668284
 21
1508.561502
 31
0.0
  0
LINE
  5
FE
330
F4
100
AcDbEntity
  8
LC-005-005-----0
 62
     7
370
    25
100
AcDbLine
 10
2123.418683
 20
1430.454037
 30
0.0
 11
2134.823658
 21
1441.859013
 31
0.0
  0
LINE
  5
FF
330
F4
100
AcDbEntity
  8
LC-005-005-----0
 62
     7
370
    25
100
AcDbLine
 10
2207.310984
 20
1514.346338
 30
0.0
 11
2217.64777
 21
1524.683124
 31
0.0
  0
LINE
  5
100
330
F4
100
AcDbEntity
  8
LC-005-005-----0
 62
     7
370
    25
100
AcDbLine
 10
2108.764823
 20
1429.942313
 30
0.0
 11
2120.169798
 21
1441.347289
 31
0.0
  0
LINE
  5
101
330
F4
100
AcDbEntity
  8
LC-005-005-----0
 62
     7
370
    25
100
AcDbLine
 10
2209.29047
 20
1530.46796
 30
0.0
 11
2219.627256
 21
1540.804746
 31
0.0
  0
LINE
  5
102
330
F4
100
AcDbEntity
  8
LC-005-005-----0
 62
     7
370
    25
100
AcDbLine
 10
2094.110963
 20
1429.430589
 30
0.0
 11
2105.515939
 21
1440.835564
 31
0.0
  0
LINE
  5
103
330
F4
100
AcDbEntity
  8
LC-005-005-----0
 62
     7
370
    25
100
AcDbLine
 10
2211.269956
 20
1546.589582
 30
0.0
 11
2221.606742
 21
1556.926368
 31
0.0
  0
LINE
  5
104
330
F4
100
AcDbEntity
  8
LC-005-005-----0
 62
     7
370
    25
100
AcDbLine
 10
2079.457104
 20
1428.918865
 30
0.0
 11
2090.862079
 21
1440.32384
 31
0.0
  0
LINE
  5
105
330
F4
100
AcDbEntity
  8
LC-005-005-----0
 62
     7
370
    25
100
AcDbLine
 10
2213.249443
 20
1562.711204
 30
0.0
 11
2223.586229
 21
1573.04799
 31
0.0
  0
LINE
  5
106
330
F4
100
AcDbEntity
  8
LC-005-005-----0
 62
     7
370
    25
100
AcDbLine
 10
2064.803244
 20
1428.407141
 30
0.0
 11
2076.208219
 21
1439.812116
 31
0.0
  0
LINE
  5
107
330
F4
100
AcDbEntity
  8
LC-005-005-----0
 62
     7
370
    25
100
AcDbLine
 10
2215.228929
 20
1578.832826
 30
0.0
 11
2225.565715
 21
1589.169612
 31
0.0
  0
LINE
  5
108
330
F4
100
AcDbEntity
  8
LC-005-005-----0
 62
     7
370
    25
100
AcDbLine
 10
2232.382276
 20
1595.986173
 30
0.0
 11
2236.570071
 21
1600.173968
 31
0.0
  0
LINE
  5
109
330
F4
100
AcDbEntity
  8
LC-005-005-----0
 62
     7
370
    25
100
AcDbLine
 10
2047.24014
 20
1424.986173
 30
0.0
 11
2061.55436
 21
1439.300392
 31
0.0
  0
LINE
  5
10A
330
F4
100
AcDbEntity
  8
LC-005-005-----0
 62
     7
370
    25
100
AcDbLine
 10
2217.208415
 20
1594.954448
 30
0.0
 11
2231.24014
 21
1608.986173
 31
0.0
  0
LINE
  5
10B
330
F4
100
AcDbEntity
  8
LC-005-005-----0
 62
     7
370
    25
100
AcDbLine
 10
2040.051017000001
 20
1431.939185
 30
0.0
 11
2043.538837
 21
1435.427005
 31
0.0
  0
ENDBLK
  5
F6
330
F4
100
AcDbEntity
  8
0
100
AcDbBlockEnd
  0
BLOCK
  5
131
330
130
100
AcDbEntity
  8
0
100
AcDbBlockBegin
  2
*X4
 70
     1
 10
0.0
 20
0.0
 30
0.0
  3
*X4
  1

  4
*X4
  0
LINE
  5
133
330
130
100
AcDbEntity
  8
LC-005-005-----0
 62
     7
370
    25
100
AcDbLine
 10
1948.245191
 20
1424.986173
 30
0.0
 11
1949.09549
 21
1425.836472
 31
0.0
  0
LINE
  5
134
330
130
100
AcDbEntity
  8
LC-005-005-----0
 62
     7
370
    25
100
AcDbLine
 10
1934.103055
 20
1424.986173
 30
0.0
 11
1944.623312
 21
1435.50643
 31
0.0
  0
LINE
  5
135
330
130
100
AcDbEntity
  8
LC-005-005-----0
 62
     7
370
    25
100
AcDbLine
 10
1923.396311
 20
1428.421564
 30
0.0
 11
1934.031623
 21
1439.056876
 31
0.0
  0
LINE
  5
136
330
130
100
AcDbEntity
  8
LC-005-005-----0
 62
     7
370
    25
100
AcDbLine
 10
1909.731366
 20
1428.898755
 30
0.0
 11
1920.366678
 21
1439.534066
 31
0.0
  0
LINE
  5
137
330
130
100
AcDbEntity
  8
LC-005-005-----0
 62
     7
370
    25
100
AcDbLine
 10
1896.066421
 20
1429.375945
 30
0.0
 11
1906.701732
 21
1440.011257
 31
0.0
  0
LINE
  5
138
330
130
100
AcDbEntity
  8
LC-005-005-----0
 62
     7
370
    25
100
AcDbLine
 10
1882.401475
 20
1429.853136
 30
0.0
 11
1893.036787
 21
1440.488447
 31
0.0
  0
LINE
  5
139
330
130
100
AcDbEntity
  8
LC-005-005-----0
 62
     7
370
    25
100
AcDbLine
 10
1868.73653
 20
1430.330326
 30
0.0
 11
1879.371842
 21
1440.965638
 31
0.0
  0
LINE
  5
13A
330
130
100
AcDbEntity
  8
LC-005-005-----0
 62
     7
370
    25
100
AcDbLine
 10
1855.071585
 20
1430.807516
 30
0.0
 11
1865.706897
 21
1441.442828
 31
0.0
  0
LINE
  5
13B
330
130
100
AcDbEntity
  8
LC-005-005-----0
 62
     7
370
    25
100
AcDbLine
 10
1841.40664
 20
1431.284707
 30
0.0
 11
1852.041952
 21
1441.920018
 31
0.0
  0
LINE
  5
13C
330
130
100
AcDbEntity
  8
LC-005-005-----0
 62
     7
370
    25
100
AcDbLine
 10
1827.741695
 20
1431.761897
 30
0.0
 11
1838.377006
 21
1442.397209
 31
0.0
  0
LINE
  5
13D
330
130
100
AcDbEntity
  8
LC-005-005-----0
 62
     7
370
    25
100
AcDbLine
 10
1814.076748999999
 20
1432.239088
 30
0.0
 11
1824.712061
 21
1442.874399
 31
0.0
  0
LINE
  5
13E
330
130
100
AcDbEntity
  8
LC-005-005-----0
 62
     7
370
    25
100
AcDbLine
 10
1801.164039
 20
1433.468513
 30
0.0
 11
1811.047116
 21
1443.35159
 31
0.0
  0
LINE
  5
13F
330
130
100
AcDbEntity
  8
LC-005-005-----0
 62
     7
370
    25
100
AcDbLine
 10
1791.358475
 20
1437.805084
 30
0.0
 11
1799.35372
 21
1445.800329
 31
0.0
  0
LINE
  5
140
330
130
100
AcDbEntity
  8
LC-005-005-----0
 62
     7
370
    25
100
AcDbLine
 10
1785.003505
 20
1445.59225
 30
0.0
 11
1792.305003
 21
1452.893748
 31
0.0
  0
LINE
  5
141
330
130
100
AcDbEntity
  8
LC-005-005-----0
 62
     7
370
    25
100
AcDbLine
 10
1780.900095
 20
1455.630975
 30
0.0
 11
1788.388731
 21
1463.119612
 31
0.0
  0
LINE
  5
142
330
130
100
AcDbEntity
  8
LC-005-005-----0
 62
     7
370
    25
100
AcDbLine
 10
1778.247581
 20
1467.120597
 30
0.0
 11
1786.170603
 21
1475.043619
 31
0.0
  0
LINE
  5
143
330
130
100
AcDbEntity
  8
LC-005-005-----0
 62
     7
370
    25
100
AcDbLine
 10
1776.509573
 20
1479.524725
 30
0.0
 11
1784.585555
 21
1487.600707
 31
0.0
  0
LINE
  5
144
330
130
100
AcDbEntity
  8
LC-005-005-----0
 62
     7
370
    25
100
AcDbLine
 10
1774.963029
 20
1492.120316
 30
0.0
 11
1783.039011
 21
1500.196299
 31
0.0
  0
LINE
  5
145
330
130
100
AcDbEntity
  8
LC-005-005-----0
 62
     7
370
    25
100
AcDbLine
 10
1773.416485
 20
1504.715908
 30
0.0
 11
1781.492467
 21
1512.79189
 31
0.0
  0
LINE
  5
146
330
130
100
AcDbEntity
  8
LC-005-005-----0
 62
     7
370
    25
100
AcDbLine
 10
1771.86994
 20
1517.311499
 30
0.0
 11
1779.945923
 21
1525.387482
 31
0.0
  0
LINE
  5
147
330
130
100
AcDbEntity
  8
LC-005-005-----0
 62
     7
370
    25
100
AcDbLine
 10
1770.323396
 20
1529.907091
 30
0.0
 11
1778.399379
 21
1537.983073
 31
0.0
  0
LINE
  5
148
330
130
100
AcDbEntity
  8
LC-005-005-----0
 62
     7
370
    25
100
AcDbLine
 10
1768.776852
 20
1542.502682
 30
0.0
 11
1776.852835
 21
1550.578665
 31
0.0
  0
LINE
  5
149
330
130
100
AcDbEntity
  8
LC-005-005-----0
 62
     7
370
    25
100
AcDbLine
 10
1767.230308
 20
1555.098274
 30
0.0
 11
1775.30629
 21
1563.174256
 31
0.0
  0
LINE
  5
14A
330
130
100
AcDbEntity
  8
LC-005-005-----0
 62
     7
370
    25
100
AcDbLine
 10
1765.683764
 20
1567.693865
 30
0.0
 11
1773.759746
 21
1575.769848
 31
0.0
  0
LINE
  5
14B
330
130
100
AcDbEntity
  8
LC-005-005-----0
 62
     7
370
    25
100
AcDbLine
 10
1764.13722
 20
1580.289457
 30
0.0
 11
1772.213202
 21
1588.365439
 31
0.0
  0
LINE
  5
14C
330
130
100
AcDbEntity
  8
LC-005-005-----0
 62
     7
370
    25
100
AcDbLine
 10
1762.303375
 20
1592.597748
 30
0.0
 11
1770.666658
 21
1600.96103
 31
0.0
  0
LINE
  5
14D
330
130
100
AcDbEntity
  8
LC-005-005-----0
 62
     7
370
    25
100
AcDbLine
 10
1752.823351
 20
1597.259859
 30
0.0
 11
1764.549665
 21
1608.986173
 31
0.0
  0
LINE
  5
14E
330
130
100
AcDbEntity
  8
LC-005-005-----0
 62
     7
370
    25
100
AcDbLine
 10
1749.834766
 20
1608.41341
 30
0.0
 11
1750.407529
 21
1608.986173
 31
0.0
  0
ENDBLK
  5
132
330
130
100
AcDbEntity
  8
0
100
AcDbBlockEnd
  0
BLOCK
  5
154
330
153
100
AcDbEntity
  8
0
100
AcDbBlockBegin
  2
LCDIM1
 70
     0
 10
0.0
 20
0.0
 30
0.0
  3
LCDIM1
  1

  4
LCDIM1
  0
TEXT
  5
156
330
153
100
AcDbEntity
  8
LC-006-003-----0
 62
     7
370
    25
100
AcDbText
 10
1741.2998858614
 20
1125.371398065312
 30
0.0
 40
12.5
  1
 15%%d
 50
-32.143158
  7
LCTX0-400-0-0pDIN-Schrift
 72
     1
 11
1762.467921
 21
1112.070485
 31
0.0
100
AcDbText
  0
LINE
  5
157
330
153
100
AcDbEntity
  8
LC-006-003-----0
 62
     7
370
    25
100
AcDbLine
 10
1799.210593
 20
1089.536876
 30
0.0
 11
1811.681294
 21
1090.392218
 31
0.0
  0
LINE
  5
158
330
153
100
AcDbEntity
  8
LC-006-003-----0
 62
     7
370
    25
100
AcDbLine
 10
1811.681294
 20
1090.392218
 30
0.0
 11
1799.414143
 21
1092.793676
 31
0.0
  0
LINE
  5
159
330
153
100
AcDbEntity
  8
LC-006-003-----0
 62
     7
370
    25
100
AcDbLine
 10
1799.414143
 20
1092.793676
 30
0.0
 11
1799.210593
 21
1089.536876
 31
0.0
  0
LINE
  5
15A
330
153
100
AcDbEntity
  8
LC-006-003-----0
 62
     7
370
    25
100
AcDbLine
 10
1799.209305
 20
1089.961994
 30
0.0
 11
1808.437623
 21
1090.594947
 31
0.0
  0
LINE
  5
15B
330
153
100
AcDbEntity
  8
LC-006-003-----0
 62
     7
370
    25
100
AcDbLine
 10
1808.437623
 20
1090.594947
 30
0.0
 11
1799.359932
 21
1092.372026
 31
0.0
  0
LINE
  5
15C
330
153
100
AcDbEntity
  8
LC-006-003-----0
 62
     7
370
    25
100
AcDbLine
 10
1799.208016
 20
1090.387112
 30
0.0
 11
1805.193953
 21
1090.797677
 31
0.0
  0
LINE
  5
15D
330
153
100
AcDbEntity
  8
LC-006-003-----0
 62
     7
370
    25
100
AcDbLine
 10
1805.193953
 20
1090.797677
 30
0.0
 11
1799.30572
 21
1091.950376
 31
0.0
  0
LINE
  5
15E
330
153
100
AcDbEntity
  8
LC-006-003-----0
 62
     7
370
    25
100
AcDbLine
 10
1799.206727
 20
1090.812231
 30
0.0
 11
1801.950282
 21
1091.000406
 31
0.0
  0
LINE
  5
15F
330
153
100
AcDbEntity
  8
LC-006-003-----0
 62
     7
370
    25
100
AcDbLine
 10
1801.950282
 20
1091.000406
 30
0.0
 11
1799.251508
 21
1091.528727
 31
0.0
  0
LINE
  5
160
330
153
100
AcDbEntity
  8
LC-006-003-----0
 62
     7
370
    25
100
AcDbLine
 10
1848.790814
 20
1099.294238
 30
0.0
 11
1837.563199
 21
1093.799635
 31
0.0
  0
LINE
  5
161
330
153
100
AcDbEntity
  8
LC-006-003-----0
 62
     7
370
    25
100
AcDbLine
 10
1837.563199
 20
1093.799635
 30
0.0
 11
1849.83035
 21
1096.201093
 31
0.0
  0
LINE
  5
162
330
153
100
AcDbEntity
  8
LC-006-003-----0
 62
     7
370
    25
100
AcDbLine
 10
1849.83035
 20
1096.201093
 30
0.0
 11
1848.790814
 21
1099.294238
 31
0.0
  0
LINE
  5
163
330
153
100
AcDbEntity
  8
LC-006-003-----0
 62
     7
370
    25
100
AcDbLine
 10
1848.952309
 20
1098.900986
 30
0.0
 11
1840.643874
 21
1094.83498
 31
0.0
  0
LINE
  5
164
330
153
100
AcDbEntity
  8
LC-006-003-----0
 62
     7
370
    25
100
AcDbLine
 10
1840.643874
 20
1094.83498
 30
0.0
 11
1849.721566
 21
1096.612059
 31
0.0
  0
LINE
  5
165
330
153
100
AcDbEntity
  8
LC-006-003-----0
 62
     7
370
    25
100
AcDbLine
 10
1849.113805
 20
1098.507735
 30
0.0
 11
1843.724549
 21
1095.870326
 31
0.0
  0
LINE
  5
166
330
153
100
AcDbEntity
  8
LC-006-003-----0
 62
     7
370
    25
100
AcDbLine
 10
1843.724549
 20
1095.870326
 30
0.0
 11
1849.612782
 21
1097.023026
 31
0.0
  0
LINE
  5
167
330
153
100
AcDbEntity
  8
LC-006-003-----0
 62
     7
370
    25
100
AcDbLine
 10
1849.2753
 20
1098.114484
 30
0.0
 11
1846.805225
 21
1096.905671
 31
0.0
  0
LINE
  5
168
330
153
100
AcDbEntity
  8
LC-006-003-----0
 62
     7
370
    25
100
AcDbLine
 10
1846.805225
 20
1096.905671
 30
0.0
 11
1849.503998
 21
1097.433992
 31
0.0
  0
ARC
  5
16A
330
153
100
AcDbEntity
  8
LC-007-003-MTG-0
 62
     7
370
    25
100
AcDbCircle
 10
1811.681294
 20
1190.392218
 30
0.0
 40
100.0
100
AcDbArc
 50
228.355837
 51
294.926246
  0
ENDBLK
  5
155
330
153
100
AcDbEntity
  8
0
100
AcDbBlockEnd
  0
BLOCK
  5
17B
330
170
100
AcDbEntity
  8
0
100
AcDbBlockBegin
  2
*D6
 70
     1
 10
0.0
 20
0.0
 30
0.0
  3
*D6
  1

  0
LINE
  5
171
330
170
100
AcDbEntity
  8
LC-006-003-----0
 62
     2
370
    -2
100
AcDbLine
 10
1791.681294
 20
798.7407469999999
 30
0.0
 11
1591.0
 21
798.7407469999999
 31
0.0
  0
LINE
  5
172
330
170
100
AcDbEntity
  8
LC-006-003-----0
 62
     2
370
    -2
100
AcDbLine
 10
1791.681294
 20
309.490747
 30
0.0
 11
1591.0
 21
309.490747
 31
0.0
  0
LINE
  5
173
330
170
100
AcDbEntity
  8
LC-006-003-----0
 62
     2
370
    -2
100
AcDbLine
 10
1600.0
 20
786.2407469999999
 30
0.0
 11
1600.0
 21
594.1157459999999
 31
0.0
  0
LINE
  5
174
330
170
100
AcDbEntity
  8
LC-006-003-----0
 62
     2
370
    -2
100
AcDbLine
 10
1600.0
 20
321.990747
 30
0.0
 11
1600.0
 21
514.1157469999999
 31
0.0
  0
SOLID
  5
175
330
170
100
AcDbEntity
  8
LC-006-003-----0
 62
     2
100
AcDbTrace
 10
1602.083333
 20
786.2407469999999
 30
0.0
 11
1597.916667
 21
786.2407469999999
 31
0.0
 12
1600.0
 22
798.7407469999999
 32
0.0
 13
1600.0
 23
798.7407469999999
 33
0.0
  0
SOLID
  5
176
330
170
100
AcDbEntity
  8
LC-006-003-----0
 62
     2
100
AcDbTrace
 10
1597.916667
 20
321.990747
 30
0.0
 11
1602.083333
 21
321.990747
 31
0.0
 12
1600.0
 22
309.490747
 32
0.0
 13
1600.0
 23
309.490747
 33
0.0
  0
MTEXT
  5
177
330
170
100
AcDbEntity
  8
LC-006-003-----0
 62
     2
100
AcDbMText
 10
1585.0
 20
554.1157469999999
 30
0.0
 40
12.5
 41
0.0
 71
     5
 72
     1
  1
\A1;489,25
  7
LCTX0-400-0-0pDIN-Schrift
 11
0.0000000000000001
 21
1.0
 31
0.0
 73
     1
 44
1.0
1001
ACAD
1000
MTEXTBEGIN
1070
    73
1070
     1
1070
    44
1040
1.0
1070
    74
1070
     0
1000
MTEXTEND
  0
POINT
  5
178
330
170
100
AcDbEntity
  8
Defpoints
 62
     0
100
AcDbPoint
 10
1791.681294
 20
798.7407469999999
 30
0.0
  0
POINT
  5
179
330
170
100
AcDbEntity
  8
Defpoints
 62
     0
100
AcDbPoint
 10
1791.681294
 20
309.490747
 30
0.0
  0
POINT
  5
17A
330
170
100
AcDbEntity
  8
Defpoints
 62
     0
100
AcDbPoint
 10
1600.0
 20
309.490747
 30
0.0
  0
ENDBLK
  5
17C
330
170
100
AcDbEntity
  8
0
100
AcDbBlockEnd
  0
BLOCK
  5
189
330
17E
100
AcDbEntity
  8
0
100
AcDbBlockBegin
  2
*D7
 70
     1
 10
0.0
 20
0.0
 30
0.0
  3
*D7
  1

  0
LINE
  5
17F
330
17E
100
AcDbEntity
  8
LC-006-003-----0
 62
     2
370
    -2
100
AcDbLine
 10
1791.681294
 20
778.7407469999999
 30
0.0
 11
1666.0
 21
778.7407469999999
 31
0.0
  0
LINE
  5
180
330
17E
100
AcDbEntity
  8
LC-006-003-----0
 62
     2
370
    -2
100
AcDbLine
 10
1791.681294
 20
329.490747
 30
0.0
 11
1666.0
 21
329.490747
 31
0.0
  0
LINE
  5
181
330
17E
100
AcDbEntity
  8
LC-006-003-----0
 62
     2
370
    -2
100
AcDbLine
 10
1675.0
 20
766.2407469999999
 30
0.0
 11
1675.0
 21
594.1157459999999
 31
0.0
  0
LINE
  5
182
330
17E
100
AcDbEntity
  8
LC-006-003-----0
 62
     2
370
    -2
100
AcDbLine
 10
1675.0
 20
341.990747
 30
0.0
 11
1675.0
 21
514.1157469999999
 31
0.0
  0
SOLID
  5
183
330
17E
100
AcDbEntity
  8
LC-006-003-----0
 62
     2
100
AcDbTrace
 10
1677.083333
 20
766.2407469999999
 30
0.0
 11
1672.916667
 21
766.2407469999999
 31
0.0
 12
1675.0
 22
778.7407469999999
 32
0.0
 13
1675.0
 23
778.7407469999999
 33
0.0
  0
SOLID
  5
184
330
17E
100
AcDbEntity
  8
LC-006-003-----0
 62
     2
100
AcDbTrace
 10
1672.916667
 20
341.990747
 30
0.0
 11
1677.083333
 21
341.990747
 31
0.0
 12
1675.0
 22
329.490747
 32
0.0
 13
1675.0
 23
329.490747
 33
0.0
  0
MTEXT
  5
185
330
17E
100
AcDbEntity
  8
LC-006-003-----0
 62
     2
100
AcDbMText
 10
1660.0
 20
554.1157469999999
 30
0.0
 40
12.5
 41
0.0
 71
     5
 72
     1
  1
\A1;449,25
  7
LCTX0-400-0-0pDIN-Schrift
 11
0.0000000000000001
 21
1.0
 31
0.0
 73
     1
 44
1.0
1001
ACAD
1000
MTEXTBEGIN
1070
    73
1070
     1
1070
    44
1040
1.0
1070
    74
1070
     0
1000
MTEXTEND
  0
POINT
  5
186
330
17E
100
AcDbEntity
  8
Defpoints
 62
     0
100
AcDbPoint
 10
1791.681294
 20
778.7407469999999
 30
0.0
  0
POINT
  5
187
330
17E
100
AcDbEntity
  8
Defpoints
 62
     0
100
AcDbPoint
 10
1791.681294
 20
329.490747
 30
0.0
  0
POINT
  5
188
330
17E
100
AcDbEntity
  8
Defpoints
 62
     0
100
AcDbPoint
 10
1675.0
 20
329.490747
 30
0.0
  0
ENDBLK
  5
18A
330
17E
100
AcDbEntity
  8
0
100
AcDbBlockEnd
  0
BLOCK
  5
197
330
18D
100
AcDbEntity
  8
0
100
AcDbBlockBegin
  2
*D8
 70
     1
 10
0.0
 20
0.0
 30
0.0
  3
*D8
  1

  0
LINE
  5
18E
330
18D
100
AcDbEntity
  8
LC-006-003-----0
 62
     2
370
    -2
100
AcDbLine
 10
1729.681294
 20
1608.986173
 30
0.0
 11
1591.0
 21
1608.986173
 31
0.0
  0
LINE
  5
18F
330
18D
100
AcDbEntity
  8
LC-006-003-----0
 62
     2
370
    -2
100
AcDbLine
 10
1729.681294
 20
1424.986173
 30
0.0
 11
1591.0
 21
1424.986173
 31
0.0
  0
LINE
  5
190
330
18D
100
AcDbEntity
  8
LC-006-003-----0
 62
     2
370
    -2
100
AcDbLine
 10
1600.0
 20
1596.486173
 30
0.0
 11
1600.0
 21
1437.486173
 31
0.0
  0
SOLID
  5
191
330
18D
100
AcDbEntity
  8
LC-006-003-----0
 62
     2
100
AcDbTrace
 10
1602.083333
 20
1596.486173
 30
0.0
 11
1597.916667
 21
1596.486173
 31
0.0
 12
1600.0
 22
1608.986173
 32
0.0
 13
1600.0
 23
1608.986173
 33
0.0
  0
SOLID
  5
192
330
18D
100
AcDbEntity
  8
LC-006-003-----0
 62
     2
100
AcDbTrace
 10
1597.916667
 20
1437.486173
 30
0.0
 11
1602.083333
 21
1437.486173
 31
0.0
 12
1600.0
 22
1424.986173
 32
0.0
 13
1600.0
 23
1424.986173
 33
0.0
  0
MTEXT
  5
193
330
18D
100
AcDbEntity
  8
LC-006-003-----0
 62
     2
100
AcDbMText
 10
1585.0
 20
1516.986173
 30
0.0
 40
12.5
 41
0.0
 71
     5
 72
     1
  1
\A1;184
  7
LCTX0-400-0-0pDIN-Schrift
 11
0.0000000000000001
 21
1.0
 31
0.0
 73
     1
 44
1.0
1001
ACAD
1000
MTEXTBEGIN
1070
    73
1070
     1
1070
    44
1040
1.0
1070
    74
1070
     0
1000
MTEXTEND
  0
POINT
  5
194
330
18D
100
AcDbEntity
  8
Defpoints
 62
     0
100
AcDbPoint
 10
1729.681294
 20
1608.986173
 30
0.0
  0
POINT
  5
195
330
18D
100
AcDbEntity
  8
Defpoints
 62
     0
100
AcDbPoint
 10
1729.681294
 20
1424.986173
 30
0.0
  0
POINT
  5
196
330
18D
100
AcDbEntity
  8
Defpoints
 62
     0
100
AcDbPoint
 10
1600.0
 20
1424.986173
 30
0.0
  0
ENDBLK
  5
198
330
18D
100
AcDbEntity
  8
0
100
AcDbBlockEnd
  0
BLOCK
  5
1A4
330
19A
100
AcDbEntity
  8
0
100
AcDbBlockBegin
  2
*D9
 70
     1
 10
0.0
 20
0.0
 30
0.0
  3
*D9
  1

  0
LINE
  5
19B
330
19A
100
AcDbEntity
  8
LC-006-003-----0
 62
     2
370
    -2
100
AcDbLine
 10
1729.681294
 20
1608.986173
 30
0.0
 11
1666.0
 21
1608.986173
 31
0.0
  0
LINE
  5
19C
330
19A
100
AcDbEntity
  8
LC-006-003-----0
 62
     2
370
    -2
100
AcDbLine
 10
1729.681294
 20
1438.986173
 30
0.0
 11
1666.0
 21
1438.986173
 31
0.0
  0
LINE
  5
19D
330
19A
100
AcDbEntity
  8
LC-006-003-----0
 62
     2
370
    -2
100
AcDbLine
 10
1675.0
 20
1596.486173
 30
0.0
 11
1675.0
 21
1451.486173
 31
0.0
  0
SOLID
  5
19E
330
19A
100
AcDbEntity
  8
LC-006-003-----0
 62
     2
100
AcDbTrace
 10
1677.083333
 20
1596.486173
 30
0.0
 11
1672.916667
 21
1596.486173
 31
0.0
 12
1675.0
 22
1608.986173
 32
0.0
 13
1675.0
 23
1608.986173
 33
0.0
  0
SOLID
  5
19F
330
19A
100
AcDbEntity
  8
LC-006-003-----0
 62
     2
100
AcDbTrace
 10
1672.916667
 20
1451.486173
 30
0.0
 11
1677.083333
 21
1451.486173
 31
0.0
 12
1675.0
 22
1438.986173
 32
0.0
 13
1675.0
 23
1438.986173
 33
0.0
  0
MTEXT
  5
1A0
330
19A
100
AcDbEntity
  8
LC-006-003-----0
 62
     2
100
AcDbMText
 10
1660.0
 20
1523.986173
 30
0.0
 40
12.5
 41
0.0
 71
     5
 72
     1
  1
\A1;170
  7
LCTX0-400-0-0pDIN-Schrift
 11
0.0000000000000001
 21
1.0
 31
0.0
 73
     1
 44
1.0
1001
ACAD
1000
MTEXTBEGIN
1070
    73
1070
     1
1070
    44
1040
1.0
1070
    74
1070
     0
1000
MTEXTEND
  0
POINT
  5
1A1
330
19A
100
AcDbEntity
  8
Defpoints
 62
     0
100
AcDbPoint
 10
1729.681294
 20
1608.986173
 30
0.0
  0
POINT
  5
1A2
330
19A
100
AcDbEntity
  8
Defpoints
 62
     0
100
AcDbPoint
 10
1729.681294
 20
1438.986173
 30
0.0
  0
POINT
  5
1A3
330
19A
100
AcDbEntity
  8
Defpoints
 62
     0
100
AcDbPoint
 10
1675.0
 20
1438.986173
 30
0.0
  0
ENDBLK
  5
1A5
330
19A
100
AcDbEntity
  8
0
100
AcDbBlockEnd
  0
BLOCK
  5
1B1
330
1A7
100
AcDbEntity
  8
0
100
AcDbBlockBegin
  2
*D10
 70
     1
 10
0.0
 20
0.0
 30
0.0
  3
*D10
  1

  0
LINE
  5
1A8
330
1A7
100
AcDbEntity
  8
LC-006-003-----0
 62
     2
370
    -2
100
AcDbLine
 10
1811.681294
 20
289.490747
 30
0.0
 11
1811.681294
 21
91.0
 31
0.0
  0
LINE
  5
1A9
330
1A7
100
AcDbEntity
  8
LC-006-003-----0
 62
     2
370
    -2
100
AcDbLine
 10
2176.931294
 20
289.490747
 30
0.0
 11
2176.931294
 21
91.0
 31
0.0
  0
LINE
  5
1AA
330
1A7
100
AcDbEntity
  8
LC-006-003-----0
 62
     2
370
    -2
100
AcDbLine
 10
1824.181294
 20
100.0
 30
0.0
 11
2164.431294
 21
100.0
 31
0.0
  0
SOLID
  5
1AB
330
1A7
100
AcDbEntity
  8
LC-006-003-----0
 62
     2
100
AcDbTrace
 10
1824.181294
 20
102.083333
 30
0.0
 11
1824.181294
 21
97.916667
 31
0.0
 12
1811.681294
 22
100.0
 32
0.0
 13
1811.681294
 23
100.0
 33
0.0
  0
SOLID
  5
1AC
330
1A7
100
AcDbEntity
  8
LC-006-003-----0
 62
     2
100
AcDbTrace
 10
2164.431294
 20
97.916667
 30
0.0
 11
2164.431294
 21
102.083333
 31
0.0
 12
2176.931294
 22
100.0
 32
0.0
 13
2176.931294
 23
100.0
 33
0.0
  0
MTEXT
  5
1AD
330
1A7
100
AcDbEntity
  8
LC-006-003-----0
 62
     2
100
AcDbMText
 10
1994.306294
 20
115.0
 30
0.0
 40
12.5
 41
0.0
 71
     5
 72
     1
  1
\A1;365,25
  7
LCTX0-400-0-0pDIN-Schrift
 73
     1
 44
1.0
1001
ACAD
1000
MTEXTBEGIN
1070
    73
1070
     1
1070
    44
1040
1.0
1070
    74
1070
     0
1000
MTEXTEND
  0
POINT
  5
1AE
330
1A7
100
AcDbEntity
  8
Defpoints
 62
     0
100
AcDbPoint
 10
1811.681294
 20
289.490747
 30
0.0
  0
POINT
  5
1AF
330
1A7
100
AcDbEntity
  8
Defpoints
 62
     0
100
AcDbPoint
 10
2176.931294
 20
289.490747
 30
0.0
  0
POINT
  5
1B0
330
1A7
100
AcDbEntity
  8
Defpoints
 62
     0
100
AcDbPoint
 10
2176.931294
 20
100.0
 30
0.0
  0
ENDBLK
  5
1B2
330
1A7
100
AcDbEntity
  8
0
100
AcDbBlockEnd
  0
BLOCK
  5
1C0
330
1B4
100
AcDbEntity
  8
0
100
AcDbBlockBegin
  2
*D11
 70
     1
 10
0.0
 20
0.0
 30
0.0
  3
*D11
  1

  0
LINE
  5
1B5
330
1B4
100
AcDbEntity
  8
LC-006-003-----0
 62
     2
370
    -2
100
AcDbLine
 10
1811.681294
 20
289.490747
 30
0.0
 11
1811.681294
 21
216.0
 31
0.0
  0
LINE
  5
1B6
330
1B4
100
AcDbEntity
  8
LC-006-003-----0
 62
     2
370
    -2
100
AcDbLine
 10
1831.681294
 20
289.490747
 30
0.0
 11
1831.681294
 21
216.0
 31
0.0
  0
LINE
  5
1B7
330
1B4
100
AcDbEntity
  8
LC-006-003-----0
 62
     2
370
    -2
100
AcDbLine
 10
1844.181294
 20
225.0
 30
0.0
 11
1856.681294
 21
225.0
 31
0.0
  0
LINE
  5
1B8
330
1B4
100
AcDbEntity
  8
LC-006-003-----0
 62
     2
370
    -2
100
AcDbLine
 10
1799.181294
 20
225.0
 30
0.0
 11
1787.773746
 21
225.0
 31
0.0
  0
LINE
  5
1B9
330
1B4
100
AcDbEntity
  8
LC-006-003-----0
 62
     2
370
    -2
100
AcDbLine
 10
1811.681294
 20
225.0
 30
0.0
 11
1831.681294
 21
225.0
 31
0.0
  0
SOLID
  5
1BA
330
1B4
100
AcDbEntity
  8
LC-006-003-----0
 62
     2
100
AcDbTrace
 10
1799.181294
 20
222.916667
 30
0.0
 11
1799.181294
 21
227.083333
 31
0.0
 12
1811.681294
 22
225.0
 32
0.0
 13
1811.681294
 23
225.0
 33
0.0
  0
SOLID
  5
1BB
330
1B4
100
AcDbEntity
  8
LC-006-003-----0
 62
     2
100
AcDbTrace
 10
1844.181294
 20
227.083333
 30
0.0
 11
1844.181294
 21
222.916667
 31
0.0
 12
1831.681294
 22
225.0
 32
0.0
 13
1831.681294
 23
225.0
 33
0.0
  0
MTEXT
  5
1BC
330
1B4
100
AcDbEntity
  8
LC-006-003-----0
 62
     2
100
AcDbMText
 10
1804.786246
 20
240.0
 30
0.0
 40
12.5
 41
0.0
 71
     5
 72
     1
  1
\A1;20
  7
LCTX0-400-0-0pDIN-Schrift
 73
     1
 44
1.0
1001
ACAD
1000
MTEXTBEGIN
1070
    73
1070
     1
1070
    44
1040
1.0
1070
    74
1070
     0
1000
MTEXTEND
  0
POINT
  5
1BD
330
1B4
100
AcDbEntity
  8
Defpoints
 62
     0
100
AcDbPoint
 10
1811.681294
 20
289.490747
 30
0.0
  0
POINT
  5
1BE
330
1B4
100
AcDbEntity
  8
Defpoints
 62
     0
100
AcDbPoint
 10
1831.681294
 20
289.490747
 30
0.0
  0
POINT
  5
1BF
330
1B4
100
AcDbEntity
  8
Defpoints
 62
     0
100
AcDbPoint
 10
1831.681294
 20
225.0
 30
0.0
  0
ENDBLK
  5
1C1
330
1B4
100
AcDbEntity
  8
0
100
AcDbBlockEnd
  0
BLOCK
  5
1CD
330
1C3
100
AcDbEntity
  8
0
100
AcDbBlockBegin
  2
*D12
 70
     1
 10
0.0
 20
0.0
 30
0.0
  3
*D12
  1

  0
LINE
  5
1C4
330
1C3
100
AcDbEntity
  8
LC-006-003-----0
 62
     2
370
    -2
100
AcDbLine
 10
1831.681294
 20
289.490747
 30
0.0
 11
1831.681294
 21
166.0
 31
0.0
  0
LINE
  5
1C5
330
1C3
100
AcDbEntity
  8
LC-006-003-----0
 62
     2
370
    -2
100
AcDbLine
 10
2156.931294
 20
289.490747
 30
0.0
 11
2156.931294
 21
166.0
 31
0.0
  0
LINE
  5
1C6
330
1C3
100
AcDbEntity
  8
LC-006-003-----0
 62
     2
370
    -2
100
AcDbLine
 10
1844.181294
 20
175.0
 30
0.0
 11
2144.431294
 21
175.0
 31
0.0
  0
SOLID
  5
1C7
330
1C3
100
AcDbEntity
  8
LC-006-003-----0
 62
     2
100
AcDbTrace
 10
1844.181294
 20
177.083333
 30
0.0
 11
1844.181294
 21
172.916667
 31
0.0
 12
1831.681294
 22
175.0
 32
0.0
 13
1831.681294
 23
175.0
 33
0.0
  0
SOLID
  5
1C8
330
1C3
100
AcDbEntity
  8
LC-006-003-----0
 62
     2
100
AcDbTrace
 10
2144.431294
 20
172.916667
 30
0.0
 11
2144.431294
 21
177.083333
 31
0.0
 12
2156.931294
 22
175.0
 32
0.0
 13
2156.931294
 23
175.0
 33
0.0
  0
MTEXT
  5
1C9
330
1C3
100
AcDbEntity
  8
LC-006-003-----0
 62
     2
100
AcDbMText
 10
1994.306294
 20
190.0
 30
0.0
 40
12.5
 41
0.0
 71
     5
 72
     1
  1
\A1;325,25
  7
LCTX0-400-0-0pDIN-Schrift
 73
     1
 44
1.0
1001
ACAD
1000
MTEXTBEGIN
1070
    73
1070
     1
1070
    44
1040
1.0
1070
    74
1070
     0
1000
MTEXTEND
  0
POINT
  5
1CA
330
1C3
100
AcDbEntity
  8
Defpoints
 62
     0
100
AcDbPoint
 10
1831.681294
 20
289.490747
 30
0.0
  0
POINT
  5
1CB
330
1C3
100
AcDbEntity
  8
Defpoints
 62
     0
100
AcDbPoint
 10
2156.931294
 20
289.490747
 30
0.0
  0
POINT
  5
1CC
330
1C3
100
AcDbEntity
  8
Defpoints
 62
     0
100
AcDbPoint
 10
2156.931294
 20
175.0
 30
0.0
  0
ENDBLK
  5
1CE
330
1C3
100
AcDbEntity
  8
0
100
AcDbBlockEnd
  0
BLOCK
  5
20D
330
202
100
AcDbEntity
  8
0
100
AcDbBlockBegin
  2
*D13
 70
     1
 10
0.0
 20
0.0
 30
0.0
  3
*D13
  1

  0
LINE
  5
203
330
202
100
AcDbEntity
  8
LC-006-003-----0
 62
     2
370
    -2
100
AcDbLine
 10
303.971013
 20
1499.625
 30
0.0
 11
116.0
 21
1499.625
 31
0.0
  0
LINE
  5
204
330
202
100
AcDbEntity
  8
LC-006-003-----0
 62
     2
370
    -2
100
AcDbLine
 10
303.971013
 20
1010.375
 30
0.0
 11
116.0
 21
1010.375
 31
0.0
  0
LINE
  5
205
330
202
100
AcDbEntity
  8
LC-006-003-----0
 62
     2
370
    -2
100
AcDbLine
 10
125.0
 20
1487.125
 30
0.0
 11
125.0
 21
1294.999999
 31
0.0
  0
LINE
  5
206
330
202
100
AcDbEntity
  8
LC-006-003-----0
 62
     2
370
    -2
100
AcDbLine
 10
125.0
 20
1022.875
 30
0.0
 11
125.0
 21
1215.000001
 31
0.0
  0
SOLID
  5
207
330
202
100
AcDbEntity
  8
LC-006-003-----0
 62
     2
100
AcDbTrace
 10
127.083333
 20
1487.125
 30
0.0
 11
122.916667
 21
1487.125
 31
0.0
 12
125.0
 22
1499.625
 32
0.0
 13
125.0
 23
1499.625
 33
0.0
  0
SOLID
  5
208
330
202
100
AcDbEntity
  8
LC-006-003-----0
 62
     2
100
AcDbTrace
 10
122.916667
 20
1022.875
 30
0.0
 11
127.083333
 21
1022.875
 31
0.0
 12
125.0
 22
1010.375
 32
0.0
 13
125.0
 23
1010.375
 33
0.0
  0
MTEXT
  5
209
330
202
100
AcDbEntity
  8
LC-006-003-----0
 62
     2
100
AcDbMText
 10
110.0
 20
1255.0
 30
0.0
 40
12.5
 41
0.0
 71
     5
 72
     1
  1
\A1;489,25
  7
LCTX0-400-0-0pDIN-Schrift
 11
0.0000000000000001
 21
1.0
 31
0.0
 73
     1
 44
1.0
1001
ACAD
1000
MTEXTBEGIN
1070
    73
1070
     1
1070
    44
1040
1.0
1070
    74
1070
     0
1000
MTEXTEND
  0
POINT
  5
20A
330
202
100
AcDbEntity
  8
Defpoints
 62
     0
100
AcDbPoint
 10
303.971013
 20
1499.625
 30
0.0
  0
POINT
  5
20B
330
202
100
AcDbEntity
  8
Defpoints
 62
     0
100
AcDbPoint
 10
303.971013
 20
1010.375
 30
0.0
  0
POINT
  5
20C
330
202
100
AcDbEntity
  8
Defpoints
 62
     0
100
AcDbPoint
 10
125.0
 20
1010.375
 30
0.0
  0
ENDBLK
  5
20E
330
202
100
AcDbEntity
  8
0
100
AcDbBlockEnd
  0
BLOCK
  5
21A
330
210
100
AcDbEntity
  8
0
100
AcDbBlockBegin
  2
*D14
 70
     1
 10
0.0
 20
0.0
 30
0.0
  3
*D14
  1

  0
LINE
  5
211
330
210
100
AcDbEntity
  8
LC-006-003-----0
 62
     2
370
    -2
100
AcDbLine
 10
323.971013
 20
990.375
 30
0.0
 11
323.971013
 21
816.0
 31
0.0
  0
LINE
  5
212
330
210
100
AcDbEntity
  8
LC-006-003-----0
 62
     2
370
    -2
100
AcDbLine
 10
689.2210129999999
 20
990.375
 30
0.0
 11
689.2210129999999
 21
816.0
 31
0.0
  0
LINE
  5
213
330
210
100
AcDbEntity
  8
LC-006-003-----0
 62
     2
370
    -2
100
AcDbLine
 10
336.471013
 20
825.0
 30
0.0
 11
676.7210129999999
 21
825.0
 31
0.0
  0
SOLID
  5
214
330
210
100
AcDbEntity
  8
LC-006-003-----0
 62
     2
100
AcDbTrace
 10
336.471013
 20
827.083333
 30
0.0
 11
336.471013
 21
822.9166669999999
 31
0.0
 12
323.971013
 22
825.0
 32
0.0
 13
323.971013
 23
825.0
 33
0.0
  0
SOLID
  5
215
330
210
100
AcDbEntity
  8
LC-006-003-----0
 62
     2
100
AcDbTrace
 10
676.7210129999999
 20
822.9166669999999
 30
0.0
 11
676.7210129999999
 21
827.083333
 31
0.0
 12
689.2210129999999
 22
825.0
 32
0.0
 13
689.2210129999999
 23
825.0
 33
0.0
  0
MTEXT
  5
216
330
210
100
AcDbEntity
  8
LC-006-003-----0
 62
     2
100
AcDbMText
 10
506.5960129999999
 20
840.0
 30
0.0
 40
12.5
 41
0.0
 71
     5
 72
     1
  1
\A1;365,25
  7
LCTX0-400-0-0pDIN-Schrift
 73
     1
 44
1.0
1001
ACAD
1000
MTEXTBEGIN
1070
    73
1070
     1
1070
    44
1040
1.0
1070
    74
1070
     0
1000
MTEXTEND
  0
POINT
  5
217
330
210
100
AcDbEntity
  8
Defpoints
 62
     0
100
AcDbPoint
 10
323.971013
 20
990.375
 30
0.0
  0
POINT
  5
218
330
210
100
AcDbEntity
  8
Defpoints
 62
     0
100
AcDbPoint
 10
689.2210129999999
 20
990.375
 30
0.0
  0
POINT
  5
219
330
210
100
AcDbEntity
  8
Defpoints
 62
     0
100
AcDbPoint
 10
689.2210129999999
 20
825.0
 30
0.0
  0
ENDBLK
  5
21B
330
210
100
AcDbEntity
  8
0
100
AcDbBlockEnd
  0
BLOCK
  5
229
330
228
100
AcDbEntity
  8
0
100
AcDbBlockBegin
  2
*X15
 70
     1
 10
0.0
 20
0.0
 30
0.0
  3
*X15
  1

  4
*X5
  0
LINE
  5
22B
330
228
100
AcDbEntity
  8
LC-001-002-----0
 62
     7
370
    35
100
AcDbLine
 10
501.461565
 20
1315.0
 30
0.0
 11
511.7304599999999
 21
1315.0
 31
0.0
  0
LINE
  5
22C
330
228
100
AcDbEntity
  8
LC-001-002-----0
 62
     7
370
    35
100
AcDbLine
 10
501.4747309999999
 20
1315.1
 30
0.0
 11
511.717295
 21
1315.1
 31
0.0
  0
LINE
  5
22D
330
228
100
AcDbEntity
  8
LC-001-002-----0
 62
     7
370
    35
100
AcDbLine
 10
501.4878959999999
 20
1315.2
 30
0.0
 11
511.7041299999999
 21
1315.2
 31
0.0
  0
LINE
  5
22E
330
228
100
AcDbEntity
  8
LC-001-002-----0
 62
     7
370
    35
100
AcDbLine
 10
501.501061
 20
1315.3
 30
0.0
 11
511.6909639999999
 21
1315.3
 31
0.0
  0
LINE
  5
22F
330
228
100
AcDbEntity
  8
LC-001-002-----0
 62
     7
370
    35
100
AcDbLine
 10
501.5142259999999
 20
1315.4
 30
0.0
 11
511.677799
 21
1315.4
 31
0.0
  0
LINE
  5
230
330
228
100
AcDbEntity
  8
LC-001-002-----0
 62
     7
370
    35
100
AcDbLine
 10
501.527392
 20
1315.5
 30
0.0
 11
511.6646339999999
 21
1315.5
 31
0.0
  0
LINE
  5
231
330
228
100
AcDbEntity
  8
LC-001-002-----0
 62
     7
370
    35
100
AcDbLine
 10
501.540557
 20
1315.6
 30
0.0
 11
511.651469
 21
1315.6
 31
0.0
  0
LINE
  5
232
330
228
100
AcDbEntity
  8
LC-001-002-----0
 62
     7
370
    35
100
AcDbLine
 10
501.5537219999999
 20
1315.7
 30
0.0
 11
511.638303
 21
1315.7
 31
0.0
  0
LINE
  5
233
330
228
100
AcDbEntity
  8
LC-001-002-----0
 62
     7
370
    35
100
AcDbLine
 10
501.5668869999999
 20
1315.8
 30
0.0
 11
511.625138
 21
1315.8
 31
0.0
  0
LINE
  5
234
330
228
100
AcDbEntity
  8
LC-001-002-----0
 62
     7
370
    35
100
AcDbLine
 10
501.5800529999999
 20
1315.9
 30
0.0
 11
511.611973
 21
1315.9
 31
0.0
  0
LINE
  5
235
330
228
100
AcDbEntity
  8
LC-001-002-----0
 62
     7
370
    35
100
AcDbLine
 10
501.593218
 20
1316.0
 30
0.0
 11
511.598808
 21
1316.0
 31
0.0
  0
LINE
  5
236
330
228
100
AcDbEntity
  8
LC-001-002-----0
 62
     7
370
    35
100
AcDbLine
 10
501.606383
 20
1316.1
 30
0.0
 11
511.585642
 21
1316.1
 31
0.0
  0
LINE
  5
237
330
228
100
AcDbEntity
  8
LC-001-002-----0
 62
     7
370
    35
100
AcDbLine
 10
501.619548
 20
1316.2
 30
0.0
 11
511.5724769999999
 21
1316.2
 31
0.0
  0
LINE
  5
238
330
228
100
AcDbEntity
  8
LC-001-002-----0
 62
     7
370
    35
100
AcDbLine
 10
501.6327139999999
 20
1316.3
 30
0.0
 11
511.559312
 21
1316.3
 31
0.0
  0
LINE
  5
239
330
228
100
AcDbEntity
  8
LC-001-002-----0
 62
     7
370
    35
100
AcDbLine
 10
501.6458789999999
 20
1316.4
 30
0.0
 11
511.5461469999999
 21
1316.4
 31
0.0
  0
LINE
  5
23A
330
228
100
AcDbEntity
  8
LC-001-002-----0
 62
     7
370
    35
100
AcDbLine
 10
501.659044
 20
1316.5
 30
0.0
 11
511.5329809999999
 21
1316.5
 31
0.0
  0
LINE
  5
23B
330
228
100
AcDbEntity
  8
LC-001-002-----0
 62
     7
370
    35
100
AcDbLine
 10
501.672209
 20
1316.6
 30
0.0
 11
511.519816
 21
1316.6
 31
0.0
  0
LINE
  5
23C
330
228
100
AcDbEntity
  8
LC-001-002-----0
 62
     7
370
    35
100
AcDbLine
 10
501.685375
 20
1316.7
 30
0.0
 11
511.506651
 21
1316.7
 31
0.0
  0
LINE
  5
23D
330
228
100
AcDbEntity
  8
LC-001-002-----0
 62
     7
370
    35
100
AcDbLine
 10
501.69854
 20
1316.8
 30
0.0
 11
511.4934859999999
 21
1316.8
 31
0.0
  0
LINE
  5
23E
330
228
100
AcDbEntity
  8
LC-001-002-----0
 62
     7
370
    35
100
AcDbLine
 10
501.711705
 20
1316.9
 30
0.0
 11
511.4803199999999
 21
1316.9
 31
0.0
  0
LINE
  5
23F
330
228
100
AcDbEntity
  8
LC-001-002-----0
 62
     7
370
    35
100
AcDbLine
 10
501.72487
 20
1317.0
 30
0.0
 11
511.4671549999999
 21
1317.0
 31
0.0
  0
LINE
  5
240
330
228
100
AcDbEntity
  8
LC-001-002-----0
 62
     7
370
    35
100
AcDbLine
 10
501.738036
 20
1317.1
 30
0.0
 11
511.45399
 21
1317.1
 31
0.0
  0
LINE
  5
241
330
228
100
AcDbEntity
  8
LC-001-002-----0
 62
     7
370
    35
100
AcDbLine
 10
501.7512009999999
 20
1317.2
 30
0.0
 11
511.440825
 21
1317.2
 31
0.0
  0
LINE
  5
242
330
228
100
AcDbEntity
  8
LC-001-002-----0
 62
     7
370
    35
100
AcDbLine
 10
501.764366
 20
1317.3
 30
0.0
 11
511.427659
 21
1317.3
 31
0.0
  0
LINE
  5
243
330
228
100
AcDbEntity
  8
LC-001-002-----0
 62
     7
370
    35
100
AcDbLine
 10
501.7775309999999
 20
1317.4
 30
0.0
 11
511.414494
 21
1317.4
 31
0.0
  0
LINE
  5
244
330
228
100
AcDbEntity
  8
LC-001-002-----0
 62
     7
370
    35
100
AcDbLine
 10
501.7906969999999
 20
1317.5
 30
0.0
 11
511.4013289999999
 21
1317.5
 31
0.0
  0
LINE
  5
245
330
228
100
AcDbEntity
  8
LC-001-002-----0
 62
     7
370
    35
100
AcDbLine
 10
501.803862
 20
1317.6
 30
0.0
 11
511.3881639999999
 21
1317.6
 31
0.0
  0
LINE
  5
246
330
228
100
AcDbEntity
  8
LC-001-002-----0
 62
     7
370
    35
100
AcDbLine
 10
501.8170269999999
 20
1317.7
 30
0.0
 11
511.374998
 21
1317.7
 31
0.0
  0
LINE
  5
247
330
228
100
AcDbEntity
  8
LC-001-002-----0
 62
     7
370
    35
100
AcDbLine
 10
501.8301919999999
 20
1317.8
 30
0.0
 11
511.361833
 21
1317.8
 31
0.0
  0
LINE
  5
248
330
228
100
AcDbEntity
  8
LC-001-002-----0
 62
     7
370
    35
100
AcDbLine
 10
501.8433579999999
 20
1317.9
 30
0.0
 11
511.348668
 21
1317.9
 31
0.0
  0
LINE
  5
249
330
228
100
AcDbEntity
  8
LC-001-002-----0
 62
     7
370
    35
100
AcDbLine
 10
501.856523
 20
1318.0
 30
0.0
 11
511.335503
 21
1318.0
 31
0.0
  0
LINE
  5
24A
330
228
100
AcDbEntity
  8
LC-001-002-----0
 62
     7
370
    35
100
AcDbLine
 10
501.869688
 20
1318.1
 30
0.0
 11
511.322337
 21
1318.1
 31
0.0
  0
LINE
  5
24B
330
228
100
AcDbEntity
  8
LC-001-002-----0
 62
     7
370
    35
100
AcDbLine
 10
501.882853
 20
1318.2
 30
0.0
 11
511.3091719999999
 21
1318.2
 31
0.0
  0
LINE
  5
24C
330
228
100
AcDbEntity
  8
LC-001-002-----0
 62
     7
370
    35
100
AcDbLine
 10
501.896019
 20
1318.3
 30
0.0
 11
511.296007
 21
1318.3
 31
0.0
  0
LINE
  5
24D
330
228
100
AcDbEntity
  8
LC-001-002-----0
 62
     7
370
    35
100
AcDbLine
 10
501.9091839999999
 20
1318.4
 30
0.0
 11
511.282842
 21
1318.4
 31
0.0
  0
LINE
  5
24E
330
228
100
AcDbEntity
  8
LC-001-002-----0
 62
     7
370
    35
100
AcDbLine
 10
501.9223489999999
 20
1318.5
 30
0.0
 11
511.269676
 21
1318.5
 31
0.0
  0
LINE
  5
24F
330
228
100
AcDbEntity
  8
LC-001-002-----0
 62
     7
370
    35
100
AcDbLine
 10
501.935514
 20
1318.6
 30
0.0
 11
511.256511
 21
1318.6
 31
0.0
  0
LINE
  5
250
330
228
100
AcDbEntity
  8
LC-001-002-----0
 62
     7
370
    35
100
AcDbLine
 10
501.94868
 20
1318.7
 30
0.0
 11
511.243346
 21
1318.7
 31
0.0
  0
LINE
  5
251
330
228
100
AcDbEntity
  8
LC-001-002-----0
 62
     7
370
    35
100
AcDbLine
 10
501.961845
 20
1318.8
 30
0.0
 11
511.2301809999999
 21
1318.8
 31
0.0
  0
LINE
  5
252
330
228
100
AcDbEntity
  8
LC-001-002-----0
 62
     7
370
    35
100
AcDbLine
 10
501.9750099999999
 20
1318.9
 30
0.0
 11
511.217015
 21
1318.9
 31
0.0
  0
LINE
  5
253
330
228
100
AcDbEntity
  8
LC-001-002-----0
 62
     7
370
    35
100
AcDbLine
 10
501.988175
 20
1319.0
 30
0.0
 11
511.2038499999999
 21
1319.0
 31
0.0
  0
LINE
  5
254
330
228
100
AcDbEntity
  8
LC-001-002-----0
 62
     7
370
    35
100
AcDbLine
 10
502.001341
 20
1319.1
 30
0.0
 11
511.1906849999999
 21
1319.1
 31
0.0
  0
LINE
  5
255
330
228
100
AcDbEntity
  8
LC-001-002-----0
 62
     7
370
    35
100
AcDbLine
 10
502.0145059999999
 20
1319.2
 30
0.0
 11
511.17752
 21
1319.2
 31
0.0
  0
LINE
  5
256
330
228
100
AcDbEntity
  8
LC-001-002-----0
 62
     7
370
    35
100
AcDbLine
 10
502.027671
 20
1319.3
 30
0.0
 11
511.164354
 21
1319.3
 31
0.0
  0
LINE
  5
257
330
228
100
AcDbEntity
  8
LC-001-002-----0
 62
     7
370
    35
100
AcDbLine
 10
502.040836
 20
1319.4
 30
0.0
 11
511.151189
 21
1319.4
 31
0.0
  0
LINE
  5
258
330
228
100
AcDbEntity
  8
LC-001-002-----0
 62
     7
370
    35
100
AcDbLine
 10
502.0540019999999
 20
1319.5
 30
0.0
 11
511.138024
 21
1319.5
 31
0.0
  0
LINE
  5
259
330
228
100
AcDbEntity
  8
LC-001-002-----0
 62
     7
370
    35
100
AcDbLine
 10
502.0671669999999
 20
1319.6
 30
0.0
 11
511.1248589999999
 21
1319.6
 31
0.0
  0
LINE
  5
25A
330
228
100
AcDbEntity
  8
LC-001-002-----0
 62
     7
370
    35
100
AcDbLine
 10
502.080332
 20
1319.7
 30
0.0
 11
511.1116929999999
 21
1319.7
 31
0.0
  0
LINE
  5
25B
330
228
100
AcDbEntity
  8
LC-001-002-----0
 62
     7
370
    35
100
AcDbLine
 10
502.0934969999999
 20
1319.8
 30
0.0
 11
511.098528
 21
1319.8
 31
0.0
  0
LINE
  5
25C
330
228
100
AcDbEntity
  8
LC-001-002-----0
 62
     7
370
    35
100
AcDbLine
 10
502.1066629999999
 20
1319.9
 30
0.0
 11
511.085363
 21
1319.9
 31
0.0
  0
LINE
  5
25D
330
228
100
AcDbEntity
  8
LC-001-002-----0
 62
     7
370
    35
100
AcDbLine
 10
502.119828
 20
1320.0
 30
0.0
 11
511.072198
 21
1320.0
 31
0.0
  0
LINE
  5
25E
330
228
100
AcDbEntity
  8
LC-001-002-----0
 62
     7
370
    35
100
AcDbLine
 10
502.1329929999999
 20
1320.1
 30
0.0
 11
511.059032
 21
1320.1
 31
0.0
  0
LINE
  5
25F
330
228
100
AcDbEntity
  8
LC-001-002-----0
 62
     7
370
    35
100
AcDbLine
 10
502.146158
 20
1320.2
 30
0.0
 11
511.0458669999999
 21
1320.2
 31
0.0
  0
LINE
  5
260
330
228
100
AcDbEntity
  8
LC-001-002-----0
 62
     7
370
    35
100
AcDbLine
 10
502.159324
 20
1320.3
 30
0.0
 11
511.0327019999999
 21
1320.3
 31
0.0
  0
LINE
  5
261
330
228
100
AcDbEntity
  8
LC-001-002-----0
 62
     7
370
    35
100
AcDbLine
 10
502.1724889999999
 20
1320.4
 30
0.0
 11
511.019537
 21
1320.4
 31
0.0
  0
LINE
  5
262
330
228
100
AcDbEntity
  8
LC-001-002-----0
 62
     7
370
    35
100
AcDbLine
 10
502.1856539999999
 20
1320.5
 30
0.0
 11
511.006371
 21
1320.5
 31
0.0
  0
LINE
  5
263
330
228
100
AcDbEntity
  8
LC-001-002-----0
 62
     7
370
    35
100
AcDbLine
 10
502.198819
 20
1320.6
 30
0.0
 11
510.993206
 21
1320.6
 31
0.0
  0
LINE
  5
264
330
228
100
AcDbEntity
  8
LC-001-002-----0
 62
     7
370
    35
100
AcDbLine
 10
502.211985
 20
1320.7
 30
0.0
 11
510.980041
 21
1320.7
 31
0.0
  0
LINE
  5
265
330
228
100
AcDbEntity
  8
LC-001-002-----0
 62
     7
370
    35
100
AcDbLine
 10
502.22515
 20
1320.8
 30
0.0
 11
510.9668759999999
 21
1320.8
 31
0.0
  0
LINE
  5
266
330
228
100
AcDbEntity
  8
LC-001-002-----0
 62
     7
370
    35
100
AcDbLine
 10
502.238315
 20
1320.9
 30
0.0
 11
510.9537099999999
 21
1320.9
 31
0.0
  0
LINE
  5
267
330
228
100
AcDbEntity
  8
LC-001-002-----0
 62
     7
370
    35
100
AcDbLine
 10
502.2514799999999
 20
1321.0
 30
0.0
 11
510.940545
 21
1321.0
 31
0.0
  0
LINE
  5
268
330
228
100
AcDbEntity
  8
LC-001-002-----0
 62
     7
370
    35
100
AcDbLine
 10
502.2646459999999
 20
1321.1
 30
0.0
 11
510.9273799999999
 21
1321.1
 31
0.0
  0
LINE
  5
269
330
228
100
AcDbEntity
  8
LC-001-002-----0
 62
     7
370
    35
100
AcDbLine
 10
502.277811
 20
1321.2
 30
0.0
 11
510.914215
 21
1321.2
 31
0.0
  0
LINE
  5
26A
330
228
100
AcDbEntity
  8
LC-001-002-----0
 62
     7
370
    35
100
AcDbLine
 10
502.290976
 20
1321.3
 30
0.0
 11
510.901049
 21
1321.3
 31
0.0
  0
LINE
  5
26B
330
228
100
AcDbEntity
  8
LC-001-002-----0
 62
     7
370
    35
100
AcDbLine
 10
502.304141
 20
1321.4
 30
0.0
 11
510.887884
 21
1321.4
 31
0.0
  0
LINE
  5
26C
330
228
100
AcDbEntity
  8
LC-001-002-----0
 62
     7
370
    35
100
AcDbLine
 10
502.317307
 20
1321.5
 30
0.0
 11
510.874719
 21
1321.5
 31
0.0
  0
LINE
  5
26D
330
228
100
AcDbEntity
  8
LC-001-002-----0
 62
     7
370
    35
100
AcDbLine
 10
502.3304719999999
 20
1321.6
 30
0.0
 11
510.861554
 21
1321.6
 31
0.0
  0
LINE
  5
26E
330
228
100
AcDbEntity
  8
LC-001-002-----0
 62
     7
370
    35
100
AcDbLine
 10
502.3436369999999
 20
1321.7
 30
0.0
 11
510.848388
 21
1321.7
 31
0.0
  0
LINE
  5
26F
330
228
100
AcDbEntity
  8
LC-001-002-----0
 62
     7
370
    35
100
AcDbLine
 10
502.3568019999999
 20
1321.8
 30
0.0
 11
510.835223
 21
1321.8
 31
0.0
  0
LINE
  5
270
330
228
100
AcDbEntity
  8
LC-001-002-----0
 62
     7
370
    35
100
AcDbLine
 10
502.369968
 20
1321.9
 30
0.0
 11
510.822058
 21
1321.9
 31
0.0
  0
LINE
  5
271
330
228
100
AcDbEntity
  8
LC-001-002-----0
 62
     7
370
    35
100
AcDbLine
 10
502.383133
 20
1322.0
 30
0.0
 11
510.808893
 21
1322.0
 31
0.0
  0
LINE
  5
272
330
228
100
AcDbEntity
  8
LC-001-002-----0
 62
     7
370
    35
100
AcDbLine
 10
502.396298
 20
1322.1
 30
0.0
 11
510.7957269999999
 21
1322.1
 31
0.0
  0
LINE
  5
273
330
228
100
AcDbEntity
  8
LC-001-002-----0
 62
     7
370
    35
100
AcDbLine
 10
502.409463
 20
1322.2
 30
0.0
 11
510.7825619999999
 21
1322.2
 31
0.0
  0
LINE
  5
274
330
228
100
AcDbEntity
  8
LC-001-002-----0
 62
     7
370
    35
100
AcDbLine
 10
502.422629
 20
1322.3
 30
0.0
 11
510.7693969999999
 21
1322.3
 31
0.0
  0
LINE
  5
275
330
228
100
AcDbEntity
  8
LC-001-002-----0
 62
     7
370
    35
100
AcDbLine
 10
502.435794
 20
1322.4
 30
0.0
 11
510.756232
 21
1322.4
 31
0.0
  0
LINE
  5
276
330
228
100
AcDbEntity
  8
LC-001-002-----0
 62
     7
370
    35
100
AcDbLine
 10
502.4489589999999
 20
1322.5
 30
0.0
 11
510.743066
 21
1322.5
 31
0.0
  0
LINE
  5
277
330
228
100
AcDbEntity
  8
LC-001-002-----0
 62
     7
370
    35
100
AcDbLine
 10
502.462124
 20
1322.6
 30
0.0
 11
510.729901
 21
1322.6
 31
0.0
  0
LINE
  5
278
330
228
100
AcDbEntity
  8
LC-001-002-----0
 62
     7
370
    35
100
AcDbLine
 10
502.47529
 20
1322.7
 30
0.0
 11
510.716736
 21
1322.7
 31
0.0
  0
LINE
  5
279
330
228
100
AcDbEntity
  8
LC-001-002-----0
 62
     7
370
    35
100
AcDbLine
 10
502.488455
 20
1322.8
 30
0.0
 11
510.7035709999999
 21
1322.8
 31
0.0
  0
LINE
  5
27A
330
228
100
AcDbEntity
  8
LC-001-002-----0
 62
     7
370
    35
100
AcDbLine
 10
502.50162
 20
1322.9
 30
0.0
 11
510.6904049999999
 21
1322.9
 31
0.0
  0
LINE
  5
27B
330
228
100
AcDbEntity
  8
LC-001-002-----0
 62
     7
370
    35
100
AcDbLine
 10
502.5147849999999
 20
1323.0
 30
0.0
 11
510.67724
 21
1323.0
 31
0.0
  0
LINE
  5
27C
330
228
100
AcDbEntity
  8
LC-001-002-----0
 62
     7
370
    35
100
AcDbLine
 10
502.5279509999999
 20
1323.1
 30
0.0
 11
510.664075
 21
1323.1
 31
0.0
  0
LINE
  5
27D
330
228
100
AcDbEntity
  8
LC-001-002-----0
 62
     7
370
    35
100
AcDbLine
 10
502.5411159999999
 20
1323.2
 30
0.0
 11
510.6509099999999
 21
1323.2
 31
0.0
  0
LINE
  5
27E
330
228
100
AcDbEntity
  8
LC-001-002-----0
 62
     7
370
    35
100
AcDbLine
 10
502.5542809999999
 20
1323.3
 30
0.0
 11
510.6377440000001
 21
1323.3
 31
0.0
  0
LINE
  5
27F
330
228
100
AcDbEntity
  8
LC-001-002-----0
 62
     7
370
    35
100
AcDbLine
 10
502.567446
 20
1323.4
 30
0.0
 11
510.624579
 21
1323.4
 31
0.0
  0
LINE
  5
280
330
228
100
AcDbEntity
  8
LC-001-002-----0
 62
     7
370
    35
100
AcDbLine
 10
502.580612
 20
1323.5
 30
0.0
 11
510.6114139999999
 21
1323.5
 31
0.0
  0
LINE
  5
281
330
228
100
AcDbEntity
  8
LC-001-002-----0
 62
     7
370
    35
100
AcDbLine
 10
502.5937769999999
 20
1323.6
 30
0.0
 11
510.598249
 21
1323.6
 31
0.0
  0
LINE
  5
282
330
228
100
AcDbEntity
  8
LC-001-002-----0
 62
     7
370
    35
100
AcDbLine
 10
502.6069419999999
 20
1323.7
 30
0.0
 11
510.585083
 21
1323.7
 31
0.0
  0
LINE
  5
283
330
228
100
AcDbEntity
  8
LC-001-002-----0
 62
     7
370
    35
100
AcDbLine
 10
502.6201069999999
 20
1323.8
 30
0.0
 11
510.571918
 21
1323.8
 31
0.0
  0
LINE
  5
284
330
228
100
AcDbEntity
  8
LC-001-002-----0
 62
     7
370
    35
100
AcDbLine
 10
502.633273
 20
1323.9
 30
0.0
 11
510.558753
 21
1323.9
 31
0.0
  0
LINE
  5
285
330
228
100
AcDbEntity
  8
LC-001-002-----0
 62
     7
370
    35
100
AcDbLine
 10
502.646438
 20
1324.0
 30
0.0
 11
510.545588
 21
1324.0
 31
0.0
  0
LINE
  5
286
330
228
100
AcDbEntity
  8
LC-001-002-----0
 62
     7
370
    35
100
AcDbLine
 10
502.659603
 20
1324.1
 30
0.0
 11
510.5324219999999
 21
1324.1
 31
0.0
  0
LINE
  5
287
330
228
100
AcDbEntity
  8
LC-001-002-----0
 62
     7
370
    35
100
AcDbLine
 10
502.6727679999999
 20
1324.2
 30
0.0
 11
510.519257
 21
1324.2
 31
0.0
  0
LINE
  5
288
330
228
100
AcDbEntity
  8
LC-001-002-----0
 62
     7
370
    35
100
AcDbLine
 10
502.6859339999999
 20
1324.3
 30
0.0
 11
510.5060919999999
 21
1324.3
 31
0.0
  0
LINE
  5
289
330
228
100
AcDbEntity
  8
LC-001-002-----0
 62
     7
370
    35
100
AcDbLine
 10
502.699099
 20
1324.4
 30
0.0
 11
510.4929269999999
 21
1324.4
 31
0.0
  0
LINE
  5
28A
330
228
100
AcDbEntity
  8
LC-001-002-----0
 62
     7
370
    35
100
AcDbLine
 10
502.7122639999999
 20
1324.5
 30
0.0
 11
510.479761
 21
1324.5
 31
0.0
  0
LINE
  5
28B
330
228
100
AcDbEntity
  8
LC-001-002-----0
 62
     7
370
    35
100
AcDbLine
 10
502.725429
 20
1324.6
 30
0.0
 11
510.466596
 21
1324.6
 31
0.0
  0
LINE
  5
28C
330
228
100
AcDbEntity
  8
LC-001-002-----0
 62
     7
370
    35
100
AcDbLine
 10
502.738595
 20
1324.7
 30
0.0
 11
510.453431
 21
1324.7
 31
0.0
  0
LINE
  5
28D
330
228
100
AcDbEntity
  8
LC-001-002-----0
 62
     7
370
    35
100
AcDbLine
 10
502.75176
 20
1324.8
 30
0.0
 11
510.4402659999999
 21
1324.8
 31
0.0
  0
LINE
  5
28E
330
228
100
AcDbEntity
  8
LC-001-002-----0
 62
     7
370
    35
100
AcDbLine
 10
502.764925
 20
1324.9
 30
0.0
 11
510.4270999999999
 21
1324.9
 31
0.0
  0
LINE
  5
28F
330
228
100
AcDbEntity
  8
LC-001-002-----0
 62
     7
370
    35
100
AcDbLine
 10
502.77809
 20
1325.0
 30
0.0
 11
510.4139349999999
 21
1325.0
 31
0.0
  0
LINE
  5
290
330
228
100
AcDbEntity
  8
LC-001-002-----0
 62
     7
370
    35
100
AcDbLine
 10
502.7912559999999
 20
1325.1
 30
0.0
 11
510.40077
 21
1325.1
 31
0.0
  0
LINE
  5
291
330
228
100
AcDbEntity
  8
LC-001-002-----0
 62
     7
370
    35
100
AcDbLine
 10
502.804421
 20
1325.2
 30
0.0
 11
510.387605
 21
1325.2
 31
0.0
  0
LINE
  5
292
330
228
100
AcDbEntity
  8
LC-001-002-----0
 62
     7
370
    35
100
AcDbLine
 10
502.817586
 20
1325.3
 30
0.0
 11
510.3744389999999
 21
1325.3
 31
0.0
  0
LINE
  5
293
330
228
100
AcDbEntity
  8
LC-001-002-----0
 62
     7
370
    35
100
AcDbLine
 10
502.8307509999999
 20
1325.4
 30
0.0
 11
510.361274
 21
1325.4
 31
0.0
  0
LINE
  5
294
330
228
100
AcDbEntity
  8
LC-001-002-----0
 62
     7
370
    35
100
AcDbLine
 10
502.8439169999999
 20
1325.5
 30
0.0
 11
510.3481089999999
 21
1325.5
 31
0.0
  0
LINE
  5
295
330
228
100
AcDbEntity
  8
LC-001-002-----0
 62
     7
370
    35
100
AcDbLine
 10
502.857082
 20
1325.6
 30
0.0
 11
510.334944
 21
1325.6
 31
0.0
  0
LINE
  5
296
330
228
100
AcDbEntity
  8
LC-001-002-----0
 62
     7
370
    35
100
AcDbLine
 10
502.8702469999999
 20
1325.7
 30
0.0
 11
510.321778
 21
1325.7
 31
0.0
  0
LINE
  5
297
330
228
100
AcDbEntity
  8
LC-001-002-----0
 62
     7
370
    35
100
AcDbLine
 10
502.8834119999999
 20
1325.8
 30
0.0
 11
510.308613
 21
1325.8
 31
0.0
  0
LINE
  5
298
330
228
100
AcDbEntity
  8
LC-001-002-----0
 62
     7
370
    35
100
AcDbLine
 10
502.896578
 20
1325.9
 30
0.0
 11
510.295448
 21
1325.9
 31
0.0
  0
LINE
  5
299
330
228
100
AcDbEntity
  8
LC-001-002-----0
 62
     7
370
    35
100
AcDbLine
 10
502.909743
 20
1326.0
 30
0.0
 11
510.282283
 21
1326.0
 31
0.0
  0
LINE
  5
29A
330
228
100
AcDbEntity
  8
LC-001-002-----0
 62
     7
370
    35
100
AcDbLine
 10
502.922908
 20
1326.1
 30
0.0
 11
510.2691169999999
 21
1326.1
 31
0.0
  0
LINE
  5
29B
330
228
100
AcDbEntity
  8
LC-001-002-----0
 62
     7
370
    35
100
AcDbLine
 10
502.936073
 20
1326.2
 30
0.0
 11
510.2559519999999
 21
1326.2
 31
0.0
  0
LINE
  5
29C
330
228
100
AcDbEntity
  8
LC-001-002-----0
 62
     7
370
    35
100
AcDbLine
 10
502.9492389999999
 20
1326.3
 30
0.0
 11
510.242787
 21
1326.3
 31
0.0
  0
LINE
  5
29D
330
228
100
AcDbEntity
  8
LC-001-002-----0
 62
     7
370
    35
100
AcDbLine
 10
502.9624039999999
 20
1326.4
 30
0.0
 11
510.2296219999999
 21
1326.4
 31
0.0
  0
LINE
  5
29E
330
228
100
AcDbEntity
  8
LC-001-002-----0
 62
     7
370
    35
100
AcDbLine
 10
502.975569
 20
1326.5
 30
0.0
 11
510.2164559999999
 21
1326.5
 31
0.0
  0
LINE
  5
29F
330
228
100
AcDbEntity
  8
LC-001-002-----0
 62
     7
370
    35
100
AcDbLine
 10
502.988734
 20
1326.6
 30
0.0
 11
510.203291
 21
1326.6
 31
0.0
  0
LINE
  5
2A0
330
228
100
AcDbEntity
  8
LC-001-002-----0
 62
     7
370
    35
100
AcDbLine
 10
503.0019
 20
1326.7
 30
0.0
 11
510.1901259999999
 21
1326.7
 31
0.0
  0
LINE
  5
2A1
330
228
100
AcDbEntity
  8
LC-001-002-----0
 62
     7
370
    35
100
AcDbLine
 10
503.015065
 20
1326.8
 30
0.0
 11
510.1769609999999
 21
1326.8
 31
0.0
  0
LINE
  5
2A2
330
228
100
AcDbEntity
  8
LC-001-002-----0
 62
     7
370
    35
100
AcDbLine
 10
503.02823
 20
1326.9
 30
0.0
 11
510.1637949999999
 21
1326.9
 31
0.0
  0
LINE
  5
2A3
330
228
100
AcDbEntity
  8
LC-001-002-----0
 62
     7
370
    35
100
AcDbLine
 10
503.041395
 20
1327.0
 30
0.0
 11
510.1506299999999
 21
1327.0
 31
0.0
  0
LINE
  5
2A4
330
228
100
AcDbEntity
  8
LC-001-002-----0
 62
     7
370
    35
100
AcDbLine
 10
503.054561
 20
1327.1
 30
0.0
 11
510.137465
 21
1327.1
 31
0.0
  0
LINE
  5
2A5
330
228
100
AcDbEntity
  8
LC-001-002-----0
 62
     7
370
    35
100
AcDbLine
 10
503.067726
 20
1327.2
 30
0.0
 11
510.1243
 21
1327.2
 31
0.0
  0
LINE
  5
2A6
330
228
100
AcDbEntity
  8
LC-001-002-----0
 62
     7
370
    35
100
AcDbLine
 10
503.080891
 20
1327.3
 30
0.0
 11
510.111134
 21
1327.3
 31
0.0
  0
LINE
  5
2A7
330
228
100
AcDbEntity
  8
LC-001-002-----0
 62
     7
370
    35
100
AcDbLine
 10
503.0940559999999
 20
1327.4
 30
0.0
 11
510.097969
 21
1327.4
 31
0.0
  0
LINE
  5
2A8
330
228
100
AcDbEntity
  8
LC-001-002-----0
 62
     7
370
    35
100
AcDbLine
 10
503.1072219999999
 20
1327.5
 30
0.0
 11
510.084804
 21
1327.5
 31
0.0
  0
LINE
  5
2A9
330
228
100
AcDbEntity
  8
LC-001-002-----0
 62
     7
370
    35
100
AcDbLine
 10
503.1203869999999
 20
1327.6
 30
0.0
 11
510.0716389999999
 21
1327.6
 31
0.0
  0
LINE
  5
2AA
330
228
100
AcDbEntity
  8
LC-001-002-----0
 62
     7
370
    35
100
AcDbLine
 10
503.1335519999999
 20
1327.7
 30
0.0
 11
510.058473
 21
1327.7
 31
0.0
  0
LINE
  5
2AB
330
228
100
AcDbEntity
  8
LC-001-002-----0
 62
     7
370
    35
100
AcDbLine
 10
503.1467169999999
 20
1327.8
 30
0.0
 11
510.045308
 21
1327.8
 31
0.0
  0
LINE
  5
2AC
330
228
100
AcDbEntity
  8
LC-001-002-----0
 62
     7
370
    35
100
AcDbLine
 10
503.159883
 20
1327.9
 30
0.0
 11
510.032143
 21
1327.9
 31
0.0
  0
LINE
  5
2AD
330
228
100
AcDbEntity
  8
LC-001-002-----0
 62
     7
370
    35
100
AcDbLine
 10
503.173048
 20
1328.0
 30
0.0
 11
510.018978
 21
1328.0
 31
0.0
  0
LINE
  5
2AE
330
228
100
AcDbEntity
  8
LC-001-002-----0
 62
     7
370
    35
100
AcDbLine
 10
503.186213
 20
1328.1
 30
0.0
 11
510.0058119999999
 21
1328.1
 31
0.0
  0
LINE
  5
2AF
330
228
100
AcDbEntity
  8
LC-001-002-----0
 62
     7
370
    35
100
AcDbLine
 10
503.199378
 20
1328.2
 30
0.0
 11
509.9926469999999
 21
1328.2
 31
0.0
  0
LINE
  5
2B0
330
228
100
AcDbEntity
  8
LC-001-002-----0
 62
     7
370
    35
100
AcDbLine
 10
503.212544
 20
1328.3
 30
0.0
 11
509.979482
 21
1328.3
 31
0.0
  0
LINE
  5
2B1
330
228
100
AcDbEntity
  8
LC-001-002-----0
 62
     7
370
    35
100
AcDbLine
 10
503.2257089999999
 20
1328.4
 30
0.0
 11
509.966317
 21
1328.4
 31
0.0
  0
LINE
  5
2B2
330
228
100
AcDbEntity
  8
LC-001-002-----0
 62
     7
370
    35
100
AcDbLine
 10
503.238874
 20
1328.5
 30
0.0
 11
509.953151
 21
1328.5
 31
0.0
  0
LINE
  5
2B3
330
228
100
AcDbEntity
  8
LC-001-002-----0
 62
     7
370
    35
100
AcDbLine
 10
503.252039
 20
1328.6
 30
0.0
 11
509.939986
 21
1328.6
 31
0.0
  0
LINE
  5
2B4
330
228
100
AcDbEntity
  8
LC-001-002-----0
 62
     7
370
    35
100
AcDbLine
 10
503.265205
 20
1328.7
 30
0.0
 11
509.9268209999999
 21
1328.7
 31
0.0
  0
LINE
  5
2B5
330
228
100
AcDbEntity
  8
LC-001-002-----0
 62
     7
370
    35
100
AcDbLine
 10
503.27837
 20
1328.8
 30
0.0
 11
509.9136559999999
 21
1328.8
 31
0.0
  0
LINE
  5
2B6
330
228
100
AcDbEntity
  8
LC-001-002-----0
 62
     7
370
    35
100
AcDbLine
 10
503.2915349999999
 20
1328.9
 30
0.0
 11
509.90049
 21
1328.9
 31
0.0
  0
LINE
  5
2B7
330
228
100
AcDbEntity
  8
LC-001-002-----0
 62
     7
370
    35
100
AcDbLine
 10
503.3047
 20
1329.0
 30
0.0
 11
509.8873249999999
 21
1329.0
 31
0.0
  0
LINE
  5
2B8
330
228
100
AcDbEntity
  8
LC-001-002-----0
 62
     7
370
    35
100
AcDbLine
 10
503.317866
 20
1329.1
 30
0.0
 11
509.8741599999999
 21
1329.1
 31
0.0
  0
LINE
  5
2B9
330
228
100
AcDbEntity
  8
LC-001-002-----0
 62
     7
370
    35
100
AcDbLine
 10
503.3310309999999
 20
1329.2
 30
0.0
 11
509.860995
 21
1329.2
 31
0.0
  0
LINE
  5
2BA
330
228
100
AcDbEntity
  8
LC-001-002-----0
 62
     7
370
    35
100
AcDbLine
 10
503.344196
 20
1329.3
 30
0.0
 11
509.847829
 21
1329.3
 31
0.0
  0
LINE
  5
2BB
330
228
100
AcDbEntity
  8
LC-001-002-----0
 62
     7
370
    35
100
AcDbLine
 10
503.357361
 20
1329.4
 30
0.0
 11
509.8346639999999
 21
1329.4
 31
0.0
  0
LINE
  5
2BC
330
228
100
AcDbEntity
  8
LC-001-002-----0
 62
     7
370
    35
100
AcDbLine
 10
503.3705269999999
 20
1329.5
 30
0.0
 11
509.821499
 21
1329.5
 31
0.0
  0
LINE
  5
2BD
330
228
100
AcDbEntity
  8
LC-001-002-----0
 62
     7
370
    35
100
AcDbLine
 10
503.3836919999999
 20
1329.6
 30
0.0
 11
509.808334
 21
1329.6
 31
0.0
  0
LINE
  5
2BE
330
228
100
AcDbEntity
  8
LC-001-002-----0
 62
     7
370
    35
100
AcDbLine
 10
503.3968569999999
 20
1329.7
 30
0.0
 11
509.795168
 21
1329.7
 31
0.0
  0
LINE
  5
2BF
330
228
100
AcDbEntity
  8
LC-001-002-----0
 62
     7
370
    35
100
AcDbLine
 10
503.410022
 20
1329.8
 30
0.0
 11
509.782003
 21
1329.8
 31
0.0
  0
LINE
  5
2C0
330
228
100
AcDbEntity
  8
LC-001-002-----0
 62
     7
370
    35
100
AcDbLine
 10
503.423188
 20
1329.9
 30
0.0
 11
509.768838
 21
1329.9
 31
0.0
  0
LINE
  5
2C1
330
228
100
AcDbEntity
  8
LC-001-002-----0
 62
     7
370
    35
100
AcDbLine
 10
503.436353
 20
1330.0
 30
0.0
 11
509.755673
 21
1330.0
 31
0.0
  0
LINE
  5
2C2
330
228
100
AcDbEntity
  8
LC-001-002-----0
 62
     7
370
    35
100
AcDbLine
 10
503.4495179999999
 20
1330.1
 30
0.0
 11
509.742507
 21
1330.1
 31
0.0
  0
LINE
  5
2C3
330
228
100
AcDbEntity
  8
LC-001-002-----0
 62
     7
370
    35
100
AcDbLine
 10
503.462683
 20
1330.2
 30
0.0
 11
509.7293419999999
 21
1330.2
 31
0.0
  0
LINE
  5
2C4
330
228
100
AcDbEntity
  8
LC-001-002-----0
 62
     7
370
    35
100
AcDbLine
 10
503.475849
 20
1330.3
 30
0.0
 11
509.7161769999999
 21
1330.3
 31
0.0
  0
LINE
  5
2C5
330
228
100
AcDbEntity
  8
LC-001-002-----0
 62
     7
370
    35
100
AcDbLine
 10
503.4890139999999
 20
1330.4
 30
0.0
 11
509.703012
 21
1330.4
 31
0.0
  0
LINE
  5
2C6
330
228
100
AcDbEntity
  8
LC-001-002-----0
 62
     7
370
    35
100
AcDbLine
 10
503.502179
 20
1330.5
 30
0.0
 11
509.689846
 21
1330.5
 31
0.0
  0
LINE
  5
2C7
330
228
100
AcDbEntity
  8
LC-001-002-----0
 62
     7
370
    35
100
AcDbLine
 10
503.515344
 20
1330.6
 30
0.0
 11
509.676681
 21
1330.6
 31
0.0
  0
LINE
  5
2C8
330
228
100
AcDbEntity
  8
LC-001-002-----0
 62
     7
370
    35
100
AcDbLine
 10
503.52851
 20
1330.7
 30
0.0
 11
509.6635159999999
 21
1330.7
 31
0.0
  0
LINE
  5
2C9
330
228
100
AcDbEntity
  8
LC-001-002-----0
 62
     7
370
    35
100
AcDbLine
 10
503.541675
 20
1330.8
 30
0.0
 11
509.6503509999999
 21
1330.8
 31
0.0
  0
LINE
  5
2CA
330
228
100
AcDbEntity
  8
LC-001-002-----0
 62
     7
370
    35
100
AcDbLine
 10
503.55484
 20
1330.9
 30
0.0
 11
509.6371849999999
 21
1330.9
 31
0.0
  0
LINE
  5
2CB
330
228
100
AcDbEntity
  8
LC-001-002-----0
 62
     7
370
    35
100
AcDbLine
 10
503.5680049999999
 20
1331.0
 30
0.0
 11
509.62402
 21
1331.0
 31
0.0
  0
LINE
  5
2CC
330
228
100
AcDbEntity
  8
LC-001-002-----0
 62
     7
370
    35
100
AcDbLine
 10
503.5811709999999
 20
1331.1
 30
0.0
 11
509.6108549999999
 21
1331.1
 31
0.0
  0
LINE
  5
2CD
330
228
100
AcDbEntity
  8
LC-001-002-----0
 62
     7
370
    35
100
AcDbLine
 10
503.594336
 20
1331.2
 30
0.0
 11
509.5976900000001
 21
1331.2
 31
0.0
  0
LINE
  5
2CE
330
228
100
AcDbEntity
  8
LC-001-002-----0
 62
     7
370
    35
100
AcDbLine
 10
503.6075009999999
 20
1331.3
 30
0.0
 11
509.584524
 21
1331.3
 31
0.0
  0
LINE
  5
2CF
330
228
100
AcDbEntity
  8
LC-001-002-----0
 62
     7
370
    35
100
AcDbLine
 10
503.620666
 20
1331.4
 30
0.0
 11
509.5713589999999
 21
1331.4
 31
0.0
  0
LINE
  5
2D0
330
228
100
AcDbEntity
  8
LC-001-002-----0
 62
     7
370
    35
100
AcDbLine
 10
503.633832
 20
1331.5
 30
0.0
 11
509.558194
 21
1331.5
 31
0.0
  0
LINE
  5
2D1
330
228
100
AcDbEntity
  8
LC-001-002-----0
 62
     7
370
    35
100
AcDbLine
 10
503.6469969999999
 20
1331.6
 30
0.0
 11
509.545029
 21
1331.6
 31
0.0
  0
LINE
  5
2D2
330
228
100
AcDbEntity
  8
LC-001-002-----0
 62
     7
370
    35
100
AcDbLine
 10
503.6601619999999
 20
1331.7
 30
0.0
 11
509.531863
 21
1331.7
 31
0.0
  0
LINE
  5
2D3
330
228
100
AcDbEntity
  8
LC-001-002-----0
 62
     7
370
    35
100
AcDbLine
 10
503.673327
 20
1331.8
 30
0.0
 11
509.518698
 21
1331.8
 31
0.0
  0
LINE
  5
2D4
330
228
100
AcDbEntity
  8
LC-001-002-----0
 62
     7
370
    35
100
AcDbLine
 10
503.686493
 20
1331.9
 30
0.0
 11
509.505533
 21
1331.9
 31
0.0
  0
LINE
  5
2D5
330
228
100
AcDbEntity
  8
LC-001-002-----0
 62
     7
370
    35
100
AcDbLine
 10
503.699658
 20
1332.0
 30
0.0
 11
509.4923679999999
 21
1332.0
 31
0.0
  0
LINE
  5
2D6
330
228
100
AcDbEntity
  8
LC-001-002-----0
 62
     7
370
    35
100
AcDbLine
 10
503.712823
 20
1332.1
 30
0.0
 11
509.4792019999998
 21
1332.1
 31
0.0
  0
LINE
  5
2D7
330
228
100
AcDbEntity
  8
LC-001-002-----0
 62
     7
370
    35
100
AcDbLine
 10
503.7259879999999
 20
1332.2
 30
0.0
 11
509.466037
 21
1332.2
 31
0.0
  0
LINE
  5
2D8
330
228
100
AcDbEntity
  8
LC-001-002-----0
 62
     7
370
    35
100
AcDbLine
 10
503.7391539999999
 20
1332.3
 30
0.0
 11
509.4528719999999
 21
1332.3
 31
0.0
  0
LINE
  5
2D9
330
228
100
AcDbEntity
  8
LC-001-002-----0
 62
     7
370
    35
100
AcDbLine
 10
503.752319
 20
1332.4
 30
0.0
 11
509.439707
 21
1332.4
 31
0.0
  0
LINE
  5
2DA
330
228
100
AcDbEntity
  8
LC-001-002-----0
 62
     7
370
    35
100
AcDbLine
 10
503.765484
 20
1332.5
 30
0.0
 11
509.426541
 21
1332.5
 31
0.0
  0
LINE
  5
2DB
330
228
100
AcDbEntity
  8
LC-001-002-----0
 62
     7
370
    35
100
AcDbLine
 10
503.778649
 20
1332.6
 30
0.0
 11
509.413376
 21
1332.6
 31
0.0
  0
LINE
  5
2DC
330
228
100
AcDbEntity
  8
LC-001-002-----0
 62
     7
370
    35
100
AcDbLine
 10
503.791815
 20
1332.7
 30
0.0
 11
509.4002109999999
 21
1332.7
 31
0.0
  0
LINE
  5
2DD
330
228
100
AcDbEntity
  8
LC-001-002-----0
 62
     7
370
    35
100
AcDbLine
 10
503.80498
 20
1332.8
 30
0.0
 11
509.3870459999999
 21
1332.8
 31
0.0
  0
LINE
  5
2DE
330
228
100
AcDbEntity
  8
LC-001-002-----0
 62
     7
370
    35
100
AcDbLine
 10
503.818145
 20
1332.9
 30
0.0
 11
509.3738799999999
 21
1332.9
 31
0.0
  0
LINE
  5
2DF
330
228
100
AcDbEntity
  8
LC-001-002-----0
 62
     7
370
    35
100
AcDbLine
 10
503.8313099999999
 20
1333.0
 30
0.0
 11
509.360715
 21
1333.0
 31
0.0
  0
LINE
  5
2E0
330
228
100
AcDbEntity
  8
LC-001-002-----0
 62
     7
370
    35
100
AcDbLine
 10
503.8444759999999
 20
1333.1
 30
0.0
 11
509.34755
 21
1333.1
 31
0.0
  0
LINE
  5
2E1
330
228
100
AcDbEntity
  8
LC-001-002-----0
 62
     7
370
    35
100
AcDbLine
 10
503.857641
 20
1333.2
 30
0.0
 11
509.3343849999999
 21
1333.2
 31
0.0
  0
LINE
  5
2E2
330
228
100
AcDbEntity
  8
LC-001-002-----0
 62
     7
370
    35
100
AcDbLine
 10
503.8708059999999
 20
1333.3
 30
0.0
 11
509.321219
 21
1333.3
 31
0.0
  0
LINE
  5
2E3
330
228
100
AcDbEntity
  8
LC-001-002-----0
 62
     7
370
    35
100
AcDbLine
 10
503.8839709999999
 20
1333.4
 30
0.0
 11
509.308054
 21
1333.4
 31
0.0
  0
LINE
  5
2E4
330
228
100
AcDbEntity
  8
LC-001-002-----0
 62
     7
370
    35
100
AcDbLine
 10
503.8971369999999
 20
1333.5
 30
0.0
 11
509.2948889999999
 21
1333.5
 31
0.0
  0
LINE
  5
2E5
330
228
100
AcDbEntity
  8
LC-001-002-----0
 62
     7
370
    35
100
AcDbLine
 10
503.9103019999999
 20
1333.6
 30
0.0
 11
509.281724
 21
1333.6
 31
0.0
  0
LINE
  5
2E6
330
228
100
AcDbEntity
  8
LC-001-002-----0
 62
     7
370
    35
100
AcDbLine
 10
503.9234669999999
 20
1333.7
 30
0.0
 11
509.268558
 21
1333.7
 31
0.0
  0
LINE
  5
2E7
330
228
100
AcDbEntity
  8
LC-001-002-----0
 62
     7
370
    35
100
AcDbLine
 10
503.936632
 20
1333.8
 30
0.0
 11
509.255393
 21
1333.8
 31
0.0
  0
LINE
  5
2E8
330
228
100
AcDbEntity
  8
LC-001-002-----0
 62
     7
370
    35
100
AcDbLine
 10
503.949798
 20
1333.9
 30
0.0
 11
509.242228
 21
1333.9
 31
0.0
  0
LINE
  5
2E9
330
228
100
AcDbEntity
  8
LC-001-002-----0
 62
     7
370
    35
100
AcDbLine
 10
503.962963
 20
1334.0
 30
0.0
 11
509.2290629999999
 21
1334.0
 31
0.0
  0
LINE
  5
2EA
330
228
100
AcDbEntity
  8
LC-001-002-----0
 62
     7
370
    35
100
AcDbLine
 10
503.976128
 20
1334.1
 30
0.0
 11
509.2158969999999
 21
1334.1
 31
0.0
  0
LINE
  5
2EB
330
228
100
AcDbEntity
  8
LC-001-002-----0
 62
     7
370
    35
100
AcDbLine
 10
503.9892929999999
 20
1334.2
 30
0.0
 11
509.202732
 21
1334.2
 31
0.0
  0
LINE
  5
2EC
330
228
100
AcDbEntity
  8
LC-001-002-----0
 62
     7
370
    35
100
AcDbLine
 10
504.0024589999999
 20
1334.3
 30
0.0
 11
509.189567
 21
1334.3
 31
0.0
  0
LINE
  5
2ED
330
228
100
AcDbEntity
  8
LC-001-002-----0
 62
     7
370
    35
100
AcDbLine
 10
504.0156239999999
 20
1334.4
 30
0.0
 11
509.1764019999999
 21
1334.4
 31
0.0
  0
LINE
  5
2EE
330
228
100
AcDbEntity
  8
LC-001-002-----0
 62
     7
370
    35
100
AcDbLine
 10
504.028789
 20
1334.5
 30
0.0
 11
509.163236
 21
1334.5
 31
0.0
  0
LINE
  5
2EF
330
228
100
AcDbEntity
  8
LC-001-002-----0
 62
     7
370
    35
100
AcDbLine
 10
504.041954
 20
1334.6
 30
0.0
 11
509.150071
 21
1334.6
 31
0.0
  0
LINE
  5
2F0
330
228
100
AcDbEntity
  8
LC-001-002-----0
 62
     7
370
    35
100
AcDbLine
 10
504.05512
 20
1334.7
 30
0.0
 11
509.1369059999999
 21
1334.7
 31
0.0
  0
LINE
  5
2F1
330
228
100
AcDbEntity
  8
LC-001-002-----0
 62
     7
370
    35
100
AcDbLine
 10
504.0682849999999
 20
1334.8
 30
0.0
 11
509.1237409999999
 21
1334.8
 31
0.0
  0
LINE
  5
2F2
330
228
100
AcDbEntity
  8
LC-001-002-----0
 62
     7
370
    35
100
AcDbLine
 10
504.08145
 20
1334.9
 30
0.0
 11
509.1105749999999
 21
1334.9
 31
0.0
  0
LINE
  5
2F3
330
228
100
AcDbEntity
  8
LC-001-002-----0
 62
     7
370
    35
100
AcDbLine
 10
504.094615
 20
1335.0
 30
0.0
 11
509.0974099999999
 21
1335.0
 31
0.0
  0
LINE
  5
2F4
330
228
100
AcDbEntity
  8
LC-001-002-----0
 62
     7
370
    35
100
AcDbLine
 10
504.1077809999999
 20
1335.1
 30
0.0
 11
509.084245
 21
1335.1
 31
0.0
  0
LINE
  5
2F5
330
228
100
AcDbEntity
  8
LC-001-002-----0
 62
     7
370
    35
100
AcDbLine
 10
504.120946
 20
1335.2
 30
0.0
 11
509.07108
 21
1335.2
 31
0.0
  0
LINE
  5
2F6
330
228
100
AcDbEntity
  8
LC-001-002-----0
 62
     7
370
    35
100
AcDbLine
 10
504.134111
 20
1335.3
 30
0.0
 11
509.057914
 21
1335.3
 31
0.0
  0
LINE
  5
2F7
330
228
100
AcDbEntity
  8
LC-001-002-----0
 62
     7
370
    35
100
AcDbLine
 10
504.1472759999999
 20
1335.4
 30
0.0
 11
509.044749
 21
1335.4
 31
0.0
  0
LINE
  5
2F8
330
228
100
AcDbEntity
  8
LC-001-002-----0
 62
     7
370
    35
100
AcDbLine
 10
504.1604419999999
 20
1335.5
 30
0.0
 11
509.031584
 21
1335.5
 31
0.0
  0
LINE
  5
2F9
330
228
100
AcDbEntity
  8
LC-001-002-----0
 62
     7
370
    35
100
AcDbLine
 10
504.1736069999999
 20
1335.6
 30
0.0
 11
509.018419
 21
1335.6
 31
0.0
  0
LINE
  5
2FA
330
228
100
AcDbEntity
  8
LC-001-002-----0
 62
     7
370
    35
100
AcDbLine
 10
504.1867719999999
 20
1335.7
 30
0.0
 11
509.005253
 21
1335.7
 31
0.0
  0
LINE
  5
2FB
330
228
100
AcDbEntity
  8
LC-001-002-----0
 62
     7
370
    35
100
AcDbLine
 10
504.199937
 20
1335.8
 30
0.0
 11
508.992088
 21
1335.8
 31
0.0
  0
LINE
  5
2FC
330
228
100
AcDbEntity
  8
LC-001-002-----0
 62
     7
370
    35
100
AcDbLine
 10
504.213103
 20
1335.9
 30
0.0
 11
508.978923
 21
1335.9
 31
0.0
  0
LINE
  5
2FD
330
228
100
AcDbEntity
  8
LC-001-002-----0
 62
     7
370
    35
100
AcDbLine
 10
504.2262679999999
 20
1336.0
 30
0.0
 11
508.9657579999999
 21
1336.0
 31
0.0
  0
LINE
  5
2FE
330
228
100
AcDbEntity
  8
LC-001-002-----0
 62
     7
370
    35
100
AcDbLine
 10
504.239433
 20
1336.1
 30
0.0
 11
508.9525919999999
 21
1336.1
 31
0.0
  0
LINE
  5
2FF
330
228
100
AcDbEntity
  8
LC-001-002-----0
 62
     7
370
    35
100
AcDbLine
 10
504.252598
 20
1336.2
 30
0.0
 11
508.9394269999999
 21
1336.2
 31
0.0
  0
LINE
  5
300
330
228
100
AcDbEntity
  8
LC-001-002-----0
 62
     7
370
    35
100
AcDbLine
 10
504.2657639999999
 20
1336.3
 30
0.0
 11
508.926262
 21
1336.3
 31
0.0
  0
LINE
  5
301
330
228
100
AcDbEntity
  8
LC-001-002-----0
 62
     7
370
    35
100
AcDbLine
 10
504.2789289999999
 20
1336.4
 30
0.0
 11
508.913097
 21
1336.4
 31
0.0
  0
LINE
  5
302
330
228
100
AcDbEntity
  8
LC-001-002-----0
 62
     7
370
    35
100
AcDbLine
 10
504.292094
 20
1336.5
 30
0.0
 11
508.899931
 21
1336.5
 31
0.0
  0
LINE
  5
303
330
228
100
AcDbEntity
  8
LC-001-002-----0
 62
     7
370
    35
100
AcDbLine
 10
504.305259
 20
1336.6
 30
0.0
 11
508.886766
 21
1336.6
 31
0.0
  0
LINE
  5
304
330
228
100
AcDbEntity
  8
LC-001-002-----0
 62
     7
370
    35
100
AcDbLine
 10
504.318425
 20
1336.7
 30
0.0
 11
508.8736009999999
 21
1336.7
 31
0.0
  0
LINE
  5
305
330
228
100
AcDbEntity
  8
LC-001-002-----0
 62
     7
370
    35
100
AcDbLine
 10
504.33159
 20
1336.8
 30
0.0
 11
508.860436
 21
1336.8
 31
0.0
  0
LINE
  5
306
330
228
100
AcDbEntity
  8
LC-001-002-----0
 62
     7
370
    35
100
AcDbLine
 10
504.3447549999999
 20
1336.9
 30
0.0
 11
508.8472709999999
 21
1336.9
 31
0.0
  0
LINE
  5
307
330
228
100
AcDbEntity
  8
LC-001-002-----0
 62
     7
370
    35
100
AcDbLine
 10
504.35792
 20
1337.0
 30
0.0
 11
508.8341049999999
 21
1337.0
 31
0.0
  0
LINE
  5
308
330
228
100
AcDbEntity
  8
LC-001-002-----0
 62
     7
370
    35
100
AcDbLine
 10
504.371086
 20
1337.1
 30
0.0
 11
508.8209400000001
 21
1337.1
 31
0.0
  0
LINE
  5
309
330
228
100
AcDbEntity
  8
LC-001-002-----0
 62
     7
370
    35
100
AcDbLine
 10
504.3842509999999
 20
1337.2
 30
0.0
 11
508.807775
 21
1337.2
 31
0.0
  0
LINE
  5
30A
330
228
100
AcDbEntity
  8
LC-001-002-----0
 62
     7
370
    35
100
AcDbLine
 10
504.397416
 20
1337.3
 30
0.0
 11
508.7946099999999
 21
1337.3
 31
0.0
  0
LINE
  5
30B
330
228
100
AcDbEntity
  8
LC-001-002-----0
 62
     7
370
    35
100
AcDbLine
 10
504.4105809999999
 20
1337.4
 30
0.0
 11
508.781444
 21
1337.4
 31
0.0
  0
LINE
  5
30C
330
228
100
AcDbEntity
  8
LC-001-002-----0
 62
     7
370
    35
100
AcDbLine
 10
504.4237469999999
 20
1337.5
 30
0.0
 11
508.768279
 21
1337.5
 31
0.0
  0
LINE
  5
30D
330
228
100
AcDbEntity
  8
LC-001-002-----0
 62
     7
370
    35
100
AcDbLine
 10
504.4369119999999
 20
1337.6
 30
0.0
 11
508.755114
 21
1337.6
 31
0.0
  0
LINE
  5
30E
330
228
100
AcDbEntity
  8
LC-001-002-----0
 62
     7
370
    35
100
AcDbLine
 10
504.4500769999999
 20
1337.7
 30
0.0
 11
508.741949
 21
1337.7
 31
0.0
  0
LINE
  5
30F
330
228
100
AcDbEntity
  8
LC-001-002-----0
 62
     7
370
    35
100
AcDbLine
 10
504.463242
 20
1337.8
 30
0.0
 11
508.728783
 21
1337.8
 31
0.0
  0
LINE
  5
310
330
228
100
AcDbEntity
  8
LC-001-002-----0
 62
     7
370
    35
100
AcDbLine
 10
504.476408
 20
1337.9
 30
0.0
 11
508.715618
 21
1337.9
 31
0.0
  0
LINE
  5
311
330
228
100
AcDbEntity
  8
LC-001-002-----0
 62
     7
370
    35
100
AcDbLine
 10
504.489573
 20
1338.0
 30
0.0
 11
508.702453
 21
1338.0
 31
0.0
  0
LINE
  5
312
330
228
100
AcDbEntity
  8
LC-001-002-----0
 62
     7
370
    35
100
AcDbLine
 10
504.5027379999999
 20
1338.1
 30
0.0
 11
508.6892879999999
 21
1338.1
 31
0.0
  0
LINE
  5
313
330
228
100
AcDbEntity
  8
LC-001-002-----0
 62
     7
370
    35
100
AcDbLine
 10
504.515903
 20
1338.2
 30
0.0
 11
508.6761219999999
 21
1338.2
 31
0.0
  0
LINE
  5
314
330
228
100
AcDbEntity
  8
LC-001-002-----0
 62
     7
370
    35
100
AcDbLine
 10
504.529069
 20
1338.3
 30
0.0
 11
508.662957
 21
1338.3
 31
0.0
  0
LINE
  5
315
330
228
100
AcDbEntity
  8
LC-001-002-----0
 62
     7
370
    35
100
AcDbLine
 10
504.542234
 20
1338.4
 30
0.0
 11
508.649792
 21
1338.4
 31
0.0
  0
LINE
  5
316
330
228
100
AcDbEntity
  8
LC-001-002-----0
 62
     7
370
    35
100
AcDbLine
 10
504.555399
 20
1338.5
 30
0.0
 11
508.636627
 21
1338.5
 31
0.0
  0
LINE
  5
317
330
228
100
AcDbEntity
  8
LC-001-002-----0
 62
     7
370
    35
100
AcDbLine
 10
504.568564
 20
1338.6
 30
0.0
 11
508.6234609999999
 21
1338.6
 31
0.0
  0
LINE
  5
318
330
228
100
AcDbEntity
  8
LC-001-002-----0
 62
     7
370
    35
100
AcDbLine
 10
504.58173
 20
1338.7
 30
0.0
 11
508.6102959999999
 21
1338.7
 31
0.0
  0
LINE
  5
319
330
228
100
AcDbEntity
  8
LC-001-002-----0
 62
     7
370
    35
100
AcDbLine
 10
504.594895
 20
1338.8
 30
0.0
 11
508.5971309999999
 21
1338.8
 31
0.0
  0
LINE
  5
31A
330
228
100
AcDbEntity
  8
LC-001-002-----0
 62
     7
370
    35
100
AcDbLine
 10
504.6080599999999
 20
1338.9
 30
0.0
 11
508.583966
 21
1338.9
 31
0.0
  0
LINE
  5
31B
330
228
100
AcDbEntity
  8
LC-001-002-----0
 62
     7
370
    35
100
AcDbLine
 10
504.6212249999999
 20
1339.0
 30
0.0
 11
508.5708
 21
1339.0
 31
0.0
  0
LINE
  5
31C
330
228
100
AcDbEntity
  8
LC-001-002-----0
 62
     7
370
    35
100
AcDbLine
 10
504.634391
 20
1339.1
 30
0.0
 11
508.5576349999999
 21
1339.1
 31
0.0
  0
LINE
  5
31D
330
228
100
AcDbEntity
  8
LC-001-002-----0
 62
     7
370
    35
100
AcDbLine
 10
504.6475559999999
 20
1339.2
 30
0.0
 11
508.54447
 21
1339.2
 31
0.0
  0
LINE
  5
31E
330
228
100
AcDbEntity
  8
LC-001-002-----0
 62
     7
370
    35
100
AcDbLine
 10
504.660721
 20
1339.3
 30
0.0
 11
508.5313049999999
 21
1339.3
 31
0.0
  0
LINE
  5
31F
330
228
100
AcDbEntity
  8
LC-001-002-----0
 62
     7
370
    35
100
AcDbLine
 10
504.673886
 20
1339.4
 30
0.0
 11
508.5181389999999
 21
1339.4
 31
0.0
  0
LINE
  5
320
330
228
100
AcDbEntity
  8
LC-001-002-----0
 62
     7
370
    35
100
AcDbLine
 10
504.6870519999999
 20
1339.5
 30
0.0
 11
508.504974
 21
1339.5
 31
0.0
  0
LINE
  5
321
330
228
100
AcDbEntity
  8
LC-001-002-----0
 62
     7
370
    35
100
AcDbLine
 10
504.7002169999999
 20
1339.6
 30
0.0
 11
508.491809
 21
1339.6
 31
0.0
  0
LINE
  5
322
330
228
100
AcDbEntity
  8
LC-001-002-----0
 62
     7
370
    35
100
AcDbLine
 10
504.7133819999999
 20
1339.7
 30
0.0
 11
508.478644
 21
1339.7
 31
0.0
  0
LINE
  5
323
330
228
100
AcDbEntity
  8
LC-001-002-----0
 62
     7
370
    35
100
AcDbLine
 10
504.726547
 20
1339.8
 30
0.0
 11
508.465478
 21
1339.8
 31
0.0
  0
LINE
  5
324
330
228
100
AcDbEntity
  8
LC-001-002-----0
 62
     7
370
    35
100
AcDbLine
 10
504.739713
 20
1339.9
 30
0.0
 11
508.452313
 21
1339.9
 31
0.0
  0
LINE
  5
325
330
228
100
AcDbEntity
  8
LC-001-002-----0
 62
     7
370
    35
100
AcDbLine
 10
504.752878
 20
1340.0
 30
0.0
 11
508.439148
 21
1340.0
 31
0.0
  0
LINE
  5
326
330
228
100
AcDbEntity
  8
LC-001-002-----0
 62
     7
370
    35
100
AcDbLine
 10
504.7660429999999
 20
1340.1
 30
0.0
 11
508.425983
 21
1340.1
 31
0.0
  0
LINE
  5
327
330
228
100
AcDbEntity
  8
LC-001-002-----0
 62
     7
370
    35
100
AcDbLine
 10
504.7792079999999
 20
1340.2
 30
0.0
 11
508.412817
 21
1340.2
 31
0.0
  0
LINE
  5
328
330
228
100
AcDbEntity
  8
LC-001-002-----0
 62
     7
370
    35
100
AcDbLine
 10
504.7923739999999
 20
1340.3
 30
0.0
 11
508.3996519999999
 21
1340.3
 31
0.0
  0
LINE
  5
329
330
228
100
AcDbEntity
  8
LC-001-002-----0
 62
     7
370
    35
100
AcDbLine
 10
504.805539
 20
1340.4
 30
0.0
 11
508.386487
 21
1340.4
 31
0.0
  0
LINE
  5
32A
330
228
100
AcDbEntity
  8
LC-001-002-----0
 62
     7
370
    35
100
AcDbLine
 10
504.818704
 20
1340.5
 30
0.0
 11
508.373322
 21
1340.5
 31
0.0
  0
LINE
  5
32B
330
228
100
AcDbEntity
  8
LC-001-002-----0
 62
     7
370
    35
100
AcDbLine
 10
504.831869
 20
1340.6
 30
0.0
 11
508.3601559999999
 21
1340.6
 31
0.0
  0
LINE
  5
32C
330
228
100
AcDbEntity
  8
LC-001-002-----0
 62
     7
370
    35
100
AcDbLine
 10
504.8450349999999
 20
1340.7
 30
0.0
 11
508.3469909999999
 21
1340.7
 31
0.0
  0
LINE
  5
32D
330
228
100
AcDbEntity
  8
LC-001-002-----0
 62
     7
370
    35
100
AcDbLine
 10
504.8582
 20
1340.8
 30
0.0
 11
508.3338259999999
 21
1340.8
 31
0.0
  0
LINE
  5
32E
330
228
100
AcDbEntity
  8
LC-001-002-----0
 62
     7
370
    35
100
AcDbLine
 10
504.871365
 20
1340.9
 30
0.0
 11
508.320661
 21
1340.9
 31
0.0
  0
LINE
  5
32F
330
228
100
AcDbEntity
  8
LC-001-002-----0
 62
     7
370
    35
100
AcDbLine
 10
504.8845299999999
 20
1341.0
 30
0.0
 11
508.307495
 21
1341.0
 31
0.0
  0
LINE
  5
330
330
228
100
AcDbEntity
  8
LC-001-002-----0
 62
     7
370
    35
100
AcDbLine
 10
504.897696
 20
1341.1
 30
0.0
 11
508.29433
 21
1341.1
 31
0.0
  0
LINE
  5
331
330
228
100
AcDbEntity
  8
LC-001-002-----0
 62
     7
370
    35
100
AcDbLine
 10
504.910861
 20
1341.2
 30
0.0
 11
508.281165
 21
1341.2
 31
0.0
  0
LINE
  5
332
330
228
100
AcDbEntity
  8
LC-001-002-----0
 62
     7
370
    35
100
AcDbLine
 10
504.9240259999999
 20
1341.3
 30
0.0
 11
508.268
 21
1341.3
 31
0.0
  0
LINE
  5
333
330
228
100
AcDbEntity
  8
LC-001-002-----0
 62
     7
370
    35
100
AcDbLine
 10
504.937191
 20
1341.4
 30
0.0
 11
508.2548339999999
 21
1341.4
 31
0.0
  0
LINE
  5
334
330
228
100
AcDbEntity
  8
LC-001-002-----0
 62
     7
370
    35
100
AcDbLine
 10
504.950357
 20
1341.5
 30
0.0
 11
508.241669
 21
1341.5
 31
0.0
  0
LINE
  5
335
330
228
100
AcDbEntity
  8
LC-001-002-----0
 62
     7
370
    35
100
AcDbLine
 10
504.9635219999999
 20
1341.6
 30
0.0
 11
508.228504
 21
1341.6
 31
0.0
  0
LINE
  5
336
330
228
100
AcDbEntity
  8
LC-001-002-----0
 62
     7
370
    35
100
AcDbLine
 10
504.976687
 20
1341.7
 30
0.0
 11
508.215339
 21
1341.7
 31
0.0
  0
LINE
  5
337
330
228
100
AcDbEntity
  8
LC-001-002-----0
 62
     7
370
    35
100
AcDbLine
 10
504.9898519999999
 20
1341.8
 30
0.0
 11
508.2021730000001
 21
1341.8
 31
0.0
  0
LINE
  5
338
330
228
100
AcDbEntity
  8
LC-001-002-----0
 62
     7
370
    35
100
AcDbLine
 10
505.003018
 20
1341.9
 30
0.0
 11
508.1890079999999
 21
1341.9
 31
0.0
  0
LINE
  5
339
330
228
100
AcDbEntity
  8
LC-001-002-----0
 62
     7
370
    35
100
AcDbLine
 10
505.016183
 20
1342.0
 30
0.0
 11
508.1758429999999
 21
1342.0
 31
0.0
  0
LINE
  5
33A
330
228
100
AcDbEntity
  8
LC-001-002-----0
 62
     7
370
    35
100
AcDbLine
 10
505.029348
 20
1342.1
 30
0.0
 11
508.162678
 21
1342.1
 31
0.0
  0
LINE
  5
33B
330
228
100
AcDbEntity
  8
LC-001-002-----0
 62
     7
370
    35
100
AcDbLine
 10
505.0425129999999
 20
1342.2
 30
0.0
 11
508.149512
 21
1342.2
 31
0.0
  0
LINE
  5
33C
330
228
100
AcDbEntity
  8
LC-001-002-----0
 62
     7
370
    35
100
AcDbLine
 10
505.0556789999999
 20
1342.3
 30
0.0
 11
508.136347
 21
1342.3
 31
0.0
  0
LINE
  5
33D
330
228
100
AcDbEntity
  8
LC-001-002-----0
 62
     7
370
    35
100
AcDbLine
 10
505.068844
 20
1342.4
 30
0.0
 11
508.123182
 21
1342.4
 31
0.0
  0
LINE
  5
33E
330
228
100
AcDbEntity
  8
LC-001-002-----0
 62
     7
370
    35
100
AcDbLine
 10
505.082009
 20
1342.5
 30
0.0
 11
508.110017
 21
1342.5
 31
0.0
  0
LINE
  5
33F
330
228
100
AcDbEntity
  8
LC-001-002-----0
 62
     7
370
    35
100
AcDbLine
 10
505.095174
 20
1342.6
 30
0.0
 11
508.0968509999999
 21
1342.6
 31
0.0
  0
LINE
  5
340
330
228
100
AcDbEntity
  8
LC-001-002-----0
 62
     7
370
    35
100
AcDbLine
 10
505.10834
 20
1342.7
 30
0.0
 11
508.083686
 21
1342.7
 31
0.0
  0
LINE
  5
341
330
228
100
AcDbEntity
  8
LC-001-002-----0
 62
     7
370
    35
100
AcDbLine
 10
505.1215049999999
 20
1342.8
 30
0.0
 11
508.0705209999999
 21
1342.8
 31
0.0
  0
LINE
  5
342
330
228
100
AcDbEntity
  8
LC-001-002-----0
 62
     7
370
    35
100
AcDbLine
 10
505.13467
 20
1342.9
 30
0.0
 11
508.0573559999999
 21
1342.9
 31
0.0
  0
LINE
  5
343
330
228
100
AcDbEntity
  8
LC-001-002-----0
 62
     7
370
    35
100
AcDbLine
 10
505.147835
 20
1343.0
 30
0.0
 11
508.04419
 21
1343.0
 31
0.0
  0
LINE
  5
344
330
228
100
AcDbEntity
  8
LC-001-002-----0
 62
     7
370
    35
100
AcDbLine
 10
505.161001
 20
1343.1
 30
0.0
 11
508.031025
 21
1343.1
 31
0.0
  0
LINE
  5
345
330
228
100
AcDbEntity
  8
LC-001-002-----0
 62
     7
370
    35
100
AcDbLine
 10
505.174166
 20
1343.2
 30
0.0
 11
508.0178599999999
 21
1343.2
 31
0.0
  0
LINE
  5
346
330
228
100
AcDbEntity
  8
LC-001-002-----0
 62
     7
370
    35
100
AcDbLine
 10
505.1873309999999
 20
1343.3
 30
0.0
 11
508.004695
 21
1343.3
 31
0.0
  0
LINE
  5
347
330
228
100
AcDbEntity
  8
LC-001-002-----0
 62
     7
370
    35
100
AcDbLine
 10
505.2004959999999
 20
1343.4
 30
0.0
 11
507.991529
 21
1343.4
 31
0.0
  0
LINE
  5
348
330
228
100
AcDbEntity
  8
LC-001-002-----0
 62
     7
370
    35
100
AcDbLine
 10
505.2136619999999
 20
1343.5
 30
0.0
 11
507.9783639999999
 21
1343.5
 31
0.0
  0
LINE
  5
349
330
228
100
AcDbEntity
  8
LC-001-002-----0
 62
     7
370
    35
100
AcDbLine
 10
505.2268269999999
 20
1343.6
 30
0.0
 11
507.965199
 21
1343.6
 31
0.0
  0
LINE
  5
34A
330
228
100
AcDbEntity
  8
LC-001-002-----0
 62
     7
370
    35
100
AcDbLine
 10
505.239992
 20
1343.7
 30
0.0
 11
507.952034
 21
1343.7
 31
0.0
  0
LINE
  5
34B
330
228
100
AcDbEntity
  8
LC-001-002-----0
 62
     7
370
    35
100
AcDbLine
 10
505.253157
 20
1343.8
 30
0.0
 11
507.938868
 21
1343.8
 31
0.0
  0
LINE
  5
34C
330
228
100
AcDbEntity
  8
LC-001-002-----0
 62
     7
370
    35
100
AcDbLine
 10
505.266323
 20
1343.9
 30
0.0
 11
507.9257029999999
 21
1343.9
 31
0.0
  0
LINE
  5
34D
330
228
100
AcDbEntity
  8
LC-001-002-----0
 62
     7
370
    35
100
AcDbLine
 10
505.279488
 20
1344.0
 30
0.0
 11
507.9125379999999
 21
1344.0
 31
0.0
  0
LINE
  5
34E
330
228
100
AcDbEntity
  8
LC-001-002-----0
 62
     7
370
    35
100
AcDbLine
 10
505.292653
 20
1344.1
 30
0.0
 11
507.899373
 21
1344.1
 31
0.0
  0
LINE
  5
34F
330
228
100
AcDbEntity
  8
LC-001-002-----0
 62
     7
370
    35
100
AcDbLine
 10
505.3058179999999
 20
1344.2
 30
0.0
 11
507.886207
 21
1344.2
 31
0.0
  0
LINE
  5
350
330
228
100
AcDbEntity
  8
LC-001-002-----0
 62
     7
370
    35
100
AcDbLine
 10
505.3189839999999
 20
1344.3
 30
0.0
 11
507.873042
 21
1344.3
 31
0.0
  0
LINE
  5
351
330
228
100
AcDbEntity
  8
LC-001-002-----0
 62
     7
370
    35
100
AcDbLine
 10
505.332149
 20
1344.4
 30
0.0
 11
507.859877
 21
1344.4
 31
0.0
  0
LINE
  5
352
330
228
100
AcDbEntity
  8
LC-001-002-----0
 62
     7
370
    35
100
AcDbLine
 10
505.345314
 20
1344.5
 30
0.0
 11
507.846712
 21
1344.5
 31
0.0
  0
LINE
  5
353
330
228
100
AcDbEntity
  8
LC-001-002-----0
 62
     7
370
    35
100
AcDbLine
 10
505.358479
 20
1344.6
 30
0.0
 11
507.8335459999999
 21
1344.6
 31
0.0
  0
LINE
  5
354
330
228
100
AcDbEntity
  8
LC-001-002-----0
 62
     7
370
    35
100
AcDbLine
 10
505.371645
 20
1344.7
 30
0.0
 11
507.8203809999999
 21
1344.7
 31
0.0
  0
LINE
  5
355
330
228
100
AcDbEntity
  8
LC-001-002-----0
 62
     7
370
    35
100
AcDbLine
 10
505.3848099999999
 20
1344.8
 30
0.0
 11
507.807216
 21
1344.8
 31
0.0
  0
LINE
  5
356
330
228
100
AcDbEntity
  8
LC-001-002-----0
 62
     7
370
    35
100
AcDbLine
 10
505.3979749999999
 20
1344.9
 30
0.0
 11
507.7940509999999
 21
1344.9
 31
0.0
  0
LINE
  5
357
330
228
100
AcDbEntity
  8
LC-001-002-----0
 62
     7
370
    35
100
AcDbLine
 10
505.41114
 20
1345.0
 30
0.0
 11
507.7808849999999
 21
1345.0
 31
0.0
  0
LINE
  5
358
330
228
100
AcDbEntity
  8
LC-001-002-----0
 62
     7
370
    35
100
AcDbLine
 10
505.4243059999999
 20
1345.1
 30
0.0
 11
507.76772
 21
1345.1
 31
0.0
  0
LINE
  5
359
330
228
100
AcDbEntity
  8
LC-001-002-----0
 62
     7
370
    35
100
AcDbLine
 10
505.437471
 20
1345.2
 30
0.0
 11
507.7545549999999
 21
1345.2
 31
0.0
  0
LINE
  5
35A
330
228
100
AcDbEntity
  8
LC-001-002-----0
 62
     7
370
    35
100
AcDbLine
 10
505.450636
 20
1345.3
 30
0.0
 11
507.74139
 21
1345.3
 31
0.0
  0
LINE
  5
35B
330
228
100
AcDbEntity
  8
LC-001-002-----0
 62
     7
370
    35
100
AcDbLine
 10
505.4638009999999
 20
1345.4
 30
0.0
 11
507.728224
 21
1345.4
 31
0.0
  0
LINE
  5
35C
330
228
100
AcDbEntity
  8
LC-001-002-----0
 62
     7
370
    35
100
AcDbLine
 10
505.4769669999999
 20
1345.5
 30
0.0
 11
507.715059
 21
1345.5
 31
0.0
  0
LINE
  5
35D
330
228
100
AcDbEntity
  8
LC-001-002-----0
 62
     7
370
    35
100
AcDbLine
 10
505.4901319999999
 20
1345.6
 30
0.0
 11
507.701894
 21
1345.6
 31
0.0
  0
LINE
  5
35E
330
228
100
AcDbEntity
  8
LC-001-002-----0
 62
     7
370
    35
100
AcDbLine
 10
505.503297
 20
1345.7
 30
0.0
 11
507.688729
 21
1345.7
 31
0.0
  0
LINE
  5
35F
330
228
100
AcDbEntity
  8
LC-001-002-----0
 62
     7
370
    35
100
AcDbLine
 10
505.516462
 20
1345.8
 30
0.0
 11
507.675563
 21
1345.8
 31
0.0
  0
LINE
  5
360
330
228
100
AcDbEntity
  8
LC-001-002-----0
 62
     7
370
    35
100
AcDbLine
 10
505.529628
 20
1345.9
 30
0.0
 11
507.662398
 21
1345.9
 31
0.0
  0
LINE
  5
361
330
228
100
AcDbEntity
  8
LC-001-002-----0
 62
     7
370
    35
100
AcDbLine
 10
505.5427929999999
 20
1346.0
 30
0.0
 11
507.6492329999999
 21
1346.0
 31
0.0
  0
LINE
  5
362
330
228
100
AcDbEntity
  8
LC-001-002-----0
 62
     7
370
    35
100
AcDbLine
 10
505.555958
 20
1346.1
 30
0.0
 11
507.6360679999999
 21
1346.1
 31
0.0
  0
LINE
  5
363
330
228
100
AcDbEntity
  8
LC-001-002-----0
 62
     7
370
    35
100
AcDbLine
 10
505.569123
 20
1346.2
 30
0.0
 11
507.6229019999999
 21
1346.2
 31
0.0
  0
LINE
  5
364
330
228
100
AcDbEntity
  8
LC-001-002-----0
 62
     7
370
    35
100
AcDbLine
 10
505.5822889999999
 20
1346.3
 30
0.0
 11
507.609737
 21
1346.3
 31
0.0
  0
LINE
  5
365
330
228
100
AcDbEntity
  8
LC-001-002-----0
 62
     7
370
    35
100
AcDbLine
 10
505.595454
 20
1346.4
 30
0.0
 11
507.596572
 21
1346.4
 31
0.0
  0
LINE
  5
366
330
228
100
AcDbEntity
  8
LC-001-002-----0
 62
     7
370
    35
100
AcDbLine
 10
505.608619
 20
1346.5
 30
0.0
 11
507.5834069999999
 21
1346.5
 31
0.0
  0
LINE
  5
367
330
228
100
AcDbEntity
  8
LC-001-002-----0
 62
     7
370
    35
100
AcDbLine
 10
505.621784
 20
1346.6
 30
0.0
 11
507.5702409999999
 21
1346.6
 31
0.0
  0
LINE
  5
368
330
228
100
AcDbEntity
  8
LC-001-002-----0
 62
     7
370
    35
100
AcDbLine
 10
505.63495
 20
1346.7
 30
0.0
 11
507.5570759999999
 21
1346.7
 31
0.0
  0
LINE
  5
369
330
228
100
AcDbEntity
  8
LC-001-002-----0
 62
     7
370
    35
100
AcDbLine
 10
505.648115
 20
1346.8
 30
0.0
 11
507.543911
 21
1346.8
 31
0.0
  0
LINE
  5
36A
330
228
100
AcDbEntity
  8
LC-001-002-----0
 62
     7
370
    35
100
AcDbLine
 10
505.6612799999999
 20
1346.9
 30
0.0
 11
507.530746
 21
1346.9
 31
0.0
  0
LINE
  5
36B
330
228
100
AcDbEntity
  8
LC-001-002-----0
 62
     7
370
    35
100
AcDbLine
 10
505.674445
 20
1347.0
 30
0.0
 11
507.51758
 21
1347.0
 31
0.0
  0
LINE
  5
36C
330
228
100
AcDbEntity
  8
LC-001-002-----0
 62
     7
370
    35
100
AcDbLine
 10
505.6876110000001
 20
1347.1
 30
0.0
 11
507.504415
 21
1347.1
 31
0.0
  0
LINE
  5
36D
330
228
100
AcDbEntity
  8
LC-001-002-----0
 62
     7
370
    35
100
AcDbLine
 10
505.7007759999999
 20
1347.2
 30
0.0
 11
507.4912499999999
 21
1347.2
 31
0.0
  0
LINE
  5
36E
330
228
100
AcDbEntity
  8
LC-001-002-----0
 62
     7
370
    35
100
AcDbLine
 10
505.713941
 20
1347.3
 30
0.0
 11
507.4780849999999
 21
1347.3
 31
0.0
  0
LINE
  5
36F
330
228
100
AcDbEntity
  8
LC-001-002-----0
 62
     7
370
    35
100
AcDbLine
 10
505.7271059999999
 20
1347.4
 30
0.0
 11
507.464919
 21
1347.4
 31
0.0
  0
LINE
  5
370
330
228
100
AcDbEntity
  8
LC-001-002-----0
 62
     7
370
    35
100
AcDbLine
 10
505.7402719999999
 20
1347.5
 30
0.0
 11
507.451754
 21
1347.5
 31
0.0
  0
LINE
  5
371
330
228
100
AcDbEntity
  8
LC-001-002-----0
 62
     7
370
    35
100
AcDbLine
 10
505.7534369999999
 20
1347.6
 30
0.0
 11
507.438589
 21
1347.6
 31
0.0
  0
LINE
  5
372
330
228
100
AcDbEntity
  8
LC-001-002-----0
 62
     7
370
    35
100
AcDbLine
 10
505.766602
 20
1347.7
 30
0.0
 11
507.425424
 21
1347.7
 31
0.0
  0
LINE
  5
373
330
228
100
AcDbEntity
  8
LC-001-002-----0
 62
     7
370
    35
100
AcDbLine
 10
505.779767
 20
1347.8
 30
0.0
 11
507.412258
 21
1347.8
 31
0.0
  0
LINE
  5
374
330
228
100
AcDbEntity
  8
LC-001-002-----0
 62
     7
370
    35
100
AcDbLine
 10
505.792933
 20
1347.9
 30
0.0
 11
507.3990929999999
 21
1347.9
 31
0.0
  0
LINE
  5
375
330
228
100
AcDbEntity
  8
LC-001-002-----0
 62
     7
370
    35
100
AcDbLine
 10
505.806098
 20
1348.0
 30
0.0
 11
507.385928
 21
1348.0
 31
0.0
  0
LINE
  5
376
330
228
100
AcDbEntity
  8
LC-001-002-----0
 62
     7
370
    35
100
AcDbLine
 10
505.8192629999999
 20
1348.1
 30
0.0
 11
507.3727629999999
 21
1348.1
 31
0.0
  0
LINE
  5
377
330
228
100
AcDbEntity
  8
LC-001-002-----0
 62
     7
370
    35
100
AcDbLine
 10
505.832428
 20
1348.2
 30
0.0
 11
507.3595969999999
 21
1348.2
 31
0.0
  0
LINE
  5
378
330
228
100
AcDbEntity
  8
LC-001-002-----0
 62
     7
370
    35
100
AcDbLine
 10
505.845594
 20
1348.3
 30
0.0
 11
507.346432
 21
1348.3
 31
0.0
  0
LINE
  5
379
330
228
100
AcDbEntity
  8
LC-001-002-----0
 62
     7
370
    35
100
AcDbLine
 10
505.858759
 20
1348.4
 30
0.0
 11
507.333267
 21
1348.4
 31
0.0
  0
LINE
  5
37A
330
228
100
AcDbEntity
  8
LC-001-002-----0
 62
     7
370
    35
100
AcDbLine
 10
505.871924
 20
1348.5
 30
0.0
 11
507.3201019999999
 21
1348.5
 31
0.0
  0
LINE
  5
37B
330
228
100
AcDbEntity
  8
LC-001-002-----0
 62
     7
370
    35
100
AcDbLine
 10
505.885089
 20
1348.6
 30
0.0
 11
507.3069359999999
 21
1348.6
 31
0.0
  0
LINE
  5
37C
330
228
100
AcDbEntity
  8
LC-001-002-----0
 62
     7
370
    35
100
AcDbLine
 10
505.898255
 20
1348.7
 30
0.0
 11
507.2937709999999
 21
1348.7
 31
0.0
  0
LINE
  5
37D
330
228
100
AcDbEntity
  8
LC-001-002-----0
 62
     7
370
    35
100
AcDbLine
 10
505.91142
 20
1348.8
 30
0.0
 11
507.2806059999999
 21
1348.8
 31
0.0
  0
LINE
  5
37E
330
228
100
AcDbEntity
  8
LC-001-002-----0
 62
     7
370
    35
100
AcDbLine
 10
505.9245849999999
 20
1348.9
 30
0.0
 11
507.267441
 21
1348.9
 31
0.0
  0
LINE
  5
37F
330
228
100
AcDbEntity
  8
LC-001-002-----0
 62
     7
370
    35
100
AcDbLine
 10
505.93775
 20
1349.0
 30
0.0
 11
507.254275
 21
1349.0
 31
0.0
  0
LINE
  5
380
330
228
100
AcDbEntity
  8
LC-001-002-----0
 62
     7
370
    35
100
AcDbLine
 10
505.950916
 20
1349.1
 30
0.0
 11
507.2411099999999
 21
1349.1
 31
0.0
  0
LINE
  5
381
330
228
100
AcDbEntity
  8
LC-001-002-----0
 62
     7
370
    35
100
AcDbLine
 10
505.9640809999999
 20
1349.2
 30
0.0
 11
507.227945
 21
1349.2
 31
0.0
  0
LINE
  5
382
330
228
100
AcDbEntity
  8
LC-001-002-----0
 62
     7
370
    35
100
AcDbLine
 10
505.9772459999999
 20
1349.3
 30
0.0
 11
507.2147799999999
 21
1349.3
 31
0.0
  0
LINE
  5
383
330
228
100
AcDbEntity
  8
LC-001-002-----0
 62
     7
370
    35
100
AcDbLine
 10
505.990411
 20
1349.4
 30
0.0
 11
507.2016139999999
 21
1349.4
 31
0.0
  0
LINE
  5
384
330
228
100
AcDbEntity
  8
LC-001-002-----0
 62
     7
370
    35
100
AcDbLine
 10
506.0035769999999
 20
1349.5
 30
0.0
 11
507.188449
 21
1349.5
 31
0.0
  0
LINE
  5
385
330
228
100
AcDbEntity
  8
LC-001-002-----0
 62
     7
370
    35
100
AcDbLine
 10
506.0167419999999
 20
1349.6
 30
0.0
 11
507.175284
 21
1349.6
 31
0.0
  0
LINE
  5
386
330
228
100
AcDbEntity
  8
LC-001-002-----0
 62
     7
370
    35
100
AcDbLine
 10
506.029907
 20
1349.7
 30
0.0
 11
507.162119
 21
1349.7
 31
0.0
  0
LINE
  5
387
330
228
100
AcDbEntity
  8
LC-001-002-----0
 62
     7
370
    35
100
AcDbLine
 10
506.043072
 20
1349.8
 30
0.0
 11
507.148953
 21
1349.8
 31
0.0
  0
LINE
  5
388
330
228
100
AcDbEntity
  8
LC-001-002-----0
 62
     7
370
    35
100
AcDbLine
 10
506.056238
 20
1349.9
 30
0.0
 11
507.1357879999999
 21
1349.9
 31
0.0
  0
LINE
  5
389
330
228
100
AcDbEntity
  8
LC-001-002-----0
 62
     7
370
    35
100
AcDbLine
 10
506.069403
 20
1350.0
 30
0.0
 11
507.122623
 21
1350.0
 31
0.0
  0
LINE
  5
38A
330
228
100
AcDbEntity
  8
LC-001-002-----0
 62
     7
370
    35
100
AcDbLine
 10
506.0825679999999
 20
1350.1
 30
0.0
 11
507.109458
 21
1350.1
 31
0.0
  0
LINE
  5
38B
330
228
100
AcDbEntity
  8
LC-001-002-----0
 62
     7
370
    35
100
AcDbLine
 10
506.0957329999999
 20
1350.2
 30
0.0
 11
507.096292
 21
1350.2
 31
0.0
  0
LINE
  5
38C
330
228
100
AcDbEntity
  8
LC-001-002-----0
 62
     7
370
    35
100
AcDbLine
 10
506.108899
 20
1350.3
 30
0.0
 11
507.0831269999999
 21
1350.3
 31
0.0
  0
LINE
  5
38D
330
228
100
AcDbEntity
  8
LC-001-002-----0
 62
     7
370
    35
100
AcDbLine
 10
506.122064
 20
1350.4
 30
0.0
 11
507.069962
 21
1350.4
 31
0.0
  0
LINE
  5
38E
330
228
100
AcDbEntity
  8
LC-001-002-----0
 62
     7
370
    35
100
AcDbLine
 10
506.135229
 20
1350.5
 30
0.0
 11
507.0567969999999
 21
1350.5
 31
0.0
  0
LINE
  5
38F
330
228
100
AcDbEntity
  8
LC-001-002-----0
 62
     7
370
    35
100
AcDbLine
 10
506.148394
 20
1350.6
 30
0.0
 11
507.0436309999999
 21
1350.6
 31
0.0
  0
LINE
  5
390
330
228
100
AcDbEntity
  8
LC-001-002-----0
 62
     7
370
    35
100
AcDbLine
 10
506.1615599999999
 20
1350.7
 30
0.0
 11
507.0304659999999
 21
1350.7
 31
0.0
  0
LINE
  5
391
330
228
100
AcDbEntity
  8
LC-001-002-----0
 62
     7
370
    35
100
AcDbLine
 10
506.174725
 20
1350.8
 30
0.0
 11
507.0173009999999
 21
1350.8
 31
0.0
  0
LINE
  5
392
330
228
100
AcDbEntity
  8
LC-001-002-----0
 62
     7
370
    35
100
AcDbLine
 10
506.18789
 20
1350.9
 30
0.0
 11
507.004136
 21
1350.9
 31
0.0
  0
LINE
  5
393
330
228
100
AcDbEntity
  8
LC-001-002-----0
 62
     7
370
    35
100
AcDbLine
 10
506.201055
 20
1351.0
 30
0.0
 11
506.99097
 21
1351.0
 31
0.0
  0
LINE
  5
394
330
228
100
AcDbEntity
  8
LC-001-002-----0
 62
     7
370
    35
100
AcDbLine
 10
506.214221
 20
1351.1
 30
0.0
 11
506.977805
 21
1351.1
 31
0.0
  0
LINE
  5
395
330
228
100
AcDbEntity
  8
LC-001-002-----0
 62
     7
370
    35
100
AcDbLine
 10
506.227386
 20
1351.2
 30
0.0
 11
506.96464
 21
1351.2
 31
0.0
  0
LINE
  5
396
330
228
100
AcDbEntity
  8
LC-001-002-----0
 62
     7
370
    35
100
AcDbLine
 10
506.2405509999999
 20
1351.3
 30
0.0
 11
506.951475
 21
1351.3
 31
0.0
  0
LINE
  5
397
330
228
100
AcDbEntity
  8
LC-001-002-----0
 62
     7
370
    35
100
AcDbLine
 10
506.2537159999999
 20
1351.4
 30
0.0
 11
506.938309
 21
1351.4
 31
0.0
  0
LINE
  5
398
330
228
100
AcDbEntity
  8
LC-001-002-----0
 62
     7
370
    35
100
AcDbLine
 10
506.2668819999999
 20
1351.5
 30
0.0
 11
506.925144
 21
1351.5
 31
0.0
  0
LINE
  5
399
330
228
100
AcDbEntity
  8
LC-001-002-----0
 62
     7
370
    35
100
AcDbLine
 10
506.2800469999999
 20
1351.6
 30
0.0
 11
506.911979
 21
1351.6
 31
0.0
  0
LINE
  5
39A
330
228
100
AcDbEntity
  8
LC-001-002-----0
 62
     7
370
    35
100
AcDbLine
 10
506.293212
 20
1351.7
 30
0.0
 11
506.898814
 21
1351.7
 31
0.0
  0
LINE
  5
39B
330
228
100
AcDbEntity
  8
LC-001-002-----0
 62
     7
370
    35
100
AcDbLine
 10
506.3063769999999
 20
1351.8
 30
0.0
 11
506.885648
 21
1351.8
 31
0.0
  0
LINE
  5
39C
330
228
100
AcDbEntity
  8
LC-001-002-----0
 62
     7
370
    35
100
AcDbLine
 10
506.3195429999999
 20
1351.9
 30
0.0
 11
506.8724829999999
 21
1351.9
 31
0.0
  0
LINE
  5
39D
330
228
100
AcDbEntity
  8
LC-001-002-----0
 62
     7
370
    35
100
AcDbLine
 10
506.332708
 20
1352.0
 30
0.0
 11
506.8593179999999
 21
1352.0
 31
0.0
  0
LINE
  5
39E
330
228
100
AcDbEntity
  8
LC-001-002-----0
 62
     7
370
    35
100
AcDbLine
 10
506.345873
 20
1352.1
 30
0.0
 11
506.846153
 21
1352.1
 31
0.0
  0
LINE
  5
39F
330
228
100
AcDbEntity
  8
LC-001-002-----0
 62
     7
370
    35
100
AcDbLine
 10
506.3590379999999
 20
1352.2
 30
0.0
 11
506.832987
 21
1352.2
 31
0.0
  0
LINE
  5
3A0
330
228
100
AcDbEntity
  8
LC-001-002-----0
 62
     7
370
    35
100
AcDbLine
 10
506.372204
 20
1352.3
 30
0.0
 11
506.819822
 21
1352.3
 31
0.0
  0
LINE
  5
3A1
330
228
100
AcDbEntity
  8
LC-001-002-----0
 62
     7
370
    35
100
AcDbLine
 10
506.385369
 20
1352.4
 30
0.0
 11
506.806657
 21
1352.4
 31
0.0
  0
LINE
  5
3A2
330
228
100
AcDbEntity
  8
LC-001-002-----0
 62
     7
370
    35
100
AcDbLine
 10
506.398534
 20
1352.5
 30
0.0
 11
506.7934919999999
 21
1352.5
 31
0.0
  0
LINE
  5
3A3
330
228
100
AcDbEntity
  8
LC-001-002-----0
 62
     7
370
    35
100
AcDbLine
 10
506.411699
 20
1352.6
 30
0.0
 11
506.7803259999999
 21
1352.6
 31
0.0
  0
LINE
  5
3A4
330
228
100
AcDbEntity
  8
LC-001-002-----0
 62
     7
370
    35
100
AcDbLine
 10
506.424865
 20
1352.7
 30
0.0
 11
506.767161
 21
1352.7
 31
0.0
  0
LINE
  5
3A5
330
228
100
AcDbEntity
  8
LC-001-002-----0
 62
     7
370
    35
100
AcDbLine
 10
506.4380299999999
 20
1352.8
 30
0.0
 11
506.7539959999999
 21
1352.8
 31
0.0
  0
LINE
  5
3A6
330
228
100
AcDbEntity
  8
LC-001-002-----0
 62
     7
370
    35
100
AcDbLine
 10
506.451195
 20
1352.9
 30
0.0
 11
506.7408309999999
 21
1352.9
 31
0.0
  0
LINE
  5
3A7
330
228
100
AcDbEntity
  8
LC-001-002-----0
 62
     7
370
    35
100
AcDbLine
 10
506.4643599999999
 20
1353.0
 30
0.0
 11
506.7276650000001
 21
1353.0
 31
0.0
  0
LINE
  5
3A8
330
228
100
AcDbEntity
  8
LC-001-002-----0
 62
     7
370
    35
100
AcDbLine
 10
506.4775259999999
 20
1353.1
 30
0.0
 11
506.7145
 21
1353.1
 31
0.0
  0
LINE
  5
3A9
330
228
100
AcDbEntity
  8
LC-001-002-----0
 62
     7
370
    35
100
AcDbLine
 10
506.490691
 20
1353.2
 30
0.0
 11
506.7013349999999
 21
1353.2
 31
0.0
  0
LINE
  5
3AA
330
228
100
AcDbEntity
  8
LC-001-002-----0
 62
     7
370
    35
100
AcDbLine
 10
506.5038559999999
 20
1353.3
 30
0.0
 11
506.68817
 21
1353.3
 31
0.0
  0
LINE
  5
3AB
330
228
100
AcDbEntity
  8
LC-001-002-----0
 62
     7
370
    35
100
AcDbLine
 10
506.5170209999999
 20
1353.4
 30
0.0
 11
506.675004
 21
1353.4
 31
0.0
  0
LINE
  5
3AC
330
228
100
AcDbEntity
  8
LC-001-002-----0
 62
     7
370
    35
100
AcDbLine
 10
506.5301869999999
 20
1353.5
 30
0.0
 11
506.661839
 21
1353.5
 31
0.0
  0
LINE
  5
3AD
330
228
100
AcDbEntity
  8
LC-001-002-----0
 62
     7
370
    35
100
AcDbLine
 10
506.543352
 20
1353.6
 30
0.0
 11
506.648674
 21
1353.6
 31
0.0
  0
LINE
  5
3AE
330
228
100
AcDbEntity
  8
LC-001-002-----0
 62
     7
370
    35
100
AcDbLine
 10
506.556517
 20
1353.7
 30
0.0
 11
506.635509
 21
1353.7
 31
0.0
  0
LINE
  5
3AF
330
228
100
AcDbEntity
  8
LC-001-002-----0
 62
     7
370
    35
100
AcDbLine
 10
506.569682
 20
1353.8
 30
0.0
 11
506.6223429999999
 21
1353.8
 31
0.0
  0
LINE
  5
3B0
330
228
100
AcDbEntity
  8
LC-001-002-----0
 62
     7
370
    35
100
AcDbLine
 10
506.582848
 20
1353.9
 30
0.0
 11
506.609178
 21
1353.9
 31
0.0
  0
ENDBLK
  5
22A
330
228
100
AcDbEntity
  8
0
100
AcDbBlockEnd
  0
BLOCK
  5
3B3
330
3B2
100
AcDbEntity
  8
0
100
AcDbBlockBegin
  2
*X16
 70
     1
 10
0.0
 20
0.0
 30
0.0
  3
*X16
  1

  4
*X6
  0
LINE
  5
3B5
330
3B2
100
AcDbEntity
  8
LC-001-002-----0
 62
     7
370
    35
100
AcDbLine
 10
566.5874579999999
 20
1249.9
 30
0.0
 11
566.857667
 21
1249.9
 31
0.0
  0
LINE
  5
3B6
330
3B2
100
AcDbEntity
  8
LC-001-002-----0
 62
     7
370
    35
100
AcDbLine
 10
566.5874579999999
 20
1250.0
 30
0.0
 11
567.617242
 21
1250.0
 31
0.0
  0
LINE
  5
3B7
330
3B2
100
AcDbEntity
  8
LC-001-002-----0
 62
     7
370
    35
100
AcDbLine
 10
566.5874579999999
 20
1250.1
 30
0.0
 11
568.3768169999999
 21
1250.1
 31
0.0
  0
LINE
  5
3B8
330
3B2
100
AcDbEntity
  8
LC-001-002-----0
 62
     7
370
    35
100
AcDbLine
 10
566.5874579999999
 20
1250.2
 30
0.0
 11
569.136393
 21
1250.2
 31
0.0
  0
LINE
  5
3B9
330
3B2
100
AcDbEntity
  8
LC-001-002-----0
 62
     7
370
    35
100
AcDbLine
 10
566.5874579999999
 20
1250.3
 30
0.0
 11
569.8959679999999
 21
1250.3
 31
0.0
  0
LINE
  5
3BA
330
3B2
100
AcDbEntity
  8
LC-001-002-----0
 62
     7
370
    35
100
AcDbLine
 10
566.5874579999999
 20
1250.4
 30
0.0
 11
570.655544
 21
1250.4
 31
0.0
  0
LINE
  5
3BB
330
3B2
100
AcDbEntity
  8
LC-001-002-----0
 62
     7
370
    35
100
AcDbLine
 10
566.5874579999999
 20
1250.5
 30
0.0
 11
571.4151189999999
 21
1250.5
 31
0.0
  0
LINE
  5
3BC
330
3B2
100
AcDbEntity
  8
LC-001-002-----0
 62
     7
370
    35
100
AcDbLine
 10
566.5874579999999
 20
1250.6
 30
0.0
 11
572.174694
 21
1250.6
 31
0.0
  0
LINE
  5
3BD
330
3B2
100
AcDbEntity
  8
LC-001-002-----0
 62
     7
370
    35
100
AcDbLine
 10
566.5874579999999
 20
1250.7
 30
0.0
 11
572.93427
 21
1250.7
 31
0.0
  0
LINE
  5
3BE
330
3B2
100
AcDbEntity
  8
LC-001-002-----0
 62
     7
370
    35
100
AcDbLine
 10
566.5874579999999
 20
1250.8
 30
0.0
 11
573.693845
 21
1250.8
 31
0.0
  0
LINE
  5
3BF
330
3B2
100
AcDbEntity
  8
LC-001-002-----0
 62
     7
370
    35
100
AcDbLine
 10
566.5874579999999
 20
1250.9
 30
0.0
 11
574.453421
 21
1250.9
 31
0.0
  0
LINE
  5
3C0
330
3B2
100
AcDbEntity
  8
LC-001-002-----0
 62
     7
370
    35
100
AcDbLine
 10
566.5874579999999
 20
1251.0
 30
0.0
 11
575.2129959999999
 21
1251.0
 31
0.0
  0
LINE
  5
3C1
330
3B2
100
AcDbEntity
  8
LC-001-002-----0
 62
     7
370
    35
100
AcDbLine
 10
566.5874579999999
 20
1251.1
 30
0.0
 11
575.972572
 21
1251.1
 31
0.0
  0
LINE
  5
3C2
330
3B2
100
AcDbEntity
  8
LC-001-002-----0
 62
     7
370
    35
100
AcDbLine
 10
566.5874579999999
 20
1251.2
 30
0.0
 11
576.7321469999999
 21
1251.2
 31
0.0
  0
LINE
  5
3C3
330
3B2
100
AcDbEntity
  8
LC-001-002-----0
 62
     7
370
    35
100
AcDbLine
 10
566.5874579999999
 20
1251.3
 30
0.0
 11
577.4917219999999
 21
1251.3
 31
0.0
  0
LINE
  5
3C4
330
3B2
100
AcDbEntity
  8
LC-001-002-----0
 62
     7
370
    35
100
AcDbLine
 10
566.5874579999999
 20
1251.4
 30
0.0
 11
578.2512979999999
 21
1251.4
 31
0.0
  0
LINE
  5
3C5
330
3B2
100
AcDbEntity
  8
LC-001-002-----0
 62
     7
370
    35
100
AcDbLine
 10
566.5874579999999
 20
1251.5
 30
0.0
 11
579.010873
 21
1251.5
 31
0.0
  0
LINE
  5
3C6
330
3B2
100
AcDbEntity
  8
LC-001-002-----0
 62
     7
370
    35
100
AcDbLine
 10
566.5874579999999
 20
1251.6
 30
0.0
 11
579.770449
 21
1251.6
 31
0.0
  0
LINE
  5
3C7
330
3B2
100
AcDbEntity
  8
LC-001-002-----0
 62
     7
370
    35
100
AcDbLine
 10
566.5874579999999
 20
1251.7
 30
0.0
 11
580.530024
 21
1251.7
 31
0.0
  0
LINE
  5
3C8
330
3B2
100
AcDbEntity
  8
LC-001-002-----0
 62
     7
370
    35
100
AcDbLine
 10
566.5874579999999
 20
1251.8
 30
0.0
 11
581.289599
 21
1251.8
 31
0.0
  0
LINE
  5
3C9
330
3B2
100
AcDbEntity
  8
LC-001-002-----0
 62
     7
370
    35
100
AcDbLine
 10
566.5874579999999
 20
1251.9
 30
0.0
 11
582.049175
 21
1251.9
 31
0.0
  0
LINE
  5
3CA
330
3B2
100
AcDbEntity
  8
LC-001-002-----0
 62
     7
370
    35
100
AcDbLine
 10
566.5874579999999
 20
1252.0
 30
0.0
 11
582.80875
 21
1252.0
 31
0.0
  0
LINE
  5
3CB
330
3B2
100
AcDbEntity
  8
LC-001-002-----0
 62
     7
370
    35
100
AcDbLine
 10
566.5874579999999
 20
1252.1
 30
0.0
 11
583.5683259999999
 21
1252.1
 31
0.0
  0
LINE
  5
3CC
330
3B2
100
AcDbEntity
  8
LC-001-002-----0
 62
     7
370
    35
100
AcDbLine
 10
566.5874579999999
 20
1252.2
 30
0.0
 11
584.3279009999999
 21
1252.2
 31
0.0
  0
LINE
  5
3CD
330
3B2
100
AcDbEntity
  8
LC-001-002-----0
 62
     7
370
    35
100
AcDbLine
 10
566.5874579999999
 20
1252.3
 30
0.0
 11
585.0874759999999
 21
1252.3
 31
0.0
  0
LINE
  5
3CE
330
3B2
100
AcDbEntity
  8
LC-001-002-----0
 62
     7
370
    35
100
AcDbLine
 10
566.5874579999999
 20
1252.4
 30
0.0
 11
585.847052
 21
1252.4
 31
0.0
  0
LINE
  5
3CF
330
3B2
100
AcDbEntity
  8
LC-001-002-----0
 62
     7
370
    35
100
AcDbLine
 10
566.5874579999999
 20
1252.5
 30
0.0
 11
586.606627
 21
1252.5
 31
0.0
  0
LINE
  5
3D0
330
3B2
100
AcDbEntity
  8
LC-001-002-----0
 62
     7
370
    35
100
AcDbLine
 10
566.5874579999999
 20
1252.6
 30
0.0
 11
587.366203
 21
1252.6
 31
0.0
  0
LINE
  5
3D1
330
3B2
100
AcDbEntity
  8
LC-001-002-----0
 62
     7
370
    35
100
AcDbLine
 10
566.5874579999999
 20
1252.7
 30
0.0
 11
588.1257780000001
 21
1252.7
 31
0.0
  0
LINE
  5
3D2
330
3B2
100
AcDbEntity
  8
LC-001-002-----0
 62
     7
370
    35
100
AcDbLine
 10
566.5874579999999
 20
1252.8
 30
0.0
 11
588.885354
 21
1252.8
 31
0.0
  0
LINE
  5
3D3
330
3B2
100
AcDbEntity
  8
LC-001-002-----0
 62
     7
370
    35
100
AcDbLine
 10
566.5874579999999
 20
1252.9
 30
0.0
 11
589.644929
 21
1252.9
 31
0.0
  0
LINE
  5
3D4
330
3B2
100
AcDbEntity
  8
LC-001-002-----0
 62
     7
370
    35
100
AcDbLine
 10
566.5874579999999
 20
1253.0
 30
0.0
 11
590.4045039999999
 21
1253.0
 31
0.0
  0
LINE
  5
3D5
330
3B2
100
AcDbEntity
  8
LC-001-002-----0
 62
     7
370
    35
100
AcDbLine
 10
566.5874579999999
 20
1253.1
 30
0.0
 11
591.1640799999999
 21
1253.1
 31
0.0
  0
LINE
  5
3D6
330
3B2
100
AcDbEntity
  8
LC-001-002-----0
 62
     7
370
    35
100
AcDbLine
 10
566.5874579999999
 20
1253.2
 30
0.0
 11
591.9236549999999
 21
1253.2
 31
0.0
  0
LINE
  5
3D7
330
3B2
100
AcDbEntity
  8
LC-001-002-----0
 62
     7
370
    35
100
AcDbLine
 10
566.5874579999999
 20
1253.3
 30
0.0
 11
592.6832309999999
 21
1253.3
 31
0.0
  0
LINE
  5
3D8
330
3B2
100
AcDbEntity
  8
LC-001-002-----0
 62
     7
370
    35
100
AcDbLine
 10
566.5874579999999
 20
1253.4
 30
0.0
 11
593.4428059999999
 21
1253.4
 31
0.0
  0
LINE
  5
3D9
330
3B2
100
AcDbEntity
  8
LC-001-002-----0
 62
     7
370
    35
100
AcDbLine
 10
566.5874579999999
 20
1253.5
 30
0.0
 11
594.2023809999999
 21
1253.5
 31
0.0
  0
LINE
  5
3DA
330
3B2
100
AcDbEntity
  8
LC-001-002-----0
 62
     7
370
    35
100
AcDbLine
 10
566.5874579999999
 20
1253.6
 30
0.0
 11
594.961957
 21
1253.6
 31
0.0
  0
LINE
  5
3DB
330
3B2
100
AcDbEntity
  8
LC-001-002-----0
 62
     7
370
    35
100
AcDbLine
 10
566.5874579999999
 20
1253.7
 30
0.0
 11
595.721532
 21
1253.7
 31
0.0
  0
LINE
  5
3DC
330
3B2
100
AcDbEntity
  8
LC-001-002-----0
 62
     7
370
    35
100
AcDbLine
 10
566.5874579999999
 20
1253.8
 30
0.0
 11
596.481108
 21
1253.8
 31
0.0
  0
LINE
  5
3DD
330
3B2
100
AcDbEntity
  8
LC-001-002-----0
 62
     7
370
    35
100
AcDbLine
 10
566.5874579999999
 20
1253.9
 30
0.0
 11
597.2406829999999
 21
1253.9
 31
0.0
  0
LINE
  5
3DE
330
3B2
100
AcDbEntity
  8
LC-001-002-----0
 62
     7
370
    35
100
AcDbLine
 10
566.5874579999999
 20
1254.0
 30
0.0
 11
598.000258
 21
1254.0
 31
0.0
  0
LINE
  5
3DF
330
3B2
100
AcDbEntity
  8
LC-001-002-----0
 62
     7
370
    35
100
AcDbLine
 10
566.5874579999999
 20
1254.1
 30
0.0
 11
598.7598339999999
 21
1254.1
 31
0.0
  0
LINE
  5
3E0
330
3B2
100
AcDbEntity
  8
LC-001-002-----0
 62
     7
370
    35
100
AcDbLine
 10
566.5874579999999
 20
1254.2
 30
0.0
 11
599.519409
 21
1254.2
 31
0.0
  0
LINE
  5
3E1
330
3B2
100
AcDbEntity
  8
LC-001-002-----0
 62
     7
370
    35
100
AcDbLine
 10
566.5874579999999
 20
1254.3
 30
0.0
 11
600.2789849999999
 21
1254.3
 31
0.0
  0
LINE
  5
3E2
330
3B2
100
AcDbEntity
  8
LC-001-002-----0
 62
     7
370
    35
100
AcDbLine
 10
566.5874579999999
 20
1254.4
 30
0.0
 11
601.0385599999999
 21
1254.4
 31
0.0
  0
LINE
  5
3E3
330
3B2
100
AcDbEntity
  8
LC-001-002-----0
 62
     7
370
    35
100
AcDbLine
 10
566.5874579999999
 20
1254.5
 30
0.0
 11
601.798136
 21
1254.5
 31
0.0
  0
LINE
  5
3E4
330
3B2
100
AcDbEntity
  8
LC-001-002-----0
 62
     7
370
    35
100
AcDbLine
 10
566.5874579999999
 20
1254.6
 30
0.0
 11
602.557711
 21
1254.6
 31
0.0
  0
LINE
  5
3E5
330
3B2
100
AcDbEntity
  8
LC-001-002-----0
 62
     7
370
    35
100
AcDbLine
 10
566.5874579999999
 20
1254.7
 30
0.0
 11
603.317286
 21
1254.7
 31
0.0
  0
LINE
  5
3E6
330
3B2
100
AcDbEntity
  8
LC-001-002-----0
 62
     7
370
    35
100
AcDbLine
 10
566.5874579999999
 20
1254.8
 30
0.0
 11
604.076862
 21
1254.8
 31
0.0
  0
LINE
  5
3E7
330
3B2
100
AcDbEntity
  8
LC-001-002-----0
 62
     7
370
    35
100
AcDbLine
 10
566.5874579999999
 20
1254.9
 30
0.0
 11
604.836437
 21
1254.9
 31
0.0
  0
LINE
  5
3E8
330
3B2
100
AcDbEntity
  8
LC-001-002-----0
 62
     7
370
    35
100
AcDbLine
 10
566.5874579999999
 20
1255.1
 30
0.0
 11
604.836438
 21
1255.1
 31
0.0
  0
LINE
  5
3E9
330
3B2
100
AcDbEntity
  8
LC-001-002-----0
 62
     7
370
    35
100
AcDbLine
 10
566.5874579999999
 20
1255.2
 30
0.0
 11
604.076862
 21
1255.2
 31
0.0
  0
LINE
  5
3EA
330
3B2
100
AcDbEntity
  8
LC-001-002-----0
 62
     7
370
    35
100
AcDbLine
 10
566.5874579999999
 20
1255.3
 30
0.0
 11
603.3172869999999
 21
1255.3
 31
0.0
  0
LINE
  5
3EB
330
3B2
100
AcDbEntity
  8
LC-001-002-----0
 62
     7
370
    35
100
AcDbLine
 10
566.5874579999999
 20
1255.4
 30
0.0
 11
602.557711
 21
1255.4
 31
0.0
  0
LINE
  5
3EC
330
3B2
100
AcDbEntity
  8
LC-001-002-----0
 62
     7
370
    35
100
AcDbLine
 10
566.5874579999999
 20
1255.5
 30
0.0
 11
601.798136
 21
1255.5
 31
0.0
  0
LINE
  5
3ED
330
3B2
100
AcDbEntity
  8
LC-001-002-----0
 62
     7
370
    35
100
AcDbLine
 10
566.5874579999999
 20
1255.6
 30
0.0
 11
601.0385610000001
 21
1255.6
 31
0.0
  0
LINE
  5
3EE
330
3B2
100
AcDbEntity
  8
LC-001-002-----0
 62
     7
370
    35
100
AcDbLine
 10
566.5874579999999
 20
1255.7
 30
0.0
 11
600.2789849999999
 21
1255.7
 31
0.0
  0
LINE
  5
3EF
330
3B2
100
AcDbEntity
  8
LC-001-002-----0
 62
     7
370
    35
100
AcDbLine
 10
566.5874579999999
 20
1255.8
 30
0.0
 11
599.5194099999999
 21
1255.8
 31
0.0
  0
LINE
  5
3F0
330
3B2
100
AcDbEntity
  8
LC-001-002-----0
 62
     7
370
    35
100
AcDbLine
 10
566.5874579999999
 20
1255.9
 30
0.0
 11
598.7598339999999
 21
1255.9
 31
0.0
  0
LINE
  5
3F1
330
3B2
100
AcDbEntity
  8
LC-001-002-----0
 62
     7
370
    35
100
AcDbLine
 10
566.5874579999999
 20
1256.0
 30
0.0
 11
598.000259
 21
1256.0
 31
0.0
  0
LINE
  5
3F2
330
3B2
100
AcDbEntity
  8
LC-001-002-----0
 62
     7
370
    35
100
AcDbLine
 10
566.5874579999999
 20
1256.1
 30
0.0
 11
597.2406839999999
 21
1256.1
 31
0.0
  0
LINE
  5
3F3
330
3B2
100
AcDbEntity
  8
LC-001-002-----0
 62
     7
370
    35
100
AcDbLine
 10
566.5874579999999
 20
1256.2
 30
0.0
 11
596.481108
 21
1256.2
 31
0.0
  0
LINE
  5
3F4
330
3B2
100
AcDbEntity
  8
LC-001-002-----0
 62
     7
370
    35
100
AcDbLine
 10
566.5874579999999
 20
1256.3
 30
0.0
 11
595.721533
 21
1256.3
 31
0.0
  0
LINE
  5
3F5
330
3B2
100
AcDbEntity
  8
LC-001-002-----0
 62
     7
370
    35
100
AcDbLine
 10
566.5874579999999
 20
1256.4
 30
0.0
 11
594.961957
 21
1256.4
 31
0.0
  0
LINE
  5
3F6
330
3B2
100
AcDbEntity
  8
LC-001-002-----0
 62
     7
370
    35
100
AcDbLine
 10
566.5874579999999
 20
1256.5
 30
0.0
 11
594.2023820000001
 21
1256.5
 31
0.0
  0
LINE
  5
3F7
330
3B2
100
AcDbEntity
  8
LC-001-002-----0
 62
     7
370
    35
100
AcDbLine
 10
566.5874579999999
 20
1256.6
 30
0.0
 11
593.442807
 21
1256.6
 31
0.0
  0
LINE
  5
3F8
330
3B2
100
AcDbEntity
  8
LC-001-002-----0
 62
     7
370
    35
100
AcDbLine
 10
566.5874579999999
 20
1256.7
 30
0.0
 11
592.6832309999999
 21
1256.7
 31
0.0
  0
LINE
  5
3F9
330
3B2
100
AcDbEntity
  8
LC-001-002-----0
 62
     7
370
    35
100
AcDbLine
 10
566.5874579999999
 20
1256.8
 30
0.0
 11
591.9236559999999
 21
1256.8
 31
0.0
  0
LINE
  5
3FA
330
3B2
100
AcDbEntity
  8
LC-001-002-----0
 62
     7
370
    35
100
AcDbLine
 10
566.5874579999999
 20
1256.9
 30
0.0
 11
591.1640799999999
 21
1256.9
 31
0.0
  0
LINE
  5
3FB
330
3B2
100
AcDbEntity
  8
LC-001-002-----0
 62
     7
370
    35
100
AcDbLine
 10
566.5874579999999
 20
1257.0
 30
0.0
 11
590.4045049999999
 21
1257.0
 31
0.0
  0
LINE
  5
3FC
330
3B2
100
AcDbEntity
  8
LC-001-002-----0
 62
     7
370
    35
100
AcDbLine
 10
566.5874579999999
 20
1257.1
 30
0.0
 11
589.644929
 21
1257.1
 31
0.0
  0
LINE
  5
3FD
330
3B2
100
AcDbEntity
  8
LC-001-002-----0
 62
     7
370
    35
100
AcDbLine
 10
566.5874579999999
 20
1257.2
 30
0.0
 11
588.885354
 21
1257.2
 31
0.0
  0
LINE
  5
3FE
330
3B2
100
AcDbEntity
  8
LC-001-002-----0
 62
     7
370
    35
100
AcDbLine
 10
566.5874579999999
 20
1257.3
 30
0.0
 11
588.1257789999999
 21
1257.3
 31
0.0
  0
LINE
  5
3FF
330
3B2
100
AcDbEntity
  8
LC-001-002-----0
 62
     7
370
    35
100
AcDbLine
 10
566.5874579999999
 20
1257.4
 30
0.0
 11
587.366203
 21
1257.4
 31
0.0
  0
LINE
  5
400
330
3B2
100
AcDbEntity
  8
LC-001-002-----0
 62
     7
370
    35
100
AcDbLine
 10
566.5874579999999
 20
1257.5
 30
0.0
 11
586.606628
 21
1257.5
 31
0.0
  0
LINE
  5
401
330
3B2
100
AcDbEntity
  8
LC-001-002-----0
 62
     7
370
    35
100
AcDbLine
 10
566.5874579999999
 20
1257.6
 30
0.0
 11
585.847052
 21
1257.6
 31
0.0
  0
LINE
  5
402
330
3B2
100
AcDbEntity
  8
LC-001-002-----0
 62
     7
370
    35
100
AcDbLine
 10
566.5874579999999
 20
1257.7
 30
0.0
 11
585.0874769999999
 21
1257.7
 31
0.0
  0
LINE
  5
403
330
3B2
100
AcDbEntity
  8
LC-001-002-----0
 62
     7
370
    35
100
AcDbLine
 10
566.5874579999999
 20
1257.8
 30
0.0
 11
584.3279019999999
 21
1257.8
 31
0.0
  0
LINE
  5
404
330
3B2
100
AcDbEntity
  8
LC-001-002-----0
 62
     7
370
    35
100
AcDbLine
 10
566.5874579999999
 20
1257.9
 30
0.0
 11
583.5683259999999
 21
1257.9
 31
0.0
  0
LINE
  5
405
330
3B2
100
AcDbEntity
  8
LC-001-002-----0
 62
     7
370
    35
100
AcDbLine
 10
566.5874579999999
 20
1258.0
 30
0.0
 11
582.808751
 21
1258.0
 31
0.0
  0
LINE
  5
406
330
3B2
100
AcDbEntity
  8
LC-001-002-----0
 62
     7
370
    35
100
AcDbLine
 10
566.5874579999999
 20
1258.1
 30
0.0
 11
582.049175
 21
1258.1
 31
0.0
  0
LINE
  5
407
330
3B2
100
AcDbEntity
  8
LC-001-002-----0
 62
     7
370
    35
100
AcDbLine
 10
566.5874579999999
 20
1258.2
 30
0.0
 11
581.2895999999999
 21
1258.2
 31
0.0
  0
LINE
  5
408
330
3B2
100
AcDbEntity
  8
LC-001-002-----0
 62
     7
370
    35
100
AcDbLine
 10
566.5874579999999
 20
1258.3
 30
0.0
 11
580.530025
 21
1258.3
 31
0.0
  0
LINE
  5
409
330
3B2
100
AcDbEntity
  8
LC-001-002-----0
 62
     7
370
    35
100
AcDbLine
 10
566.5874579999999
 20
1258.4
 30
0.0
 11
579.770449
 21
1258.4
 31
0.0
  0
LINE
  5
40A
330
3B2
100
AcDbEntity
  8
LC-001-002-----0
 62
     7
370
    35
100
AcDbLine
 10
566.5874579999999
 20
1258.5
 30
0.0
 11
579.010874
 21
1258.5
 31
0.0
  0
LINE
  5
40B
330
3B2
100
AcDbEntity
  8
LC-001-002-----0
 62
     7
370
    35
100
AcDbLine
 10
566.5874579999999
 20
1258.6
 30
0.0
 11
578.2512979999999
 21
1258.6
 31
0.0
  0
LINE
  5
40C
330
3B2
100
AcDbEntity
  8
LC-001-002-----0
 62
     7
370
    35
100
AcDbLine
 10
566.5874579999999
 20
1258.7
 30
0.0
 11
577.491723
 21
1258.7
 31
0.0
  0
LINE
  5
40D
330
3B2
100
AcDbEntity
  8
LC-001-002-----0
 62
     7
370
    35
100
AcDbLine
 10
566.5874579999999
 20
1258.8
 30
0.0
 11
576.7321469999999
 21
1258.8
 31
0.0
  0
LINE
  5
40E
330
3B2
100
AcDbEntity
  8
LC-001-002-----0
 62
     7
370
    35
100
AcDbLine
 10
566.5874579999999
 20
1258.9
 30
0.0
 11
575.972572
 21
1258.9
 31
0.0
  0
LINE
  5
40F
330
3B2
100
AcDbEntity
  8
LC-001-002-----0
 62
     7
370
    35
100
AcDbLine
 10
566.5874579999999
 20
1259.0
 30
0.0
 11
575.2129969999999
 21
1259.0
 31
0.0
  0
LINE
  5
410
330
3B2
100
AcDbEntity
  8
LC-001-002-----0
 62
     7
370
    35
100
AcDbLine
 10
566.5874579999999
 20
1259.1
 30
0.0
 11
574.453421
 21
1259.1
 31
0.0
  0
LINE
  5
411
330
3B2
100
AcDbEntity
  8
LC-001-002-----0
 62
     7
370
    35
100
AcDbLine
 10
566.5874579999999
 20
1259.2
 30
0.0
 11
573.693846
 21
1259.2
 31
0.0
  0
LINE
  5
412
330
3B2
100
AcDbEntity
  8
LC-001-002-----0
 62
     7
370
    35
100
AcDbLine
 10
566.5874579999999
 20
1259.3
 30
0.0
 11
572.93427
 21
1259.3
 31
0.0
  0
LINE
  5
413
330
3B2
100
AcDbEntity
  8
LC-001-002-----0
 62
     7
370
    35
100
AcDbLine
 10
566.5874579999999
 20
1259.4
 30
0.0
 11
572.174695
 21
1259.4
 31
0.0
  0
LINE
  5
414
330
3B2
100
AcDbEntity
  8
LC-001-002-----0
 62
     7
370
    35
100
AcDbLine
 10
566.5874579999999
 20
1259.5
 30
0.0
 11
571.4151199999999
 21
1259.5
 31
0.0
  0
LINE
  5
415
330
3B2
100
AcDbEntity
  8
LC-001-002-----0
 62
     7
370
    35
100
AcDbLine
 10
566.5874579999999
 20
1259.6
 30
0.0
 11
570.655544
 21
1259.6
 31
0.0
  0
LINE
  5
416
330
3B2
100
AcDbEntity
  8
LC-001-002-----0
 62
     7
370
    35
100
AcDbLine
 10
566.5874579999999
 20
1259.7
 30
0.0
 11
569.895969
 21
1259.7
 31
0.0
  0
LINE
  5
417
330
3B2
100
AcDbEntity
  8
LC-001-002-----0
 62
     7
370
    35
100
AcDbLine
 10
566.5874579999999
 20
1259.8
 30
0.0
 11
569.136393
 21
1259.8
 31
0.0
  0
LINE
  5
418
330
3B2
100
AcDbEntity
  8
LC-001-002-----0
 62
     7
370
    35
100
AcDbLine
 10
566.5874579999999
 20
1259.9
 30
0.0
 11
568.3768179999999
 21
1259.9
 31
0.0
  0
LINE
  5
419
330
3B2
100
AcDbEntity
  8
LC-001-002-----0
 62
     7
370
    35
100
AcDbLine
 10
566.5874579999999
 20
1260.0
 30
0.0
 11
567.6172429999999
 21
1260.0
 31
0.0
  0
LINE
  5
41A
330
3B2
100
AcDbEntity
  8
LC-001-002-----0
 62
     7
370
    35
100
AcDbLine
 10
566.5874579999999
 20
1260.1
 30
0.0
 11
566.857667
 21
1260.1
 31
0.0
  0
ENDBLK
  5
3B4
330
3B2
100
AcDbEntity
  8
0
100
AcDbBlockEnd
  0
BLOCK
  5
420
330
41F
100
AcDbEntity
  8
0
100
AcDbBlockBegin
  2
*X17
 70
     1
 10
0.0
 20
0.0
 30
0.0
  3
*X17
  1

  4
*X7
  0
LINE
  5
422
330
41F
100
AcDbEntity
  8
LC-001-002-----0
 62
     7
370
    35
100
AcDbLine
 10
506.5960129999999
 20
1240.2
 30
0.0
 11
509.0373239999999
 21
1240.2
 31
0.0
  0
LINE
  5
423
330
41F
100
AcDbEntity
  8
LC-001-002-----0
 62
     7
370
    35
100
AcDbLine
 10
506.5960129999999
 20
1240.4
 30
0.0
 11
510.0369429999999
 21
1240.4
 31
0.0
  0
LINE
  5
424
330
41F
100
AcDbEntity
  8
LC-001-002-----0
 62
     7
370
    35
100
AcDbLine
 10
506.5960129999999
 20
1240.6
 30
0.0
 11
510.796013
 21
1240.6
 31
0.0
  0
LINE
  5
425
330
41F
100
AcDbEntity
  8
LC-001-002-----0
 62
     7
370
    35
100
AcDbLine
 10
506.5960129999999
 20
1240.8
 30
0.0
 11
511.4292309999999
 21
1240.8
 31
0.0
  0
LINE
  5
426
330
41F
100
AcDbEntity
  8
LC-001-002-----0
 62
     7
370
    35
100
AcDbLine
 10
506.5960129999999
 20
1241.0
 30
0.0
 11
511.981178
 21
1241.0
 31
0.0
  0
LINE
  5
427
330
41F
100
AcDbEntity
  8
LC-001-002-----0
 62
     7
370
    35
100
AcDbLine
 10
506.5960129999999
 20
1241.2
 30
0.0
 11
512.474788
 21
1241.2
 31
0.0
  0
LINE
  5
428
330
41F
100
AcDbEntity
  8
LC-001-002-----0
 62
     7
370
    35
100
AcDbLine
 10
506.5960129999999
 20
1241.4
 30
0.0
 11
512.9237299999999
 21
1241.4
 31
0.0
  0
LINE
  5
429
330
41F
100
AcDbEntity
  8
LC-001-002-----0
 62
     7
370
    35
100
AcDbLine
 10
506.5960129999999
 20
1241.6
 30
0.0
 11
513.336933
 21
1241.6
 31
0.0
  0
LINE
  5
42A
330
41F
100
AcDbEntity
  8
LC-001-002-----0
 62
     7
370
    35
100
AcDbLine
 10
506.5960129999999
 20
1241.8
 30
0.0
 11
513.7206179999999
 21
1241.8
 31
0.0
  0
LINE
  5
42B
330
41F
100
AcDbEntity
  8
LC-001-002-----0
 62
     7
370
    35
100
AcDbLine
 10
506.5960129999999
 20
1242.0
 30
0.0
 11
514.079328
 21
1242.0
 31
0.0
  0
LINE
  5
42C
330
41F
100
AcDbEntity
  8
LC-001-002-----0
 62
     7
370
    35
100
AcDbLine
 10
506.5960129999999
 20
1242.2
 30
0.0
 11
514.416499
 21
1242.2
 31
0.0
  0
LINE
  5
42D
330
41F
100
AcDbEntity
  8
LC-001-002-----0
 62
     7
370
    35
100
AcDbLine
 10
506.5960129999999
 20
1242.4
 30
0.0
 11
514.734809
 21
1242.4
 31
0.0
  0
LINE
  5
42E
330
41F
100
AcDbEntity
  8
LC-001-002-----0
 62
     7
370
    35
100
AcDbLine
 10
506.5960129999999
 20
1242.6
 30
0.0
 11
515.036392
 21
1242.6
 31
0.0
  0
LINE
  5
42F
330
41F
100
AcDbEntity
  8
LC-001-002-----0
 62
     7
370
    35
100
AcDbLine
 10
506.5960129999999
 20
1242.8
 30
0.0
 11
515.3229819999999
 21
1242.8
 31
0.0
  0
LINE
  5
430
330
41F
100
AcDbEntity
  8
LC-001-002-----0
 62
     7
370
    35
100
AcDbLine
 10
506.5960129999999
 20
1243.0
 30
0.0
 11
515.5960129999999
 21
1243.0
 31
0.0
  0
LINE
  5
431
330
41F
100
AcDbEntity
  8
LC-001-002-----0
 62
     7
370
    35
100
AcDbLine
 10
506.5960129999999
 20
1243.2
 30
0.0
 11
515.8566819999999
 21
1243.2
 31
0.0
  0
LINE
  5
432
330
41F
100
AcDbEntity
  8
LC-001-002-----0
 62
     7
370
    35
100
AcDbLine
 10
506.5960129999999
 20
1243.4
 30
0.0
 11
516.1060079999999
 21
1243.4
 31
0.0
  0
LINE
  5
433
330
41F
100
AcDbEntity
  8
LC-001-002-----0
 62
     7
370
    35
100
AcDbLine
 10
506.5960129999999
 20
1243.6
 30
0.0
 11
516.3448589999999
 21
1243.6
 31
0.0
  0
LINE
  5
434
330
41F
100
AcDbEntity
  8
LC-001-002-----0
 62
     7
370
    35
100
AcDbLine
 10
506.5960129999999
 20
1243.8
 30
0.0
 11
516.573989
 21
1243.8
 31
0.0
  0
LINE
  5
435
330
41F
100
AcDbEntity
  8
LC-001-002-----0
 62
     7
370
    35
100
AcDbLine
 10
506.5960129999999
 20
1244.0
 30
0.0
 11
516.794052
 21
1244.0
 31
0.0
  0
LINE
  5
436
330
41F
100
AcDbEntity
  8
LC-001-002-----0
 62
     7
370
    35
100
AcDbLine
 10
506.5960129999999
 20
1244.2
 30
0.0
 11
517.005624
 21
1244.2
 31
0.0
  0
LINE
  5
437
330
41F
100
AcDbEntity
  8
LC-001-002-----0
 62
     7
370
    35
100
AcDbLine
 10
506.5960129999999
 20
1244.4
 30
0.0
 11
517.209212
 21
1244.4
 31
0.0
  0
LINE
  5
438
330
41F
100
AcDbEntity
  8
LC-001-002-----0
 62
     7
370
    35
100
AcDbLine
 10
506.5960129999999
 20
1244.6
 30
0.0
 11
517.4052679999999
 21
1244.6
 31
0.0
  0
LINE
  5
439
330
41F
100
AcDbEntity
  8
LC-001-002-----0
 62
     7
370
    35
100
AcDbLine
 10
506.5960129999999
 20
1244.8
 30
0.0
 11
517.594194
 21
1244.8
 31
0.0
  0
LINE
  5
43A
330
41F
100
AcDbEntity
  8
LC-001-002-----0
 62
     7
370
    35
100
AcDbLine
 10
506.5960129999999
 20
1245.0
 30
0.0
 11
517.776353
 21
1245.0
 31
0.0
  0
LINE
  5
43B
330
41F
100
AcDbEntity
  8
LC-001-002-----0
 62
     7
370
    35
100
AcDbLine
 10
506.5960129999999
 20
1245.2
 30
0.0
 11
517.9520679999999
 21
1245.2
 31
0.0
  0
LINE
  5
43C
330
41F
100
AcDbEntity
  8
LC-001-002-----0
 62
     7
370
    35
100
AcDbLine
 10
506.5960129999999
 20
1245.4
 30
0.0
 11
518.121636
 21
1245.4
 31
0.0
  0
LINE
  5
43D
330
41F
100
AcDbEntity
  8
LC-001-002-----0
 62
     7
370
    35
100
AcDbLine
 10
506.5960129999999
 20
1245.6
 30
0.0
 11
518.285324
 21
1245.6
 31
0.0
  0
LINE
  5
43E
330
41F
100
AcDbEntity
  8
LC-001-002-----0
 62
     7
370
    35
100
AcDbLine
 10
506.5960129999999
 20
1245.8
 30
0.0
 11
518.4433749999999
 21
1245.8
 31
0.0
  0
LINE
  5
43F
330
41F
100
AcDbEntity
  8
LC-001-002-----0
 62
     7
370
    35
100
AcDbLine
 10
506.5960129999999
 20
1246.0
 30
0.0
 11
518.5960129999999
 21
1246.0
 31
0.0
  0
LINE
  5
440
330
41F
100
AcDbEntity
  8
LC-001-002-----0
 62
     7
370
    35
100
AcDbLine
 10
506.5960129999999
 20
1246.2
 30
0.0
 11
518.7434409999999
 21
1246.2
 31
0.0
  0
LINE
  5
441
330
41F
100
AcDbEntity
  8
LC-001-002-----0
 62
     7
370
    35
100
AcDbLine
 10
506.5960129999999
 20
1246.4
 30
0.0
 11
518.885846
 21
1246.4
 31
0.0
  0
LINE
  5
442
330
41F
100
AcDbEntity
  8
LC-001-002-----0
 62
     7
370
    35
100
AcDbLine
 10
506.5960129999999
 20
1246.6
 30
0.0
 11
519.0234019999999
 21
1246.6
 31
0.0
  0
LINE
  5
443
330
41F
100
AcDbEntity
  8
LC-001-002-----0
 62
     7
370
    35
100
AcDbLine
 10
506.5960129999999
 20
1246.8
 30
0.0
 11
519.1562679999999
 21
1246.8
 31
0.0
  0
LINE
  5
444
330
41F
100
AcDbEntity
  8
LC-001-002-----0
 62
     7
370
    35
100
AcDbLine
 10
506.5960129999999
 20
1247.0
 30
0.0
 11
519.28459
 21
1247.0
 31
0.0
  0
LINE
  5
445
330
41F
100
AcDbEntity
  8
LC-001-002-----0
 62
     7
370
    35
100
AcDbLine
 10
506.5960129999999
 20
1247.2
 30
0.0
 11
519.4085069999999
 21
1247.2
 31
0.0
  0
LINE
  5
446
330
41F
100
AcDbEntity
  8
LC-001-002-----0
 62
     7
370
    35
100
AcDbLine
 10
506.5960129999999
 20
1247.4
 30
0.0
 11
519.528143
 21
1247.4
 31
0.0
  0
LINE
  5
447
330
41F
100
AcDbEntity
  8
LC-001-002-----0
 62
     7
370
    35
100
AcDbLine
 10
506.5960129999999
 20
1247.6
 30
0.0
 11
519.6436179999999
 21
1247.6
 31
0.0
  0
LINE
  5
448
330
41F
100
AcDbEntity
  8
LC-001-002-----0
 62
     7
370
    35
100
AcDbLine
 10
506.5960129999999
 20
1247.8
 30
0.0
 11
519.7550399999999
 21
1247.8
 31
0.0
  0
LINE
  5
449
330
41F
100
AcDbEntity
  8
LC-001-002-----0
 62
     7
370
    35
100
AcDbLine
 10
506.5960129999999
 20
1248.0
 30
0.0
 11
519.862512
 21
1248.0
 31
0.0
  0
LINE
  5
44A
330
41F
100
AcDbEntity
  8
LC-001-002-----0
 62
     7
370
    35
100
AcDbLine
 10
506.5960129999999
 20
1248.2
 30
0.0
 11
519.966129
 21
1248.2
 31
0.0
  0
LINE
  5
44B
330
41F
100
AcDbEntity
  8
LC-001-002-----0
 62
     7
370
    35
100
AcDbLine
 10
506.5960129999999
 20
1248.4
 30
0.0
 11
520.0659789999999
 21
1248.4
 31
0.0
  0
LINE
  5
44C
330
41F
100
AcDbEntity
  8
LC-001-002-----0
 62
     7
370
    35
100
AcDbLine
 10
506.5960129999999
 20
1248.6
 30
0.0
 11
520.162147
 21
1248.6
 31
0.0
  0
LINE
  5
44D
330
41F
100
AcDbEntity
  8
LC-001-002-----0
 62
     7
370
    35
100
AcDbLine
 10
506.5960129999999
 20
1248.8
 30
0.0
 11
520.2547099999999
 21
1248.8
 31
0.0
  0
LINE
  5
44E
330
41F
100
AcDbEntity
  8
LC-001-002-----0
 62
     7
370
    35
100
AcDbLine
 10
506.5960129999999
 20
1249.0
 30
0.0
 11
520.34374
 21
1249.0
 31
0.0
  0
LINE
  5
44F
330
41F
100
AcDbEntity
  8
LC-001-002-----0
 62
     7
370
    35
100
AcDbLine
 10
506.5960129999999
 20
1249.2
 30
0.0
 11
520.429306
 21
1249.2
 31
0.0
  0
LINE
  5
450
330
41F
100
AcDbEntity
  8
LC-001-002-----0
 62
     7
370
    35
100
AcDbLine
 10
506.5960129999999
 20
1249.4
 30
0.0
 11
520.511472
 21
1249.4
 31
0.0
  0
LINE
  5
451
330
41F
100
AcDbEntity
  8
LC-001-002-----0
 62
     7
370
    35
100
AcDbLine
 10
506.5960129999999
 20
1249.6
 30
0.0
 11
520.5902969999999
 21
1249.6
 31
0.0
  0
LINE
  5
452
330
41F
100
AcDbEntity
  8
LC-001-002-----0
 62
     7
370
    35
100
AcDbLine
 10
506.5960129999999
 20
1249.8
 30
0.0
 11
520.665839
 21
1249.8
 31
0.0
  0
LINE
  5
453
330
41F
100
AcDbEntity
  8
LC-001-002-----0
 62
     7
370
    35
100
AcDbLine
 10
506.5960129999999
 20
1250.0
 30
0.0
 11
520.738148
 21
1250.0
 31
0.0
  0
LINE
  5
454
330
41F
100
AcDbEntity
  8
LC-001-002-----0
 62
     7
370
    35
100
AcDbLine
 10
506.5960129999999
 20
1250.2
 30
0.0
 11
520.807276
 21
1250.2
 31
0.0
  0
LINE
  5
455
330
41F
100
AcDbEntity
  8
LC-001-002-----0
 62
     7
370
    35
100
AcDbLine
 10
506.5960129999999
 20
1250.4
 30
0.0
 11
520.8732669999999
 21
1250.4
 31
0.0
  0
LINE
  5
456
330
41F
100
AcDbEntity
  8
LC-001-002-----0
 62
     7
370
    35
100
AcDbLine
 10
506.5960129999999
 20
1250.6
 30
0.0
 11
520.936166
 21
1250.6
 31
0.0
  0
LINE
  5
457
330
41F
100
AcDbEntity
  8
LC-001-002-----0
 62
     7
370
    35
100
AcDbLine
 10
506.5960129999999
 20
1250.8
 30
0.0
 11
520.9960129999999
 21
1250.8
 31
0.0
  0
LINE
  5
458
330
41F
100
AcDbEntity
  8
LC-001-002-----0
 62
     7
370
    35
100
AcDbLine
 10
506.5960129999999
 20
1251.0
 30
0.0
 11
521.052845
 21
1251.0
 31
0.0
  0
LINE
  5
459
330
41F
100
AcDbEntity
  8
LC-001-002-----0
 62
     7
370
    35
100
AcDbLine
 10
506.5960129999999
 20
1251.2
 30
0.0
 11
521.106699
 21
1251.2
 31
0.0
  0
LINE
  5
45A
330
41F
100
AcDbEntity
  8
LC-001-002-----0
 62
     7
370
    35
100
AcDbLine
 10
506.5960129999999
 20
1251.4
 30
0.0
 11
521.1576059999999
 21
1251.4
 31
0.0
  0
LINE
  5
45B
330
41F
100
AcDbEntity
  8
LC-001-002-----0
 62
     7
370
    35
100
AcDbLine
 10
506.5960129999999
 20
1251.6
 30
0.0
 11
521.205599
 21
1251.6
 31
0.0
  0
LINE
  5
45C
330
41F
100
AcDbEntity
  8
LC-001-002-----0
 62
     7
370
    35
100
AcDbLine
 10
506.5960129999999
 20
1251.8
 30
0.0
 11
521.2507049999999
 21
1251.8
 31
0.0
  0
LINE
  5
45D
330
41F
100
AcDbEntity
  8
LC-001-002-----0
 62
     7
370
    35
100
AcDbLine
 10
506.5960129999999
 20
1252.0
 30
0.0
 11
521.292951
 21
1252.0
 31
0.0
  0
LINE
  5
45E
330
41F
100
AcDbEntity
  8
LC-001-002-----0
 62
     7
370
    35
100
AcDbLine
 10
506.5960129999999
 20
1252.2
 30
0.0
 11
521.3323619999999
 21
1252.2
 31
0.0
  0
LINE
  5
45F
330
41F
100
AcDbEntity
  8
LC-001-002-----0
 62
     7
370
    35
100
AcDbLine
 10
506.5960129999999
 20
1252.4
 30
0.0
 11
521.368961
 21
1252.4
 31
0.0
  0
LINE
  5
460
330
41F
100
AcDbEntity
  8
LC-001-002-----0
 62
     7
370
    35
100
AcDbLine
 10
506.5960129999999
 20
1252.6
 30
0.0
 11
521.4027679999999
 21
1252.6
 31
0.0
  0
LINE
  5
461
330
41F
100
AcDbEntity
  8
LC-001-002-----0
 62
     7
370
    35
100
AcDbLine
 10
506.5960129999999
 20
1252.8
 30
0.0
 11
521.4338019999998
 21
1252.8
 31
0.0
  0
LINE
  5
462
330
41F
100
AcDbEntity
  8
LC-001-002-----0
 62
     7
370
    35
100
AcDbLine
 10
506.5960129999999
 20
1253.0
 30
0.0
 11
521.462082
 21
1253.0
 31
0.0
  0
LINE
  5
463
330
41F
100
AcDbEntity
  8
LC-001-002-----0
 62
     7
370
    35
100
AcDbLine
 10
506.5960129999999
 20
1253.2
 30
0.0
 11
521.4876209999999
 21
1253.2
 31
0.0
  0
LINE
  5
464
330
41F
100
AcDbEntity
  8
LC-001-002-----0
 62
     7
370
    35
100
AcDbLine
 10
506.5960129999999
 20
1253.4
 30
0.0
 11
521.5104349999998
 21
1253.4
 31
0.0
  0
LINE
  5
465
330
41F
100
AcDbEntity
  8
LC-001-002-----0
 62
     7
370
    35
100
AcDbLine
 10
506.5960129999999
 20
1253.6
 30
0.0
 11
521.530537
 21
1253.6
 31
0.0
  0
LINE
  5
466
330
41F
100
AcDbEntity
  8
LC-001-002-----0
 62
     7
370
    35
100
AcDbLine
 10
506.5960129999999
 20
1253.8
 30
0.0
 11
521.547936
 21
1253.8
 31
0.0
  0
LINE
  5
467
330
41F
100
AcDbEntity
  8
LC-001-002-----0
 62
     7
370
    35
100
AcDbLine
 10
506.5960129999999
 20
1254.0
 30
0.0
 11
521.5626419999999
 21
1254.0
 31
0.0
  0
LINE
  5
468
330
41F
100
AcDbEntity
  8
LC-001-002-----0
 62
     7
370
    35
100
AcDbLine
 10
506.5960129999999
 20
1254.2
 30
0.0
 11
521.5746639999999
 21
1254.2
 31
0.0
  0
LINE
  5
469
330
41F
100
AcDbEntity
  8
LC-001-002-----0
 62
     7
370
    35
100
AcDbLine
 10
506.5960129999999
 20
1254.4
 30
0.0
 11
521.584008
 21
1254.4
 31
0.0
  0
LINE
  5
46A
330
41F
100
AcDbEntity
  8
LC-001-002-----0
 62
     7
370
    35
100
AcDbLine
 10
506.5960129999999
 20
1254.6
 30
0.0
 11
521.590679
 21
1254.6
 31
0.0
  0
LINE
  5
46B
330
41F
100
AcDbEntity
  8
LC-001-002-----0
 62
     7
370
    35
100
AcDbLine
 10
506.5960129999999
 20
1254.8
 30
0.0
 11
521.594679
 21
1254.8
 31
0.0
  0
LINE
  5
46C
330
41F
100
AcDbEntity
  8
LC-001-002-----0
 62
     7
370
    35
100
AcDbLine
 10
506.5960129999999
 20
1255.0
 30
0.0
 11
521.596013
 21
1255.0
 31
0.0
  0
ENDBLK
  5
421
330
41F
100
AcDbEntity
  8
0
100
AcDbBlockEnd
  0
BLOCK
  5
47B
330
470
100
AcDbEntity
  8
0
100
AcDbBlockBegin
  2
*D18
 70
     1
 10
0.0
 20
0.0
 30
0.0
  3
*D18
  1

  0
LINE
  5
471
330
470
100
AcDbEntity
  8
LC-006-003-----0
 62
     2
370
    -2
100
AcDbLine
 10
303.971013
 20
1499.625
 30
0.0
 11
191.0
 21
1499.625
 31
0.0
  0
LINE
  5
472
330
470
100
AcDbEntity
  8
LC-006-003-----0
 62
     2
370
    -2
100
AcDbLine
 10
303.971013
 20
1255.0
 30
0.0
 11
191.0
 21
1255.0
 31
0.0
  0
LINE
  5
473
330
470
100
AcDbEntity
  8
LC-006-003-----0
 62
     2
370
    -2
100
AcDbLine
 10
200.0
 20
1487.125
 30
0.0
 11
200.0
 21
1431.824999
 31
0.0
  0
LINE
  5
474
330
470
100
AcDbEntity
  8
LC-006-003-----0
 62
     2
370
    -2
100
AcDbLine
 10
200.0
 20
1267.5
 30
0.0
 11
200.0
 21
1322.800001
 31
0.0
  0
SOLID
  5
475
330
470
100
AcDbEntity
  8
LC-006-003-----0
 62
     2
100
AcDbTrace
 10
202.083333
 20
1487.125
 30
0.0
 11
197.916667
 21
1487.125
 31
0.0
 12
200.0
 22
1499.625
 32
0.0
 13
200.0
 23
1499.625
 33
0.0
  0
SOLID
  5
476
330
470
100
AcDbEntity
  8
LC-006-003-----0
 62
     2
100
AcDbTrace
 10
197.916667
 20
1267.5
 30
0.0
 11
202.083333
 21
1267.5
 31
0.0
 12
200.0
 22
1255.0
 32
0.0
 13
200.0
 23
1255.0
 33
0.0
  0
MTEXT
  5
477
330
470
100
AcDbEntity
  8
LC-006-003-----0
 62
     2
100
AcDbMText
 10
185.0
 20
1377.3125
 30
0.0
 40
12.5
 41
0.0
 71
     5
 72
     1
  1
(\A1;244,625)
  7
LCTX0-400-0-0pDIN-Schrift
 11
0.0000000000000001
 21
1.0
 31
0.0
 73
     1
 44
1.0
1001
ACAD
1000
MTEXTBEGIN
1070
    73
1070
     1
1070
    44
1040
1.0
1070
    74
1070
     0
1000
MTEXTEND
  0
POINT
  5
478
330
470
100
AcDbEntity
  8
Defpoints
 62
     0
100
AcDbPoint
 10
303.971013
 20
1499.625
 30
0.0
  0
POINT
  5
479
330
470
100
AcDbEntity
  8
Defpoints
 62
     0
100
AcDbPoint
 10
303.971013
 20
1255.0
 30
0.0
  0
POINT
  5
47A
330
470
100
AcDbEntity
  8
Defpoints
 62
     0
100
AcDbPoint
 10
200.0
 20
1255.0
 30
0.0
  0
ENDBLK
  5
47C
330
470
100
AcDbEntity
  8
0
100
AcDbBlockEnd
  0
BLOCK
  5
489
330
47E
100
AcDbEntity
  8
0
100
AcDbBlockBegin
  2
*D19
 70
     1
 10
0.0
 20
0.0
 30
0.0
  3
*D19
  1

  0
LINE
  5
47F
330
47E
100
AcDbEntity
  8
LC-006-003-----0
 62
     2
370
    -2
100
AcDbLine
 10
303.971013
 20
1255.0
 30
0.0
 11
191.0
 21
1255.0
 31
0.0
  0
LINE
  5
480
330
47E
100
AcDbEntity
  8
LC-006-003-----0
 62
     2
370
    -2
100
AcDbLine
 10
303.971013
 20
1010.375
 30
0.0
 11
191.0
 21
1010.375
 31
0.0
  0
LINE
  5
481
330
47E
100
AcDbEntity
  8
LC-006-003-----0
 62
     2
370
    -2
100
AcDbLine
 10
200.0
 20
1242.5
 30
0.0
 11
200.0
 21
1187.199999
 31
0.0
  0
LINE
  5
482
330
47E
100
AcDbEntity
  8
LC-006-003-----0
 62
     2
370
    -2
100
AcDbLine
 10
200.0
 20
1022.875
 30
0.0
 11
200.0
 21
1078.175001
 31
0.0
  0
SOLID
  5
483
330
47E
100
AcDbEntity
  8
LC-006-003-----0
 62
     2
100
AcDbTrace
 10
202.083333
 20
1242.5
 30
0.0
 11
197.916667
 21
1242.5
 31
0.0
 12
200.0
 22
1255.0
 32
0.0
 13
200.0
 23
1255.0
 33
0.0
  0
SOLID
  5
484
330
47E
100
AcDbEntity
  8
LC-006-003-----0
 62
     2
100
AcDbTrace
 10
197.916667
 20
1022.875
 30
0.0
 11
202.083333
 21
1022.875
 31
0.0
 12
200.0
 22
1010.375
 32
0.0
 13
200.0
 23
1010.375
 33
0.0
  0
MTEXT
  5
485
330
47E
100
AcDbEntity
  8
LC-006-003-----0
 62
     2
100
AcDbMText
 10
185.0
 20
1132.6875
 30
0.0
 40
12.5
 41
0.0
 71
     5
 72
     1
  1
(\A1;244,625)
  7
LCTX0-400-0-0pDIN-Schrift
 11
0.0000000000000001
 21
1.0
 31
0.0
 73
     1
 44
1.0
1001
ACAD
1000
MTEXTBEGIN
1070
    73
1070
     1
1070
    44
1040
1.0
1070
    74
1070
     0
1000
MTEXTEND
  0
POINT
  5
486
330
47E
100
AcDbEntity
  8
Defpoints
 62
     0
100
AcDbPoint
 10
303.971013
 20
1255.0
 30
0.0
  0
POINT
  5
487
330
47E
100
AcDbEntity
  8
Defpoints
 62
     0
100
AcDbPoint
 10
303.971013
 20
1010.375
 30
0.0
  0
POINT
  5
488
330
47E
100
AcDbEntity
  8
Defpoints
 62
     0
100
AcDbPoint
 10
200.0
 20
1010.375
 30
0.0
  0
ENDBLK
  5
48A
330
47E
100
AcDbEntity
  8
0
100
AcDbBlockEnd
  0
BLOCK
  5
496
330
48C
100
AcDbEntity
  8
0
100
AcDbBlockBegin
  2
*D20
 70
     1
 10
0.0
 20
0.0
 30
0.0
  3
*D20
  1

  0
LINE
  5
48D
330
48C
100
AcDbEntity
  8
LC-006-003-----0
 62
     2
370
    -2
100
AcDbLine
 10
323.971013
 20
990.375
 30
0.0
 11
323.971013
 21
891.0
 31
0.0
  0
LINE
  5
48E
330
48C
100
AcDbEntity
  8
LC-006-003-----0
 62
     2
370
    -2
100
AcDbLine
 10
506.5960129999999
 20
990.375
 30
0.0
 11
506.5960129999999
 21
891.0
 31
0.0
  0
LINE
  5
48F
330
48C
100
AcDbEntity
  8
LC-006-003-----0
 62
     2
370
    -2
100
AcDbLine
 10
336.471013
 20
900.0
 30
0.0
 11
494.0960129999999
 21
900.0
 31
0.0
  0
SOLID
  5
490
330
48C
100
AcDbEntity
  8
LC-006-003-----0
 62
     2
100
AcDbTrace
 10
336.471013
 20
902.083333
 30
0.0
 11
336.471013
 21
897.9166669999999
 31
0.0
 12
323.971013
 22
900.0
 32
0.0
 13
323.971013
 23
900.0
 33
0.0
  0
SOLID
  5
491
330
48C
100
AcDbEntity
  8
LC-006-003-----0
 62
     2
100
AcDbTrace
 10
494.0960129999999
 20
897.9166669999999
 30
0.0
 11
494.0960129999999
 21
902.083333
 31
0.0
 12
506.5960129999999
 22
900.0
 32
0.0
 13
506.5960129999999
 23
900.0
 33
0.0
  0
MTEXT
  5
492
330
48C
100
AcDbEntity
  8
LC-006-003-----0
 62
     2
100
AcDbMText
 10
415.2835129999999
 20
915.0
 30
0.0
 40
12.5
 41
0.0
 71
     5
 72
     1
  1
(\A1;182,625)
  7
LCTX0-400-0-0pDIN-Schrift
 73
     1
 44
1.0
1001
ACAD
1000
MTEXTBEGIN
1070
    73
1070
     1
1070
    44
1040
1.0
1070
    74
1070
     0
1000
MTEXTEND
  0
POINT
  5
493
330
48C
100
AcDbEntity
  8
Defpoints
 62
     0
100
AcDbPoint
 10
323.971013
 20
990.375
 30
0.0
  0
POINT
  5
494
330
48C
100
AcDbEntity
  8
Defpoints
 62
     0
100
AcDbPoint
 10
506.5960129999999
 20
990.375
 30
0.0
  0
POINT
  5
495
330
48C
100
AcDbEntity
  8
Defpoints
 62
     0
100
AcDbPoint
 10
506.5960129999999
 20
900.0
 30
0.0
  0
ENDBLK
  5
497
330
48C
100
AcDbEntity
  8
0
100
AcDbBlockEnd
  0
BLOCK
  5
4A3
330
499
100
AcDbEntity
  8
0
100
AcDbBlockBegin
  2
*D21
 70
     1
 10
0.0
 20
0.0
 30
0.0
  3
*D21
  1

  0
LINE
  5
49A
330
499
100
AcDbEntity
  8
LC-006-003-----0
 62
     2
370
    -2
100
AcDbLine
 10
689.2210129999999
 20
990.375
 30
0.0
 11
689.2210129999999
 21
891.0
 31
0.0
  0
LINE
  5
49B
330
499
100
AcDbEntity
  8
LC-006-003-----0
 62
     2
370
    -2
100
AcDbLine
 10
506.5960129999999
 20
990.375
 30
0.0
 11
506.5960129999999
 21
891.0
 31
0.0
  0
LINE
  5
49C
330
499
100
AcDbEntity
  8
LC-006-003-----0
 62
     2
370
    -2
100
AcDbLine
 10
676.7210129999999
 20
900.0
 30
0.0
 11
519.0960129999999
 21
900.0
 31
0.0
  0
SOLID
  5
49D
330
499
100
AcDbEntity
  8
LC-006-003-----0
 62
     2
100
AcDbTrace
 10
676.7210129999999
 20
897.9166669999999
 30
0.0
 11
676.7210129999999
 21
902.083333
 31
0.0
 12
689.2210129999999
 22
900.0
 32
0.0
 13
689.2210129999999
 23
900.0
 33
0.0
  0
SOLID
  5
49E
330
499
100
AcDbEntity
  8
LC-006-003-----0
 62
     2
100
AcDbTrace
 10
519.0960129999999
 20
902.083333
 30
0.0
 11
519.0960129999999
 21
897.9166669999999
 31
0.0
 12
506.5960129999999
 22
900.0
 32
0.0
 13
506.5960129999999
 23
900.0
 33
0.0
  0
MTEXT
  5
49F
330
499
100
AcDbEntity
  8
LC-006-003-----0
 62
     2
100
AcDbMText
 10
597.9085129999999
 20
915.0
 30
0.0
 40
12.5
 41
0.0
 71
     5
 72
     1
  1
(\A1;182,625)
  7
LCTX0-400-0-0pDIN-Schrift
 73
     1
 44
1.0
1001
ACAD
1000
MTEXTBEGIN
1070
    73
1070
     1
1070
    44
1040
1.0
1070
    74
1070
     0
1000
MTEXTEND
  0
POINT
  5
4A0
330
499
100
AcDbEntity
  8
Defpoints
 62
     0
100
AcDbPoint
 10
689.2210129999999
 20
990.375
 30
0.0
  0
POINT
  5
4A1
330
499
100
AcDbEntity
  8
Defpoints
 62
     0
100
AcDbPoint
 10
506.5960129999999
 20
990.375
 30
0.0
  0
POINT
  5
4A2
330
499
100
AcDbEntity
  8
Defpoints
 62
     0
100
AcDbPoint
 10
506.5960129999999
 20
900.0
 30
0.0
  0
ENDBLK
  5
4A4
330
499
100
AcDbEntity
  8
0
100
AcDbBlockEnd
  0
BLOCK
  5
508
330
4FD
100
AcDbEntity
  8
0
100
AcDbBlockBegin
  2
*D22
 70
     1
 10
0.0
 20
0.0
 30
0.0
  3
*D22
  1

  0
LINE
  5
4FE
330
4FD
100
AcDbEntity
  8
LC-006-003-----0
 62
     2
370
    -2
100
AcDbLine
 10
303.971013
 20
454.6249999999999
 30
0.0
 11
116.0
 21
454.6249999999999
 31
0.0
  0
LINE
  5
4FF
330
4FD
100
AcDbEntity
  8
LC-006-003-----0
 62
     2
370
    -2
100
AcDbLine
 10
303.971013
 20
5.375
 30
0.0
 11
116.0
 21
5.375
 31
0.0
  0
LINE
  5
500
330
4FD
100
AcDbEntity
  8
LC-006-003-----0
 62
     2
370
    -2
100
AcDbLine
 10
125.0
 20
442.1249999999999
 30
0.0
 11
125.0
 21
269.999999
 31
0.0
  0
LINE
  5
501
330
4FD
100
AcDbEntity
  8
LC-006-003-----0
 62
     2
370
    -2
100
AcDbLine
 10
125.0
 20
17.875
 30
0.0
 11
125.0
 21
190.000001
 31
0.0
  0
SOLID
  5
502
330
4FD
100
AcDbEntity
  8
LC-006-003-----0
 62
     2
100
AcDbTrace
 10
127.083333
 20
442.1249999999999
 30
0.0
 11
122.916667
 21
442.1249999999999
 31
0.0
 12
125.0
 22
454.6249999999999
 32
0.0
 13
125.0
 23
454.6249999999999
 33
0.0
  0
SOLID
  5
503
330
4FD
100
AcDbEntity
  8
LC-006-003-----0
 62
     2
100
AcDbTrace
 10
122.916667
 20
17.875
 30
0.0
 11
127.083333
 21
17.875
 31
0.0
 12
125.0
 22
5.375
 32
0.0
 13
125.0
 23
5.375
 33
0.0
  0
MTEXT
  5
504
330
4FD
100
AcDbEntity
  8
LC-006-003-----0
 62
     2
100
AcDbMText
 10
110.0
 20
230.0
 30
0.0
 40
12.5
 41
0.0
 71
     5
 72
     1
  1
\A1;449,25
  7
LCTX0-400-0-0pDIN-Schrift
 11
0.0000000000000001
 21
1.0
 31
0.0
 73
     1
 44
1.0
1001
ACAD
1000
MTEXTBEGIN
1070
    73
1070
     1
1070
    44
1040
1.0
1070
    74
1070
     0
1000
MTEXTEND
  0
POINT
  5
505
330
4FD
100
AcDbEntity
  8
Defpoints
 62
     0
100
AcDbPoint
 10
303.971013
 20
454.6249999999999
 30
0.0
  0
POINT
  5
506
330
4FD
100
AcDbEntity
  8
Defpoints
 62
     0
100
AcDbPoint
 10
303.971013
 20
5.375
 30
0.0
  0
POINT
  5
507
330
4FD
100
AcDbEntity
  8
Defpoints
 62
     0
100
AcDbPoint
 10
125.0
 20
5.375
 30
0.0
  0
ENDBLK
  5
509
330
4FD
100
AcDbEntity
  8
0
100
AcDbBlockEnd
  0
BLOCK
  5
515
330
50B
100
AcDbEntity
  8
0
100
AcDbBlockBegin
  2
*D23
 70
     1
 10
0.0
 20
0.0
 30
0.0
  3
*D23
  1

  0
LINE
  5
50C
330
50B
100
AcDbEntity
  8
LC-006-003-----0
 62
     2
370
    -2
100
AcDbLine
 10
343.971013
 20
-34.625
 30
0.0
 11
343.971013
 21
-209.0
 31
0.0
  0
LINE
  5
50D
330
50B
100
AcDbEntity
  8
LC-006-003-----0
 62
     2
370
    -2
100
AcDbLine
 10
669.2210129999999
 20
-34.625
 30
0.0
 11
669.2210129999999
 21
-209.0
 31
0.0
  0
LINE
  5
50E
330
50B
100
AcDbEntity
  8
LC-006-003-----0
 62
     2
370
    -2
100
AcDbLine
 10
356.471013
 20
-200.0
 30
0.0
 11
656.7210129999999
 21
-200.0
 31
0.0
  0
SOLID
  5
50F
330
50B
100
AcDbEntity
  8
LC-006-003-----0
 62
     2
100
AcDbTrace
 10
356.471013
 20
-197.916667
 30
0.0
 11
356.471013
 21
-202.083333
 31
0.0
 12
343.971013
 22
-200.0
 32
0.0
 13
343.971013
 23
-200.0
 33
0.0
  0
SOLID
  5
510
330
50B
100
AcDbEntity
  8
LC-006-003-----0
 62
     2
100
AcDbTrace
 10
656.7210129999999
 20
-202.083333
 30
0.0
 11
656.7210129999999
 21
-197.916667
 31
0.0
 12
669.2210129999999
 22
-200.0
 32
0.0
 13
669.2210129999999
 23
-200.0
 33
0.0
  0
MTEXT
  5
511
330
50B
100
AcDbEntity
  8
LC-006-003-----0
 62
     2
100
AcDbMText
 10
506.5960129999999
 20
-185.0
 30
0.0
 40
12.5
 41
0.0
 71
     5
 72
     1
  1
\A1;325,25
  7
LCTX0-400-0-0pDIN-Schrift
 73
     1
 44
1.0
1001
ACAD
1000
MTEXTBEGIN
1070
    73
1070
     1
1070
    44
1040
1.0
1070
    74
1070
     0
1000
MTEXTEND
  0
POINT
  5
512
330
50B
100
AcDbEntity
  8
Defpoints
 62
     0
100
AcDbPoint
 10
343.971013
 20
-34.625
 30
0.0
  0
POINT
  5
513
330
50B
100
AcDbEntity
  8
Defpoints
 62
     0
100
AcDbPoint
 10
669.2210129999999
 20
-34.625
 30
0.0
  0
POINT
  5
514
330
50B
100
AcDbEntity
  8
Defpoints
 62
     0
100
AcDbPoint
 10
669.2210129999999
 20
-200.0
 30
0.0
  0
ENDBLK
  5
516
330
50B
100
AcDbEntity
  8
0
100
AcDbBlockEnd
  0
BLOCK
  5
524
330
523
100
AcDbEntity
  8
0
100
AcDbBlockBegin
  2
*X24
 70
     1
 10
0.0
 20
0.0
 30
0.0
  3
*X24
  1

  4
*X8
  0
LINE
  5
526
330
523
100
AcDbEntity
  8
LC-001-002-----0
 62
     7
370
    35
100
AcDbLine
 10
501.461565
 20
290.0
 30
0.0
 11
511.7304599999999
 21
290.0
 31
0.0
  0
LINE
  5
527
330
523
100
AcDbEntity
  8
LC-001-002-----0
 62
     7
370
    35
100
AcDbLine
 10
501.4747309999999
 20
290.1
 30
0.0
 11
511.717295
 21
290.1
 31
0.0
  0
LINE
  5
528
330
523
100
AcDbEntity
  8
LC-001-002-----0
 62
     7
370
    35
100
AcDbLine
 10
501.4878959999999
 20
290.2
 30
0.0
 11
511.7041299999999
 21
290.2
 31
0.0
  0
LINE
  5
529
330
523
100
AcDbEntity
  8
LC-001-002-----0
 62
     7
370
    35
100
AcDbLine
 10
501.501061
 20
290.3
 30
0.0
 11
511.6909639999999
 21
290.3
 31
0.0
  0
LINE
  5
52A
330
523
100
AcDbEntity
  8
LC-001-002-----0
 62
     7
370
    35
100
AcDbLine
 10
501.5142259999999
 20
290.4
 30
0.0
 11
511.677799
 21
290.4
 31
0.0
  0
LINE
  5
52B
330
523
100
AcDbEntity
  8
LC-001-002-----0
 62
     7
370
    35
100
AcDbLine
 10
501.527392
 20
290.5
 30
0.0
 11
511.6646339999999
 21
290.5
 31
0.0
  0
LINE
  5
52C
330
523
100
AcDbEntity
  8
LC-001-002-----0
 62
     7
370
    35
100
AcDbLine
 10
501.540557
 20
290.6
 30
0.0
 11
511.651469
 21
290.6
 31
0.0
  0
LINE
  5
52D
330
523
100
AcDbEntity
  8
LC-001-002-----0
 62
     7
370
    35
100
AcDbLine
 10
501.5537219999999
 20
290.7
 30
0.0
 11
511.638303
 21
290.7
 31
0.0
  0
LINE
  5
52E
330
523
100
AcDbEntity
  8
LC-001-002-----0
 62
     7
370
    35
100
AcDbLine
 10
501.5668869999999
 20
290.8
 30
0.0
 11
511.625138
 21
290.8
 31
0.0
  0
LINE
  5
52F
330
523
100
AcDbEntity
  8
LC-001-002-----0
 62
     7
370
    35
100
AcDbLine
 10
501.5800529999999
 20
290.9
 30
0.0
 11
511.611973
 21
290.9
 31
0.0
  0
LINE
  5
530
330
523
100
AcDbEntity
  8
LC-001-002-----0
 62
     7
370
    35
100
AcDbLine
 10
501.593218
 20
291.0
 30
0.0
 11
511.598808
 21
291.0
 31
0.0
  0
LINE
  5
531
330
523
100
AcDbEntity
  8
LC-001-002-----0
 62
     7
370
    35
100
AcDbLine
 10
501.606383
 20
291.1000000000001
 30
0.0
 11
511.585642
 21
291.1000000000001
 31
0.0
  0
LINE
  5
532
330
523
100
AcDbEntity
  8
LC-001-002-----0
 62
     7
370
    35
100
AcDbLine
 10
501.619548
 20
291.2
 30
0.0
 11
511.5724769999999
 21
291.2
 31
0.0
  0
LINE
  5
533
330
523
100
AcDbEntity
  8
LC-001-002-----0
 62
     7
370
    35
100
AcDbLine
 10
501.6327139999999
 20
291.3
 30
0.0
 11
511.559312
 21
291.3
 31
0.0
  0
LINE
  5
534
330
523
100
AcDbEntity
  8
LC-001-002-----0
 62
     7
370
    35
100
AcDbLine
 10
501.6458789999999
 20
291.4
 30
0.0
 11
511.5461469999999
 21
291.4
 31
0.0
  0
LINE
  5
535
330
523
100
AcDbEntity
  8
LC-001-002-----0
 62
     7
370
    35
100
AcDbLine
 10
501.659044
 20
291.5
 30
0.0
 11
511.5329809999999
 21
291.5
 31
0.0
  0
LINE
  5
536
330
523
100
AcDbEntity
  8
LC-001-002-----0
 62
     7
370
    35
100
AcDbLine
 10
501.672209
 20
291.6
 30
0.0
 11
511.519816
 21
291.6
 31
0.0
  0
LINE
  5
537
330
523
100
AcDbEntity
  8
LC-001-002-----0
 62
     7
370
    35
100
AcDbLine
 10
501.685375
 20
291.7
 30
0.0
 11
511.506651
 21
291.7
 31
0.0
  0
LINE
  5
538
330
523
100
AcDbEntity
  8
LC-001-002-----0
 62
     7
370
    35
100
AcDbLine
 10
501.69854
 20
291.8
 30
0.0
 11
511.4934859999999
 21
291.8
 31
0.0
  0
LINE
  5
539
330
523
100
AcDbEntity
  8
LC-001-002-----0
 62
     7
370
    35
100
AcDbLine
 10
501.711705
 20
291.9
 30
0.0
 11
511.4803199999999
 21
291.9
 31
0.0
  0
LINE
  5
53A
330
523
100
AcDbEntity
  8
LC-001-002-----0
 62
     7
370
    35
100
AcDbLine
 10
501.72487
 20
292.0
 30
0.0
 11
511.4671549999999
 21
292.0
 31
0.0
  0
LINE
  5
53B
330
523
100
AcDbEntity
  8
LC-001-002-----0
 62
     7
370
    35
100
AcDbLine
 10
501.738036
 20
292.1
 30
0.0
 11
511.45399
 21
292.1
 31
0.0
  0
LINE
  5
53C
330
523
100
AcDbEntity
  8
LC-001-002-----0
 62
     7
370
    35
100
AcDbLine
 10
501.7512009999999
 20
292.2
 30
0.0
 11
511.440825
 21
292.2
 31
0.0
  0
LINE
  5
53D
330
523
100
AcDbEntity
  8
LC-001-002-----0
 62
     7
370
    35
100
AcDbLine
 10
501.764366
 20
292.3
 30
0.0
 11
511.427659
 21
292.3
 31
0.0
  0
LINE
  5
53E
330
523
100
AcDbEntity
  8
LC-001-002-----0
 62
     7
370
    35
100
AcDbLine
 10
501.7775309999999
 20
292.4
 30
0.0
 11
511.414494
 21
292.4
 31
0.0
  0
LINE
  5
53F
330
523
100
AcDbEntity
  8
LC-001-002-----0
 62
     7
370
    35
100
AcDbLine
 10
501.7906969999999
 20
292.5
 30
0.0
 11
511.4013289999999
 21
292.5
 31
0.0
  0
LINE
  5
540
330
523
100
AcDbEntity
  8
LC-001-002-----0
 62
     7
370
    35
100
AcDbLine
 10
501.803862
 20
292.6
 30
0.0
 11
511.3881639999999
 21
292.6
 31
0.0
  0
LINE
  5
541
330
523
100
AcDbEntity
  8
LC-001-002-----0
 62
     7
370
    35
100
AcDbLine
 10
501.8170269999999
 20
292.7
 30
0.0
 11
511.374998
 21
292.7
 31
0.0
  0
LINE
  5
542
330
523
100
AcDbEntity
  8
LC-001-002-----0
 62
     7
370
    35
100
AcDbLine
 10
501.8301919999999
 20
292.8
 30
0.0
 11
511.361833
 21
292.8
 31
0.0
  0
LINE
  5
543
330
523
100
AcDbEntity
  8
LC-001-002-----0
 62
     7
370
    35
100
AcDbLine
 10
501.8433579999999
 20
292.9
 30
0.0
 11
511.348668
 21
292.9
 31
0.0
  0
LINE
  5
544
330
523
100
AcDbEntity
  8
LC-001-002-----0
 62
     7
370
    35
100
AcDbLine
 10
501.856523
 20
293.0
 30
0.0
 11
511.335503
 21
293.0
 31
0.0
  0
LINE
  5
545
330
523
100
AcDbEntity
  8
LC-001-002-----0
 62
     7
370
    35
100
AcDbLine
 10
501.869688
 20
293.1
 30
0.0
 11
511.322337
 21
293.1
 31
0.0
  0
LINE
  5
546
330
523
100
AcDbEntity
  8
LC-001-002-----0
 62
     7
370
    35
100
AcDbLine
 10
501.882853
 20
293.2
 30
0.0
 11
511.3091719999999
 21
293.2
 31
0.0
  0
LINE
  5
547
330
523
100
AcDbEntity
  8
LC-001-002-----0
 62
     7
370
    35
100
AcDbLine
 10
501.896019
 20
293.3
 30
0.0
 11
511.296007
 21
293.3
 31
0.0
  0
LINE
  5
548
330
523
100
AcDbEntity
  8
LC-001-002-----0
 62
     7
370
    35
100
AcDbLine
 10
501.9091839999999
 20
293.4
 30
0.0
 11
511.282842
 21
293.4
 31
0.0
  0
LINE
  5
549
330
523
100
AcDbEntity
  8
LC-001-002-----0
 62
     7
370
    35
100
AcDbLine
 10
501.9223489999999
 20
293.5
 30
0.0
 11
511.269676
 21
293.5
 31
0.0
  0
LINE
  5
54A
330
523
100
AcDbEntity
  8
LC-001-002-----0
 62
     7
370
    35
100
AcDbLine
 10
501.935514
 20
293.6
 30
0.0
 11
511.256511
 21
293.6
 31
0.0
  0
LINE
  5
54B
330
523
100
AcDbEntity
  8
LC-001-002-----0
 62
     7
370
    35
100
AcDbLine
 10
501.94868
 20
293.7
 30
0.0
 11
511.243346
 21
293.7
 31
0.0
  0
LINE
  5
54C
330
523
100
AcDbEntity
  8
LC-001-002-----0
 62
     7
370
    35
100
AcDbLine
 10
501.961845
 20
293.8
 30
0.0
 11
511.2301809999999
 21
293.8
 31
0.0
  0
LINE
  5
54D
330
523
100
AcDbEntity
  8
LC-001-002-----0
 62
     7
370
    35
100
AcDbLine
 10
501.9750099999999
 20
293.9
 30
0.0
 11
511.217015
 21
293.9
 31
0.0
  0
LINE
  5
54E
330
523
100
AcDbEntity
  8
LC-001-002-----0
 62
     7
370
    35
100
AcDbLine
 10
501.988175
 20
294.0
 30
0.0
 11
511.2038499999999
 21
294.0
 31
0.0
  0
LINE
  5
54F
330
523
100
AcDbEntity
  8
LC-001-002-----0
 62
     7
370
    35
100
AcDbLine
 10
502.001341
 20
294.1
 30
0.0
 11
511.1906849999999
 21
294.1
 31
0.0
  0
LINE
  5
550
330
523
100
AcDbEntity
  8
LC-001-002-----0
 62
     7
370
    35
100
AcDbLine
 10
502.0145059999999
 20
294.2
 30
0.0
 11
511.17752
 21
294.2
 31
0.0
  0
LINE
  5
551
330
523
100
AcDbEntity
  8
LC-001-002-----0
 62
     7
370
    35
100
AcDbLine
 10
502.027671
 20
294.3
 30
0.0
 11
511.164354
 21
294.3
 31
0.0
  0
LINE
  5
552
330
523
100
AcDbEntity
  8
LC-001-002-----0
 62
     7
370
    35
100
AcDbLine
 10
502.040836
 20
294.4
 30
0.0
 11
511.151189
 21
294.4
 31
0.0
  0
LINE
  5
553
330
523
100
AcDbEntity
  8
LC-001-002-----0
 62
     7
370
    35
100
AcDbLine
 10
502.0540019999999
 20
294.5
 30
0.0
 11
511.138024
 21
294.5
 31
0.0
  0
LINE
  5
554
330
523
100
AcDbEntity
  8
LC-001-002-----0
 62
     7
370
    35
100
AcDbLine
 10
502.0671669999999
 20
294.6
 30
0.0
 11
511.1248589999999
 21
294.6
 31
0.0
  0
LINE
  5
555
330
523
100
AcDbEntity
  8
LC-001-002-----0
 62
     7
370
    35
100
AcDbLine
 10
502.080332
 20
294.7
 30
0.0
 11
511.1116929999999
 21
294.7
 31
0.0
  0
LINE
  5
556
330
523
100
AcDbEntity
  8
LC-001-002-----0
 62
     7
370
    35
100
AcDbLine
 10
502.0934969999999
 20
294.8
 30
0.0
 11
511.098528
 21
294.8
 31
0.0
  0
LINE
  5
557
330
523
100
AcDbEntity
  8
LC-001-002-----0
 62
     7
370
    35
100
AcDbLine
 10
502.1066629999999
 20
294.9
 30
0.0
 11
511.085363
 21
294.9
 31
0.0
  0
LINE
  5
558
330
523
100
AcDbEntity
  8
LC-001-002-----0
 62
     7
370
    35
100
AcDbLine
 10
502.119828
 20
295.0
 30
0.0
 11
511.072198
 21
295.0
 31
0.0
  0
LINE
  5
559
330
523
100
AcDbEntity
  8
LC-001-002-----0
 62
     7
370
    35
100
AcDbLine
 10
502.1329929999999
 20
295.1
 30
0.0
 11
511.059032
 21
295.1
 31
0.0
  0
LINE
  5
55A
330
523
100
AcDbEntity
  8
LC-001-002-----0
 62
     7
370
    35
100
AcDbLine
 10
502.146158
 20
295.2
 30
0.0
 11
511.0458669999999
 21
295.2
 31
0.0
  0
LINE
  5
55B
330
523
100
AcDbEntity
  8
LC-001-002-----0
 62
     7
370
    35
100
AcDbLine
 10
502.159324
 20
295.3
 30
0.0
 11
511.0327019999999
 21
295.3
 31
0.0
  0
LINE
  5
55C
330
523
100
AcDbEntity
  8
LC-001-002-----0
 62
     7
370
    35
100
AcDbLine
 10
502.1724889999999
 20
295.4
 30
0.0
 11
511.019537
 21
295.4
 31
0.0
  0
LINE
  5
55D
330
523
100
AcDbEntity
  8
LC-001-002-----0
 62
     7
370
    35
100
AcDbLine
 10
502.1856539999999
 20
295.5
 30
0.0
 11
511.006371
 21
295.5
 31
0.0
  0
LINE
  5
55E
330
523
100
AcDbEntity
  8
LC-001-002-----0
 62
     7
370
    35
100
AcDbLine
 10
502.198819
 20
295.6
 30
0.0
 11
510.993206
 21
295.6
 31
0.0
  0
LINE
  5
55F
330
523
100
AcDbEntity
  8
LC-001-002-----0
 62
     7
370
    35
100
AcDbLine
 10
502.211985
 20
295.7
 30
0.0
 11
510.980041
 21
295.7
 31
0.0
  0
LINE
  5
560
330
523
100
AcDbEntity
  8
LC-001-002-----0
 62
     7
370
    35
100
AcDbLine
 10
502.22515
 20
295.8
 30
0.0
 11
510.9668759999999
 21
295.8
 31
0.0
  0
LINE
  5
561
330
523
100
AcDbEntity
  8
LC-001-002-----0
 62
     7
370
    35
100
AcDbLine
 10
502.238315
 20
295.8999999999999
 30
0.0
 11
510.9537099999999
 21
295.8999999999999
 31
0.0
  0
LINE
  5
562
330
523
100
AcDbEntity
  8
LC-001-002-----0
 62
     7
370
    35
100
AcDbLine
 10
502.2514799999999
 20
296.0
 30
0.0
 11
510.940545
 21
296.0
 31
0.0
  0
LINE
  5
563
330
523
100
AcDbEntity
  8
LC-001-002-----0
 62
     7
370
    35
100
AcDbLine
 10
502.2646459999999
 20
296.1
 30
0.0
 11
510.9273799999999
 21
296.1
 31
0.0
  0
LINE
  5
564
330
523
100
AcDbEntity
  8
LC-001-002-----0
 62
     7
370
    35
100
AcDbLine
 10
502.277811
 20
296.2
 30
0.0
 11
510.914215
 21
296.2
 31
0.0
  0
LINE
  5
565
330
523
100
AcDbEntity
  8
LC-001-002-----0
 62
     7
370
    35
100
AcDbLine
 10
502.290976
 20
296.3
 30
0.0
 11
510.901049
 21
296.3
 31
0.0
  0
LINE
  5
566
330
523
100
AcDbEntity
  8
LC-001-002-----0
 62
     7
370
    35
100
AcDbLine
 10
502.304141
 20
296.4
 30
0.0
 11
510.887884
 21
296.4
 31
0.0
  0
LINE
  5
567
330
523
100
AcDbEntity
  8
LC-001-002-----0
 62
     7
370
    35
100
AcDbLine
 10
502.317307
 20
296.5
 30
0.0
 11
510.874719
 21
296.5
 31
0.0
  0
LINE
  5
568
330
523
100
AcDbEntity
  8
LC-001-002-----0
 62
     7
370
    35
100
AcDbLine
 10
502.3304719999999
 20
296.6
 30
0.0
 11
510.861554
 21
296.6
 31
0.0
  0
LINE
  5
569
330
523
100
AcDbEntity
  8
LC-001-002-----0
 62
     7
370
    35
100
AcDbLine
 10
502.3436369999999
 20
296.7
 30
0.0
 11
510.848388
 21
296.7
 31
0.0
  0
LINE
  5
56A
330
523
100
AcDbEntity
  8
LC-001-002-----0
 62
     7
370
    35
100
AcDbLine
 10
502.3568019999999
 20
296.8
 30
0.0
 11
510.835223
 21
296.8
 31
0.0
  0
LINE
  5
56B
330
523
100
AcDbEntity
  8
LC-001-002-----0
 62
     7
370
    35
100
AcDbLine
 10
502.369968
 20
296.9
 30
0.0
 11
510.822058
 21
296.9
 31
0.0
  0
LINE
  5
56C
330
523
100
AcDbEntity
  8
LC-001-002-----0
 62
     7
370
    35
100
AcDbLine
 10
502.383133
 20
297.0
 30
0.0
 11
510.808893
 21
297.0
 31
0.0
  0
LINE
  5
56D
330
523
100
AcDbEntity
  8
LC-001-002-----0
 62
     7
370
    35
100
AcDbLine
 10
502.396298
 20
297.1
 30
0.0
 11
510.7957269999999
 21
297.1
 31
0.0
  0
LINE
  5
56E
330
523
100
AcDbEntity
  8
LC-001-002-----0
 62
     7
370
    35
100
AcDbLine
 10
502.409463
 20
297.2
 30
0.0
 11
510.7825619999999
 21
297.2
 31
0.0
  0
LINE
  5
56F
330
523
100
AcDbEntity
  8
LC-001-002-----0
 62
     7
370
    35
100
AcDbLine
 10
502.422629
 20
297.3
 30
0.0
 11
510.7693969999999
 21
297.3
 31
0.0
  0
LINE
  5
570
330
523
100
AcDbEntity
  8
LC-001-002-----0
 62
     7
370
    35
100
AcDbLine
 10
502.435794
 20
297.4
 30
0.0
 11
510.756232
 21
297.4
 31
0.0
  0
LINE
  5
571
330
523
100
AcDbEntity
  8
LC-001-002-----0
 62
     7
370
    35
100
AcDbLine
 10
502.4489589999999
 20
297.5
 30
0.0
 11
510.743066
 21
297.5
 31
0.0
  0
LINE
  5
572
330
523
100
AcDbEntity
  8
LC-001-002-----0
 62
     7
370
    35
100
AcDbLine
 10
502.462124
 20
297.6
 30
0.0
 11
510.729901
 21
297.6
 31
0.0
  0
LINE
  5
573
330
523
100
AcDbEntity
  8
LC-001-002-----0
 62
     7
370
    35
100
AcDbLine
 10
502.47529
 20
297.7
 30
0.0
 11
510.716736
 21
297.7
 31
0.0
  0
LINE
  5
574
330
523
100
AcDbEntity
  8
LC-001-002-----0
 62
     7
370
    35
100
AcDbLine
 10
502.488455
 20
297.8
 30
0.0
 11
510.7035709999999
 21
297.8
 31
0.0
  0
LINE
  5
575
330
523
100
AcDbEntity
  8
LC-001-002-----0
 62
     7
370
    35
100
AcDbLine
 10
502.50162
 20
297.9
 30
0.0
 11
510.6904049999999
 21
297.9
 31
0.0
  0
LINE
  5
576
330
523
100
AcDbEntity
  8
LC-001-002-----0
 62
     7
370
    35
100
AcDbLine
 10
502.5147849999999
 20
298.0
 30
0.0
 11
510.67724
 21
298.0
 31
0.0
  0
LINE
  5
577
330
523
100
AcDbEntity
  8
LC-001-002-----0
 62
     7
370
    35
100
AcDbLine
 10
502.5279509999999
 20
298.1
 30
0.0
 11
510.664075
 21
298.1
 31
0.0
  0
LINE
  5
578
330
523
100
AcDbEntity
  8
LC-001-002-----0
 62
     7
370
    35
100
AcDbLine
 10
502.5411159999999
 20
298.2
 30
0.0
 11
510.6509099999999
 21
298.2
 31
0.0
  0
LINE
  5
579
330
523
100
AcDbEntity
  8
LC-001-002-----0
 62
     7
370
    35
100
AcDbLine
 10
502.5542809999999
 20
298.3
 30
0.0
 11
510.6377440000001
 21
298.3
 31
0.0
  0
LINE
  5
57A
330
523
100
AcDbEntity
  8
LC-001-002-----0
 62
     7
370
    35
100
AcDbLine
 10
502.567446
 20
298.4
 30
0.0
 11
510.624579
 21
298.4
 31
0.0
  0
LINE
  5
57B
330
523
100
AcDbEntity
  8
LC-001-002-----0
 62
     7
370
    35
100
AcDbLine
 10
502.580612
 20
298.5
 30
0.0
 11
510.6114139999999
 21
298.5
 31
0.0
  0
LINE
  5
57C
330
523
100
AcDbEntity
  8
LC-001-002-----0
 62
     7
370
    35
100
AcDbLine
 10
502.5937769999999
 20
298.6
 30
0.0
 11
510.598249
 21
298.6
 31
0.0
  0
LINE
  5
57D
330
523
100
AcDbEntity
  8
LC-001-002-----0
 62
     7
370
    35
100
AcDbLine
 10
502.6069419999999
 20
298.7
 30
0.0
 11
510.585083
 21
298.7
 31
0.0
  0
LINE
  5
57E
330
523
100
AcDbEntity
  8
LC-001-002-----0
 62
     7
370
    35
100
AcDbLine
 10
502.6201069999999
 20
298.8
 30
0.0
 11
510.571918
 21
298.8
 31
0.0
  0
LINE
  5
57F
330
523
100
AcDbEntity
  8
LC-001-002-----0
 62
     7
370
    35
100
AcDbLine
 10
502.633273
 20
298.9
 30
0.0
 11
510.558753
 21
298.9
 31
0.0
  0
LINE
  5
580
330
523
100
AcDbEntity
  8
LC-001-002-----0
 62
     7
370
    35
100
AcDbLine
 10
502.646438
 20
299.0
 30
0.0
 11
510.545588
 21
299.0
 31
0.0
  0
LINE
  5
581
330
523
100
AcDbEntity
  8
LC-001-002-----0
 62
     7
370
    35
100
AcDbLine
 10
502.659603
 20
299.1
 30
0.0
 11
510.5324219999999
 21
299.1
 31
0.0
  0
LINE
  5
582
330
523
100
AcDbEntity
  8
LC-001-002-----0
 62
     7
370
    35
100
AcDbLine
 10
502.6727679999999
 20
299.2
 30
0.0
 11
510.519257
 21
299.2
 31
0.0
  0
LINE
  5
583
330
523
100
AcDbEntity
  8
LC-001-002-----0
 62
     7
370
    35
100
AcDbLine
 10
502.6859339999999
 20
299.3
 30
0.0
 11
510.5060919999999
 21
299.3
 31
0.0
  0
LINE
  5
584
330
523
100
AcDbEntity
  8
LC-001-002-----0
 62
     7
370
    35
100
AcDbLine
 10
502.699099
 20
299.4
 30
0.0
 11
510.4929269999999
 21
299.4
 31
0.0
  0
LINE
  5
585
330
523
100
AcDbEntity
  8
LC-001-002-----0
 62
     7
370
    35
100
AcDbLine
 10
502.7122639999999
 20
299.5
 30
0.0
 11
510.479761
 21
299.5
 31
0.0
  0
LINE
  5
586
330
523
100
AcDbEntity
  8
LC-001-002-----0
 62
     7
370
    35
100
AcDbLine
 10
502.725429
 20
299.6
 30
0.0
 11
510.466596
 21
299.6
 31
0.0
  0
LINE
  5
587
330
523
100
AcDbEntity
  8
LC-001-002-----0
 62
     7
370
    35
100
AcDbLine
 10
502.738595
 20
299.7
 30
0.0
 11
510.453431
 21
299.7
 31
0.0
  0
LINE
  5
588
330
523
100
AcDbEntity
  8
LC-001-002-----0
 62
     7
370
    35
100
AcDbLine
 10
502.75176
 20
299.8
 30
0.0
 11
510.4402659999999
 21
299.8
 31
0.0
  0
LINE
  5
589
330
523
100
AcDbEntity
  8
LC-001-002-----0
 62
     7
370
    35
100
AcDbLine
 10
502.764925
 20
299.9
 30
0.0
 11
510.4270999999999
 21
299.9
 31
0.0
  0
LINE
  5
58A
330
523
100
AcDbEntity
  8
LC-001-002-----0
 62
     7
370
    35
100
AcDbLine
 10
502.77809
 20
300.0
 30
0.0
 11
510.4139349999999
 21
300.0
 31
0.0
  0
LINE
  5
58B
330
523
100
AcDbEntity
  8
LC-001-002-----0
 62
     7
370
    35
100
AcDbLine
 10
502.7912559999999
 20
300.1
 30
0.0
 11
510.40077
 21
300.1
 31
0.0
  0
LINE
  5
58C
330
523
100
AcDbEntity
  8
LC-001-002-----0
 62
     7
370
    35
100
AcDbLine
 10
502.804421
 20
300.2
 30
0.0
 11
510.387605
 21
300.2
 31
0.0
  0
LINE
  5
58D
330
523
100
AcDbEntity
  8
LC-001-002-----0
 62
     7
370
    35
100
AcDbLine
 10
502.817586
 20
300.3
 30
0.0
 11
510.3744389999999
 21
300.3
 31
0.0
  0
LINE
  5
58E
330
523
100
AcDbEntity
  8
LC-001-002-----0
 62
     7
370
    35
100
AcDbLine
 10
502.8307509999999
 20
300.4
 30
0.0
 11
510.361274
 21
300.4
 31
0.0
  0
LINE
  5
58F
330
523
100
AcDbEntity
  8
LC-001-002-----0
 62
     7
370
    35
100
AcDbLine
 10
502.8439169999999
 20
300.5
 30
0.0
 11
510.3481089999999
 21
300.5
 31
0.0
  0
LINE
  5
590
330
523
100
AcDbEntity
  8
LC-001-002-----0
 62
     7
370
    35
100
AcDbLine
 10
502.857082
 20
300.6
 30
0.0
 11
510.334944
 21
300.6
 31
0.0
  0
LINE
  5
591
330
523
100
AcDbEntity
  8
LC-001-002-----0
 62
     7
370
    35
100
AcDbLine
 10
502.8702469999999
 20
300.7
 30
0.0
 11
510.321778
 21
300.7
 31
0.0
  0
LINE
  5
592
330
523
100
AcDbEntity
  8
LC-001-002-----0
 62
     7
370
    35
100
AcDbLine
 10
502.8834119999999
 20
300.8
 30
0.0
 11
510.308613
 21
300.8
 31
0.0
  0
LINE
  5
593
330
523
100
AcDbEntity
  8
LC-001-002-----0
 62
     7
370
    35
100
AcDbLine
 10
502.896578
 20
300.9
 30
0.0
 11
510.295448
 21
300.9
 31
0.0
  0
LINE
  5
594
330
523
100
AcDbEntity
  8
LC-001-002-----0
 62
     7
370
    35
100
AcDbLine
 10
502.909743
 20
301.0
 30
0.0
 11
510.282283
 21
301.0
 31
0.0
  0
LINE
  5
595
330
523
100
AcDbEntity
  8
LC-001-002-----0
 62
     7
370
    35
100
AcDbLine
 10
502.922908
 20
301.1
 30
0.0
 11
510.2691169999999
 21
301.1
 31
0.0
  0
LINE
  5
596
330
523
100
AcDbEntity
  8
LC-001-002-----0
 62
     7
370
    35
100
AcDbLine
 10
502.936073
 20
301.2
 30
0.0
 11
510.2559519999999
 21
301.2
 31
0.0
  0
LINE
  5
597
330
523
100
AcDbEntity
  8
LC-001-002-----0
 62
     7
370
    35
100
AcDbLine
 10
502.9492389999999
 20
301.3
 30
0.0
 11
510.242787
 21
301.3
 31
0.0
  0
LINE
  5
598
330
523
100
AcDbEntity
  8
LC-001-002-----0
 62
     7
370
    35
100
AcDbLine
 10
502.9624039999999
 20
301.4
 30
0.0
 11
510.2296219999999
 21
301.4
 31
0.0
  0
LINE
  5
599
330
523
100
AcDbEntity
  8
LC-001-002-----0
 62
     7
370
    35
100
AcDbLine
 10
502.975569
 20
301.5
 30
0.0
 11
510.2164559999999
 21
301.5
 31
0.0
  0
LINE
  5
59A
330
523
100
AcDbEntity
  8
LC-001-002-----0
 62
     7
370
    35
100
AcDbLine
 10
502.988734
 20
301.6
 30
0.0
 11
510.203291
 21
301.6
 31
0.0
  0
LINE
  5
59B
330
523
100
AcDbEntity
  8
LC-001-002-----0
 62
     7
370
    35
100
AcDbLine
 10
503.0019
 20
301.7
 30
0.0
 11
510.1901259999999
 21
301.7
 31
0.0
  0
LINE
  5
59C
330
523
100
AcDbEntity
  8
LC-001-002-----0
 62
     7
370
    35
100
AcDbLine
 10
503.015065
 20
301.8
 30
0.0
 11
510.1769609999999
 21
301.8
 31
0.0
  0
LINE
  5
59D
330
523
100
AcDbEntity
  8
LC-001-002-----0
 62
     7
370
    35
100
AcDbLine
 10
503.02823
 20
301.9
 30
0.0
 11
510.1637949999999
 21
301.9
 31
0.0
  0
LINE
  5
59E
330
523
100
AcDbEntity
  8
LC-001-002-----0
 62
     7
370
    35
100
AcDbLine
 10
503.041395
 20
302.0
 30
0.0
 11
510.1506299999999
 21
302.0
 31
0.0
  0
LINE
  5
59F
330
523
100
AcDbEntity
  8
LC-001-002-----0
 62
     7
370
    35
100
AcDbLine
 10
503.054561
 20
302.1
 30
0.0
 11
510.137465
 21
302.1
 31
0.0
  0
LINE
  5
5A0
330
523
100
AcDbEntity
  8
LC-001-002-----0
 62
     7
370
    35
100
AcDbLine
 10
503.067726
 20
302.2
 30
0.0
 11
510.1243
 21
302.2
 31
0.0
  0
LINE
  5
5A1
330
523
100
AcDbEntity
  8
LC-001-002-----0
 62
     7
370
    35
100
AcDbLine
 10
503.080891
 20
302.3
 30
0.0
 11
510.111134
 21
302.3
 31
0.0
  0
LINE
  5
5A2
330
523
100
AcDbEntity
  8
LC-001-002-----0
 62
     7
370
    35
100
AcDbLine
 10
503.0940559999999
 20
302.4
 30
0.0
 11
510.097969
 21
302.4
 31
0.0
  0
LINE
  5
5A3
330
523
100
AcDbEntity
  8
LC-001-002-----0
 62
     7
370
    35
100
AcDbLine
 10
503.1072219999999
 20
302.5
 30
0.0
 11
510.084804
 21
302.5
 31
0.0
  0
LINE
  5
5A4
330
523
100
AcDbEntity
  8
LC-001-002-----0
 62
     7
370
    35
100
AcDbLine
 10
503.1203869999999
 20
302.6
 30
0.0
 11
510.0716389999999
 21
302.6
 31
0.0
  0
LINE
  5
5A5
330
523
100
AcDbEntity
  8
LC-001-002-----0
 62
     7
370
    35
100
AcDbLine
 10
503.1335519999999
 20
302.7
 30
0.0
 11
510.058473
 21
302.7
 31
0.0
  0
LINE
  5
5A6
330
523
100
AcDbEntity
  8
LC-001-002-----0
 62
     7
370
    35
100
AcDbLine
 10
503.1467169999999
 20
302.8
 30
0.0
 11
510.045308
 21
302.8
 31
0.0
  0
LINE
  5
5A7
330
523
100
AcDbEntity
  8
LC-001-002-----0
 62
     7
370
    35
100
AcDbLine
 10
503.159883
 20
302.9
 30
0.0
 11
510.032143
 21
302.9
 31
0.0
  0
LINE
  5
5A8
330
523
100
AcDbEntity
  8
LC-001-002-----0
 62
     7
370
    35
100
AcDbLine
 10
503.173048
 20
303.0
 30
0.0
 11
510.018978
 21
303.0
 31
0.0
  0
LINE
  5
5A9
330
523
100
AcDbEntity
  8
LC-001-002-----0
 62
     7
370
    35
100
AcDbLine
 10
503.186213
 20
303.1
 30
0.0
 11
510.0058119999999
 21
303.1
 31
0.0
  0
LINE
  5
5AA
330
523
100
AcDbEntity
  8
LC-001-002-----0
 62
     7
370
    35
100
AcDbLine
 10
503.199378
 20
303.2
 30
0.0
 11
509.9926469999999
 21
303.2
 31
0.0
  0
LINE
  5
5AB
330
523
100
AcDbEntity
  8
LC-001-002-----0
 62
     7
370
    35
100
AcDbLine
 10
503.212544
 20
303.3
 30
0.0
 11
509.979482
 21
303.3
 31
0.0
  0
LINE
  5
5AC
330
523
100
AcDbEntity
  8
LC-001-002-----0
 62
     7
370
    35
100
AcDbLine
 10
503.2257089999999
 20
303.4
 30
0.0
 11
509.966317
 21
303.4
 31
0.0
  0
LINE
  5
5AD
330
523
100
AcDbEntity
  8
LC-001-002-----0
 62
     7
370
    35
100
AcDbLine
 10
503.238874
 20
303.5
 30
0.0
 11
509.953151
 21
303.5
 31
0.0
  0
LINE
  5
5AE
330
523
100
AcDbEntity
  8
LC-001-002-----0
 62
     7
370
    35
100
AcDbLine
 10
503.252039
 20
303.6
 30
0.0
 11
509.939986
 21
303.6
 31
0.0
  0
LINE
  5
5AF
330
523
100
AcDbEntity
  8
LC-001-002-----0
 62
     7
370
    35
100
AcDbLine
 10
503.265205
 20
303.7
 30
0.0
 11
509.9268209999999
 21
303.7
 31
0.0
  0
LINE
  5
5B0
330
523
100
AcDbEntity
  8
LC-001-002-----0
 62
     7
370
    35
100
AcDbLine
 10
503.27837
 20
303.8
 30
0.0
 11
509.9136559999999
 21
303.8
 31
0.0
  0
LINE
  5
5B1
330
523
100
AcDbEntity
  8
LC-001-002-----0
 62
     7
370
    35
100
AcDbLine
 10
503.2915349999999
 20
303.9
 30
0.0
 11
509.90049
 21
303.9
 31
0.0
  0
LINE
  5
5B2
330
523
100
AcDbEntity
  8
LC-001-002-----0
 62
     7
370
    35
100
AcDbLine
 10
503.3047
 20
304.0
 30
0.0
 11
509.8873249999999
 21
304.0
 31
0.0
  0
LINE
  5
5B3
330
523
100
AcDbEntity
  8
LC-001-002-----0
 62
     7
370
    35
100
AcDbLine
 10
503.317866
 20
304.1
 30
0.0
 11
509.8741599999999
 21
304.1
 31
0.0
  0
LINE
  5
5B4
330
523
100
AcDbEntity
  8
LC-001-002-----0
 62
     7
370
    35
100
AcDbLine
 10
503.3310309999999
 20
304.2
 30
0.0
 11
509.860995
 21
304.2
 31
0.0
  0
LINE
  5
5B5
330
523
100
AcDbEntity
  8
LC-001-002-----0
 62
     7
370
    35
100
AcDbLine
 10
503.344196
 20
304.3
 30
0.0
 11
509.847829
 21
304.3
 31
0.0
  0
LINE
  5
5B6
330
523
100
AcDbEntity
  8
LC-001-002-----0
 62
     7
370
    35
100
AcDbLine
 10
503.357361
 20
304.4
 30
0.0
 11
509.8346639999999
 21
304.4
 31
0.0
  0
LINE
  5
5B7
330
523
100
AcDbEntity
  8
LC-001-002-----0
 62
     7
370
    35
100
AcDbLine
 10
503.3705269999999
 20
304.5
 30
0.0
 11
509.821499
 21
304.5
 31
0.0
  0
LINE
  5
5B8
330
523
100
AcDbEntity
  8
LC-001-002-----0
 62
     7
370
    35
100
AcDbLine
 10
503.3836919999999
 20
304.6
 30
0.0
 11
509.808334
 21
304.6
 31
0.0
  0
LINE
  5
5B9
330
523
100
AcDbEntity
  8
LC-001-002-----0
 62
     7
370
    35
100
AcDbLine
 10
503.3968569999999
 20
304.7
 30
0.0
 11
509.795168
 21
304.7
 31
0.0
  0
LINE
  5
5BA
330
523
100
AcDbEntity
  8
LC-001-002-----0
 62
     7
370
    35
100
AcDbLine
 10
503.410022
 20
304.8
 30
0.0
 11
509.782003
 21
304.8
 31
0.0
  0
LINE
  5
5BB
330
523
100
AcDbEntity
  8
LC-001-002-----0
 62
     7
370
    35
100
AcDbLine
 10
503.423188
 20
304.9
 30
0.0
 11
509.768838
 21
304.9
 31
0.0
  0
LINE
  5
5BC
330
523
100
AcDbEntity
  8
LC-001-002-----0
 62
     7
370
    35
100
AcDbLine
 10
503.436353
 20
305.0
 30
0.0
 11
509.755673
 21
305.0
 31
0.0
  0
LINE
  5
5BD
330
523
100
AcDbEntity
  8
LC-001-002-----0
 62
     7
370
    35
100
AcDbLine
 10
503.4495179999999
 20
305.1
 30
0.0
 11
509.742507
 21
305.1
 31
0.0
  0
LINE
  5
5BE
330
523
100
AcDbEntity
  8
LC-001-002-----0
 62
     7
370
    35
100
AcDbLine
 10
503.462683
 20
305.2
 30
0.0
 11
509.7293419999999
 21
305.2
 31
0.0
  0
LINE
  5
5BF
330
523
100
AcDbEntity
  8
LC-001-002-----0
 62
     7
370
    35
100
AcDbLine
 10
503.475849
 20
305.3
 30
0.0
 11
509.7161769999999
 21
305.3
 31
0.0
  0
LINE
  5
5C0
330
523
100
AcDbEntity
  8
LC-001-002-----0
 62
     7
370
    35
100
AcDbLine
 10
503.4890139999999
 20
305.4
 30
0.0
 11
509.703012
 21
305.4
 31
0.0
  0
LINE
  5
5C1
330
523
100
AcDbEntity
  8
LC-001-002-----0
 62
     7
370
    35
100
AcDbLine
 10
503.502179
 20
305.5
 30
0.0
 11
509.689846
 21
305.5
 31
0.0
  0
LINE
  5
5C2
330
523
100
AcDbEntity
  8
LC-001-002-----0
 62
     7
370
    35
100
AcDbLine
 10
503.515344
 20
305.6
 30
0.0
 11
509.676681
 21
305.6
 31
0.0
  0
LINE
  5
5C3
330
523
100
AcDbEntity
  8
LC-001-002-----0
 62
     7
370
    35
100
AcDbLine
 10
503.52851
 20
305.7
 30
0.0
 11
509.6635159999999
 21
305.7
 31
0.0
  0
LINE
  5
5C4
330
523
100
AcDbEntity
  8
LC-001-002-----0
 62
     7
370
    35
100
AcDbLine
 10
503.541675
 20
305.8
 30
0.0
 11
509.6503509999999
 21
305.8
 31
0.0
  0
LINE
  5
5C5
330
523
100
AcDbEntity
  8
LC-001-002-----0
 62
     7
370
    35
100
AcDbLine
 10
503.55484
 20
305.9
 30
0.0
 11
509.6371849999999
 21
305.9
 31
0.0
  0
LINE
  5
5C6
330
523
100
AcDbEntity
  8
LC-001-002-----0
 62
     7
370
    35
100
AcDbLine
 10
503.5680049999999
 20
306.0
 30
0.0
 11
509.62402
 21
306.0
 31
0.0
  0
LINE
  5
5C7
330
523
100
AcDbEntity
  8
LC-001-002-----0
 62
     7
370
    35
100
AcDbLine
 10
503.5811709999999
 20
306.1
 30
0.0
 11
509.6108549999999
 21
306.1
 31
0.0
  0
LINE
  5
5C8
330
523
100
AcDbEntity
  8
LC-001-002-----0
 62
     7
370
    35
100
AcDbLine
 10
503.594336
 20
306.2
 30
0.0
 11
509.5976900000001
 21
306.2
 31
0.0
  0
LINE
  5
5C9
330
523
100
AcDbEntity
  8
LC-001-002-----0
 62
     7
370
    35
100
AcDbLine
 10
503.6075009999999
 20
306.3
 30
0.0
 11
509.584524
 21
306.3
 31
0.0
  0
LINE
  5
5CA
330
523
100
AcDbEntity
  8
LC-001-002-----0
 62
     7
370
    35
100
AcDbLine
 10
503.620666
 20
306.4
 30
0.0
 11
509.5713589999999
 21
306.4
 31
0.0
  0
LINE
  5
5CB
330
523
100
AcDbEntity
  8
LC-001-002-----0
 62
     7
370
    35
100
AcDbLine
 10
503.633832
 20
306.5
 30
0.0
 11
509.558194
 21
306.5
 31
0.0
  0
LINE
  5
5CC
330
523
100
AcDbEntity
  8
LC-001-002-----0
 62
     7
370
    35
100
AcDbLine
 10
503.6469969999999
 20
306.6
 30
0.0
 11
509.545029
 21
306.6
 31
0.0
  0
LINE
  5
5CD
330
523
100
AcDbEntity
  8
LC-001-002-----0
 62
     7
370
    35
100
AcDbLine
 10
503.6601619999999
 20
306.7
 30
0.0
 11
509.531863
 21
306.7
 31
0.0
  0
LINE
  5
5CE
330
523
100
AcDbEntity
  8
LC-001-002-----0
 62
     7
370
    35
100
AcDbLine
 10
503.673327
 20
306.8
 30
0.0
 11
509.518698
 21
306.8
 31
0.0
  0
LINE
  5
5CF
330
523
100
AcDbEntity
  8
LC-001-002-----0
 62
     7
370
    35
100
AcDbLine
 10
503.686493
 20
306.9
 30
0.0
 11
509.505533
 21
306.9
 31
0.0
  0
LINE
  5
5D0
330
523
100
AcDbEntity
  8
LC-001-002-----0
 62
     7
370
    35
100
AcDbLine
 10
503.699658
 20
307.0
 30
0.0
 11
509.4923679999999
 21
307.0
 31
0.0
  0
LINE
  5
5D1
330
523
100
AcDbEntity
  8
LC-001-002-----0
 62
     7
370
    35
100
AcDbLine
 10
503.712823
 20
307.1
 30
0.0
 11
509.4792019999998
 21
307.1
 31
0.0
  0
LINE
  5
5D2
330
523
100
AcDbEntity
  8
LC-001-002-----0
 62
     7
370
    35
100
AcDbLine
 10
503.7259879999999
 20
307.2
 30
0.0
 11
509.466037
 21
307.2
 31
0.0
  0
LINE
  5
5D3
330
523
100
AcDbEntity
  8
LC-001-002-----0
 62
     7
370
    35
100
AcDbLine
 10
503.7391539999999
 20
307.3
 30
0.0
 11
509.4528719999999
 21
307.3
 31
0.0
  0
LINE
  5
5D4
330
523
100
AcDbEntity
  8
LC-001-002-----0
 62
     7
370
    35
100
AcDbLine
 10
503.752319
 20
307.4
 30
0.0
 11
509.439707
 21
307.4
 31
0.0
  0
LINE
  5
5D5
330
523
100
AcDbEntity
  8
LC-001-002-----0
 62
     7
370
    35
100
AcDbLine
 10
503.765484
 20
307.5
 30
0.0
 11
509.426541
 21
307.5
 31
0.0
  0
LINE
  5
5D6
330
523
100
AcDbEntity
  8
LC-001-002-----0
 62
     7
370
    35
100
AcDbLine
 10
503.778649
 20
307.6
 30
0.0
 11
509.413376
 21
307.6
 31
0.0
  0
LINE
  5
5D7
330
523
100
AcDbEntity
  8
LC-001-002-----0
 62
     7
370
    35
100
AcDbLine
 10
503.791815
 20
307.7
 30
0.0
 11
509.4002109999999
 21
307.7
 31
0.0
  0
LINE
  5
5D8
330
523
100
AcDbEntity
  8
LC-001-002-----0
 62
     7
370
    35
100
AcDbLine
 10
503.80498
 20
307.8
 30
0.0
 11
509.3870459999999
 21
307.8
 31
0.0
  0
LINE
  5
5D9
330
523
100
AcDbEntity
  8
LC-001-002-----0
 62
     7
370
    35
100
AcDbLine
 10
503.818145
 20
307.9
 30
0.0
 11
509.3738799999999
 21
307.9
 31
0.0
  0
LINE
  5
5DA
330
523
100
AcDbEntity
  8
LC-001-002-----0
 62
     7
370
    35
100
AcDbLine
 10
503.8313099999999
 20
308.0
 30
0.0
 11
509.360715
 21
308.0
 31
0.0
  0
LINE
  5
5DB
330
523
100
AcDbEntity
  8
LC-001-002-----0
 62
     7
370
    35
100
AcDbLine
 10
503.8444759999999
 20
308.1
 30
0.0
 11
509.34755
 21
308.1
 31
0.0
  0
LINE
  5
5DC
330
523
100
AcDbEntity
  8
LC-001-002-----0
 62
     7
370
    35
100
AcDbLine
 10
503.857641
 20
308.2
 30
0.0
 11
509.3343849999999
 21
308.2
 31
0.0
  0
LINE
  5
5DD
330
523
100
AcDbEntity
  8
LC-001-002-----0
 62
     7
370
    35
100
AcDbLine
 10
503.8708059999999
 20
308.3
 30
0.0
 11
509.321219
 21
308.3
 31
0.0
  0
LINE
  5
5DE
330
523
100
AcDbEntity
  8
LC-001-002-----0
 62
     7
370
    35
100
AcDbLine
 10
503.8839709999999
 20
308.4
 30
0.0
 11
509.308054
 21
308.4
 31
0.0
  0
LINE
  5
5DF
330
523
100
AcDbEntity
  8
LC-001-002-----0
 62
     7
370
    35
100
AcDbLine
 10
503.8971369999999
 20
308.5
 30
0.0
 11
509.2948889999999
 21
308.5
 31
0.0
  0
LINE
  5
5E0
330
523
100
AcDbEntity
  8
LC-001-002-----0
 62
     7
370
    35
100
AcDbLine
 10
503.9103019999999
 20
308.6
 30
0.0
 11
509.281724
 21
308.6
 31
0.0
  0
LINE
  5
5E1
330
523
100
AcDbEntity
  8
LC-001-002-----0
 62
     7
370
    35
100
AcDbLine
 10
503.9234669999999
 20
308.7
 30
0.0
 11
509.268558
 21
308.7
 31
0.0
  0
LINE
  5
5E2
330
523
100
AcDbEntity
  8
LC-001-002-----0
 62
     7
370
    35
100
AcDbLine
 10
503.936632
 20
308.8
 30
0.0
 11
509.255393
 21
308.8
 31
0.0
  0
LINE
  5
5E3
330
523
100
AcDbEntity
  8
LC-001-002-----0
 62
     7
370
    35
100
AcDbLine
 10
503.949798
 20
308.9
 30
0.0
 11
509.242228
 21
308.9
 31
0.0
  0
LINE
  5
5E4
330
523
100
AcDbEntity
  8
LC-001-002-----0
 62
     7
370
    35
100
AcDbLine
 10
503.962963
 20
309.0
 30
0.0
 11
509.2290629999999
 21
309.0
 31
0.0
  0
LINE
  5
5E5
330
523
100
AcDbEntity
  8
LC-001-002-----0
 62
     7
370
    35
100
AcDbLine
 10
503.976128
 20
309.1
 30
0.0
 11
509.2158969999999
 21
309.1
 31
0.0
  0
LINE
  5
5E6
330
523
100
AcDbEntity
  8
LC-001-002-----0
 62
     7
370
    35
100
AcDbLine
 10
503.9892929999999
 20
309.2
 30
0.0
 11
509.202732
 21
309.2
 31
0.0
  0
LINE
  5
5E7
330
523
100
AcDbEntity
  8
LC-001-002-----0
 62
     7
370
    35
100
AcDbLine
 10
504.0024589999999
 20
309.3
 30
0.0
 11
509.189567
 21
309.3
 31
0.0
  0
LINE
  5
5E8
330
523
100
AcDbEntity
  8
LC-001-002-----0
 62
     7
370
    35
100
AcDbLine
 10
504.0156239999999
 20
309.4
 30
0.0
 11
509.1764019999999
 21
309.4
 31
0.0
  0
LINE
  5
5E9
330
523
100
AcDbEntity
  8
LC-001-002-----0
 62
     7
370
    35
100
AcDbLine
 10
504.028789
 20
309.5
 30
0.0
 11
509.163236
 21
309.5
 31
0.0
  0
LINE
  5
5EA
330
523
100
AcDbEntity
  8
LC-001-002-----0
 62
     7
370
    35
100
AcDbLine
 10
504.041954
 20
309.6
 30
0.0
 11
509.150071
 21
309.6
 31
0.0
  0
LINE
  5
5EB
330
523
100
AcDbEntity
  8
LC-001-002-----0
 62
     7
370
    35
100
AcDbLine
 10
504.05512
 20
309.7
 30
0.0
 11
509.1369059999999
 21
309.7
 31
0.0
  0
LINE
  5
5EC
330
523
100
AcDbEntity
  8
LC-001-002-----0
 62
     7
370
    35
100
AcDbLine
 10
504.0682849999999
 20
309.8
 30
0.0
 11
509.1237409999999
 21
309.8
 31
0.0
  0
LINE
  5
5ED
330
523
100
AcDbEntity
  8
LC-001-002-----0
 62
     7
370
    35
100
AcDbLine
 10
504.08145
 20
309.9
 30
0.0
 11
509.1105749999999
 21
309.9
 31
0.0
  0
LINE
  5
5EE
330
523
100
AcDbEntity
  8
LC-001-002-----0
 62
     7
370
    35
100
AcDbLine
 10
504.094615
 20
310.0
 30
0.0
 11
509.0974099999999
 21
310.0
 31
0.0
  0
LINE
  5
5EF
330
523
100
AcDbEntity
  8
LC-001-002-----0
 62
     7
370
    35
100
AcDbLine
 10
504.1077809999999
 20
310.1
 30
0.0
 11
509.084245
 21
310.1
 31
0.0
  0
LINE
  5
5F0
330
523
100
AcDbEntity
  8
LC-001-002-----0
 62
     7
370
    35
100
AcDbLine
 10
504.120946
 20
310.2
 30
0.0
 11
509.07108
 21
310.2
 31
0.0
  0
LINE
  5
5F1
330
523
100
AcDbEntity
  8
LC-001-002-----0
 62
     7
370
    35
100
AcDbLine
 10
504.134111
 20
310.3
 30
0.0
 11
509.057914
 21
310.3
 31
0.0
  0
LINE
  5
5F2
330
523
100
AcDbEntity
  8
LC-001-002-----0
 62
     7
370
    35
100
AcDbLine
 10
504.1472759999999
 20
310.4
 30
0.0
 11
509.044749
 21
310.4
 31
0.0
  0
LINE
  5
5F3
330
523
100
AcDbEntity
  8
LC-001-002-----0
 62
     7
370
    35
100
AcDbLine
 10
504.1604419999999
 20
310.5
 30
0.0
 11
509.031584
 21
310.5
 31
0.0
  0
LINE
  5
5F4
330
523
100
AcDbEntity
  8
LC-001-002-----0
 62
     7
370
    35
100
AcDbLine
 10
504.1736069999999
 20
310.6
 30
0.0
 11
509.018419
 21
310.6
 31
0.0
  0
LINE
  5
5F5
330
523
100
AcDbEntity
  8
LC-001-002-----0
 62
     7
370
    35
100
AcDbLine
 10
504.1867719999999
 20
310.7
 30
0.0
 11
509.005253
 21
310.7
 31
0.0
  0
LINE
  5
5F6
330
523
100
AcDbEntity
  8
LC-001-002-----0
 62
     7
370
    35
100
AcDbLine
 10
504.199937
 20
310.8
 30
0.0
 11
508.992088
 21
310.8
 31
0.0
  0
LINE
  5
5F7
330
523
100
AcDbEntity
  8
LC-001-002-----0
 62
     7
370
    35
100
AcDbLine
 10
504.213103
 20
310.9
 30
0.0
 11
508.978923
 21
310.9
 31
0.0
  0
LINE
  5
5F8
330
523
100
AcDbEntity
  8
LC-001-002-----0
 62
     7
370
    35
100
AcDbLine
 10
504.2262679999999
 20
311.0
 30
0.0
 11
508.9657579999999
 21
311.0
 31
0.0
  0
LINE
  5
5F9
330
523
100
AcDbEntity
  8
LC-001-002-----0
 62
     7
370
    35
100
AcDbLine
 10
504.239433
 20
311.1
 30
0.0
 11
508.9525919999999
 21
311.1
 31
0.0
  0
LINE
  5
5FA
330
523
100
AcDbEntity
  8
LC-001-002-----0
 62
     7
370
    35
100
AcDbLine
 10
504.252598
 20
311.2
 30
0.0
 11
508.9394269999999
 21
311.2
 31
0.0
  0
LINE
  5
5FB
330
523
100
AcDbEntity
  8
LC-001-002-----0
 62
     7
370
    35
100
AcDbLine
 10
504.2657639999999
 20
311.3
 30
0.0
 11
508.926262
 21
311.3
 31
0.0
  0
LINE
  5
5FC
330
523
100
AcDbEntity
  8
LC-001-002-----0
 62
     7
370
    35
100
AcDbLine
 10
504.2789289999999
 20
311.4
 30
0.0
 11
508.913097
 21
311.4
 31
0.0
  0
LINE
  5
5FD
330
523
100
AcDbEntity
  8
LC-001-002-----0
 62
     7
370
    35
100
AcDbLine
 10
504.292094
 20
311.5
 30
0.0
 11
508.899931
 21
311.5
 31
0.0
  0
LINE
  5
5FE
330
523
100
AcDbEntity
  8
LC-001-002-----0
 62
     7
370
    35
100
AcDbLine
 10
504.305259
 20
311.6
 30
0.0
 11
508.886766
 21
311.6
 31
0.0
  0
LINE
  5
5FF
330
523
100
AcDbEntity
  8
LC-001-002-----0
 62
     7
370
    35
100
AcDbLine
 10
504.318425
 20
311.7
 30
0.0
 11
508.8736009999999
 21
311.7
 31
0.0
  0
LINE
  5
600
330
523
100
AcDbEntity
  8
LC-001-002-----0
 62
     7
370
    35
100
AcDbLine
 10
504.33159
 20
311.8
 30
0.0
 11
508.860436
 21
311.8
 31
0.0
  0
LINE
  5
601
330
523
100
AcDbEntity
  8
LC-001-002-----0
 62
     7
370
    35
100
AcDbLine
 10
504.3447549999999
 20
311.9
 30
0.0
 11
508.8472709999999
 21
311.9
 31
0.0
  0
LINE
  5
602
330
523
100
AcDbEntity
  8
LC-001-002-----0
 62
     7
370
    35
100
AcDbLine
 10
504.35792
 20
312.0
 30
0.0
 11
508.8341049999999
 21
312.0
 31
0.0
  0
LINE
  5
603
330
523
100
AcDbEntity
  8
LC-001-002-----0
 62
     7
370
    35
100
AcDbLine
 10
504.371086
 20
312.1
 30
0.0
 11
508.8209400000001
 21
312.1
 31
0.0
  0
LINE
  5
604
330
523
100
AcDbEntity
  8
LC-001-002-----0
 62
     7
370
    35
100
AcDbLine
 10
504.3842509999999
 20
312.2
 30
0.0
 11
508.807775
 21
312.2
 31
0.0
  0
LINE
  5
605
330
523
100
AcDbEntity
  8
LC-001-002-----0
 62
     7
370
    35
100
AcDbLine
 10
504.397416
 20
312.3
 30
0.0
 11
508.7946099999999
 21
312.3
 31
0.0
  0
LINE
  5
606
330
523
100
AcDbEntity
  8
LC-001-002-----0
 62
     7
370
    35
100
AcDbLine
 10
504.4105809999999
 20
312.4
 30
0.0
 11
508.781444
 21
312.4
 31
0.0
  0
LINE
  5
607
330
523
100
AcDbEntity
  8
LC-001-002-----0
 62
     7
370
    35
100
AcDbLine
 10
504.4237469999999
 20
312.5
 30
0.0
 11
508.768279
 21
312.5
 31
0.0
  0
LINE
  5
608
330
523
100
AcDbEntity
  8
LC-001-002-----0
 62
     7
370
    35
100
AcDbLine
 10
504.4369119999999
 20
312.6
 30
0.0
 11
508.755114
 21
312.6
 31
0.0
  0
LINE
  5
609
330
523
100
AcDbEntity
  8
LC-001-002-----0
 62
     7
370
    35
100
AcDbLine
 10
504.4500769999999
 20
312.7
 30
0.0
 11
508.741949
 21
312.7
 31
0.0
  0
LINE
  5
60A
330
523
100
AcDbEntity
  8
LC-001-002-----0
 62
     7
370
    35
100
AcDbLine
 10
504.463242
 20
312.8
 30
0.0
 11
508.728783
 21
312.8
 31
0.0
  0
LINE
  5
60B
330
523
100
AcDbEntity
  8
LC-001-002-----0
 62
     7
370
    35
100
AcDbLine
 10
504.476408
 20
312.9
 30
0.0
 11
508.715618
 21
312.9
 31
0.0
  0
LINE
  5
60C
330
523
100
AcDbEntity
  8
LC-001-002-----0
 62
     7
370
    35
100
AcDbLine
 10
504.489573
 20
313.0
 30
0.0
 11
508.702453
 21
313.0
 31
0.0
  0
LINE
  5
60D
330
523
100
AcDbEntity
  8
LC-001-002-----0
 62
     7
370
    35
100
AcDbLine
 10
504.5027379999999
 20
313.1
 30
0.0
 11
508.6892879999999
 21
313.1
 31
0.0
  0
LINE
  5
60E
330
523
100
AcDbEntity
  8
LC-001-002-----0
 62
     7
370
    35
100
AcDbLine
 10
504.515903
 20
313.2
 30
0.0
 11
508.6761219999999
 21
313.2
 31
0.0
  0
LINE
  5
60F
330
523
100
AcDbEntity
  8
LC-001-002-----0
 62
     7
370
    35
100
AcDbLine
 10
504.529069
 20
313.3
 30
0.0
 11
508.662957
 21
313.3
 31
0.0
  0
LINE
  5
610
330
523
100
AcDbEntity
  8
LC-001-002-----0
 62
     7
370
    35
100
AcDbLine
 10
504.542234
 20
313.4
 30
0.0
 11
508.649792
 21
313.4
 31
0.0
  0
LINE
  5
611
330
523
100
AcDbEntity
  8
LC-001-002-----0
 62
     7
370
    35
100
AcDbLine
 10
504.555399
 20
313.5
 30
0.0
 11
508.636627
 21
313.5
 31
0.0
  0
LINE
  5
612
330
523
100
AcDbEntity
  8
LC-001-002-----0
 62
     7
370
    35
100
AcDbLine
 10
504.568564
 20
313.6
 30
0.0
 11
508.6234609999999
 21
313.6
 31
0.0
  0
LINE
  5
613
330
523
100
AcDbEntity
  8
LC-001-002-----0
 62
     7
370
    35
100
AcDbLine
 10
504.58173
 20
313.7
 30
0.0
 11
508.6102959999999
 21
313.7
 31
0.0
  0
LINE
  5
614
330
523
100
AcDbEntity
  8
LC-001-002-----0
 62
     7
370
    35
100
AcDbLine
 10
504.594895
 20
313.8
 30
0.0
 11
508.5971309999999
 21
313.8
 31
0.0
  0
LINE
  5
615
330
523
100
AcDbEntity
  8
LC-001-002-----0
 62
     7
370
    35
100
AcDbLine
 10
504.6080599999999
 20
313.9
 30
0.0
 11
508.583966
 21
313.9
 31
0.0
  0
LINE
  5
616
330
523
100
AcDbEntity
  8
LC-001-002-----0
 62
     7
370
    35
100
AcDbLine
 10
504.6212249999999
 20
314.0
 30
0.0
 11
508.5708
 21
314.0
 31
0.0
  0
LINE
  5
617
330
523
100
AcDbEntity
  8
LC-001-002-----0
 62
     7
370
    35
100
AcDbLine
 10
504.634391
 20
314.1
 30
0.0
 11
508.5576349999999
 21
314.1
 31
0.0
  0
LINE
  5
618
330
523
100
AcDbEntity
  8
LC-001-002-----0
 62
     7
370
    35
100
AcDbLine
 10
504.6475559999999
 20
314.2
 30
0.0
 11
508.54447
 21
314.2
 31
0.0
  0
LINE
  5
619
330
523
100
AcDbEntity
  8
LC-001-002-----0
 62
     7
370
    35
100
AcDbLine
 10
504.660721
 20
314.3
 30
0.0
 11
508.5313049999999
 21
314.3
 31
0.0
  0
LINE
  5
61A
330
523
100
AcDbEntity
  8
LC-001-002-----0
 62
     7
370
    35
100
AcDbLine
 10
504.673886
 20
314.4
 30
0.0
 11
508.5181389999999
 21
314.4
 31
0.0
  0
LINE
  5
61B
330
523
100
AcDbEntity
  8
LC-001-002-----0
 62
     7
370
    35
100
AcDbLine
 10
504.6870519999999
 20
314.5
 30
0.0
 11
508.504974
 21
314.5
 31
0.0
  0
LINE
  5
61C
330
523
100
AcDbEntity
  8
LC-001-002-----0
 62
     7
370
    35
100
AcDbLine
 10
504.7002169999999
 20
314.6
 30
0.0
 11
508.491809
 21
314.6
 31
0.0
  0
LINE
  5
61D
330
523
100
AcDbEntity
  8
LC-001-002-----0
 62
     7
370
    35
100
AcDbLine
 10
504.7133819999999
 20
314.7
 30
0.0
 11
508.478644
 21
314.7
 31
0.0
  0
LINE
  5
61E
330
523
100
AcDbEntity
  8
LC-001-002-----0
 62
     7
370
    35
100
AcDbLine
 10
504.726547
 20
314.8
 30
0.0
 11
508.465478
 21
314.8
 31
0.0
  0
LINE
  5
61F
330
523
100
AcDbEntity
  8
LC-001-002-----0
 62
     7
370
    35
100
AcDbLine
 10
504.739713
 20
314.9
 30
0.0
 11
508.452313
 21
314.9
 31
0.0
  0
LINE
  5
620
330
523
100
AcDbEntity
  8
LC-001-002-----0
 62
     7
370
    35
100
AcDbLine
 10
504.752878
 20
315.0
 30
0.0
 11
508.439148
 21
315.0
 31
0.0
  0
LINE
  5
621
330
523
100
AcDbEntity
  8
LC-001-002-----0
 62
     7
370
    35
100
AcDbLine
 10
504.7660429999999
 20
315.1
 30
0.0
 11
508.425983
 21
315.1
 31
0.0
  0
LINE
  5
622
330
523
100
AcDbEntity
  8
LC-001-002-----0
 62
     7
370
    35
100
AcDbLine
 10
504.7792079999999
 20
315.2
 30
0.0
 11
508.412817
 21
315.2
 31
0.0
  0
LINE
  5
623
330
523
100
AcDbEntity
  8
LC-001-002-----0
 62
     7
370
    35
100
AcDbLine
 10
504.7923739999999
 20
315.3
 30
0.0
 11
508.3996519999999
 21
315.3
 31
0.0
  0
LINE
  5
624
330
523
100
AcDbEntity
  8
LC-001-002-----0
 62
     7
370
    35
100
AcDbLine
 10
504.805539
 20
315.4
 30
0.0
 11
508.386487
 21
315.4
 31
0.0
  0
LINE
  5
625
330
523
100
AcDbEntity
  8
LC-001-002-----0
 62
     7
370
    35
100
AcDbLine
 10
504.818704
 20
315.5
 30
0.0
 11
508.373322
 21
315.5
 31
0.0
  0
LINE
  5
626
330
523
100
AcDbEntity
  8
LC-001-002-----0
 62
     7
370
    35
100
AcDbLine
 10
504.831869
 20
315.6
 30
0.0
 11
508.3601559999999
 21
315.6
 31
0.0
  0
LINE
  5
627
330
523
100
AcDbEntity
  8
LC-001-002-----0
 62
     7
370
    35
100
AcDbLine
 10
504.8450349999999
 20
315.7
 30
0.0
 11
508.3469909999999
 21
315.7
 31
0.0
  0
LINE
  5
628
330
523
100
AcDbEntity
  8
LC-001-002-----0
 62
     7
370
    35
100
AcDbLine
 10
504.8582
 20
315.8
 30
0.0
 11
508.3338259999999
 21
315.8
 31
0.0
  0
LINE
  5
629
330
523
100
AcDbEntity
  8
LC-001-002-----0
 62
     7
370
    35
100
AcDbLine
 10
504.871365
 20
315.9
 30
0.0
 11
508.320661
 21
315.9
 31
0.0
  0
LINE
  5
62A
330
523
100
AcDbEntity
  8
LC-001-002-----0
 62
     7
370
    35
100
AcDbLine
 10
504.8845299999999
 20
316.0
 30
0.0
 11
508.307495
 21
316.0
 31
0.0
  0
LINE
  5
62B
330
523
100
AcDbEntity
  8
LC-001-002-----0
 62
     7
370
    35
100
AcDbLine
 10
504.897696
 20
316.1
 30
0.0
 11
508.29433
 21
316.1
 31
0.0
  0
LINE
  5
62C
330
523
100
AcDbEntity
  8
LC-001-002-----0
 62
     7
370
    35
100
AcDbLine
 10
504.910861
 20
316.2
 30
0.0
 11
508.281165
 21
316.2
 31
0.0
  0
LINE
  5
62D
330
523
100
AcDbEntity
  8
LC-001-002-----0
 62
     7
370
    35
100
AcDbLine
 10
504.9240259999999
 20
316.3
 30
0.0
 11
508.268
 21
316.3
 31
0.0
  0
LINE
  5
62E
330
523
100
AcDbEntity
  8
LC-001-002-----0
 62
     7
370
    35
100
AcDbLine
 10
504.937191
 20
316.4
 30
0.0
 11
508.2548339999999
 21
316.4
 31
0.0
  0
LINE
  5
62F
330
523
100
AcDbEntity
  8
LC-001-002-----0
 62
     7
370
    35
100
AcDbLine
 10
504.950357
 20
316.5
 30
0.0
 11
508.241669
 21
316.5
 31
0.0
  0
LINE
  5
630
330
523
100
AcDbEntity
  8
LC-001-002-----0
 62
     7
370
    35
100
AcDbLine
 10
504.9635219999999
 20
316.6
 30
0.0
 11
508.228504
 21
316.6
 31
0.0
  0
LINE
  5
631
330
523
100
AcDbEntity
  8
LC-001-002-----0
 62
     7
370
    35
100
AcDbLine
 10
504.976687
 20
316.7
 30
0.0
 11
508.215339
 21
316.7
 31
0.0
  0
LINE
  5
632
330
523
100
AcDbEntity
  8
LC-001-002-----0
 62
     7
370
    35
100
AcDbLine
 10
504.9898519999999
 20
316.8
 30
0.0
 11
508.2021730000001
 21
316.8
 31
0.0
  0
LINE
  5
633
330
523
100
AcDbEntity
  8
LC-001-002-----0
 62
     7
370
    35
100
AcDbLine
 10
505.003018
 20
316.9
 30
0.0
 11
508.1890079999999
 21
316.9
 31
0.0
  0
LINE
  5
634
330
523
100
AcDbEntity
  8
LC-001-002-----0
 62
     7
370
    35
100
AcDbLine
 10
505.016183
 20
317.0
 30
0.0
 11
508.1758429999999
 21
317.0
 31
0.0
  0
LINE
  5
635
330
523
100
AcDbEntity
  8
LC-001-002-----0
 62
     7
370
    35
100
AcDbLine
 10
505.029348
 20
317.1
 30
0.0
 11
508.162678
 21
317.1
 31
0.0
  0
LINE
  5
636
330
523
100
AcDbEntity
  8
LC-001-002-----0
 62
     7
370
    35
100
AcDbLine
 10
505.0425129999999
 20
317.2
 30
0.0
 11
508.149512
 21
317.2
 31
0.0
  0
LINE
  5
637
330
523
100
AcDbEntity
  8
LC-001-002-----0
 62
     7
370
    35
100
AcDbLine
 10
505.0556789999999
 20
317.3
 30
0.0
 11
508.136347
 21
317.3
 31
0.0
  0
LINE
  5
638
330
523
100
AcDbEntity
  8
LC-001-002-----0
 62
     7
370
    35
100
AcDbLine
 10
505.068844
 20
317.4
 30
0.0
 11
508.123182
 21
317.4
 31
0.0
  0
LINE
  5
639
330
523
100
AcDbEntity
  8
LC-001-002-----0
 62
     7
370
    35
100
AcDbLine
 10
505.082009
 20
317.5
 30
0.0
 11
508.110017
 21
317.5
 31
0.0
  0
LINE
  5
63A
330
523
100
AcDbEntity
  8
LC-001-002-----0
 62
     7
370
    35
100
AcDbLine
 10
505.095174
 20
317.6
 30
0.0
 11
508.0968509999999
 21
317.6
 31
0.0
  0
LINE
  5
63B
330
523
100
AcDbEntity
  8
LC-001-002-----0
 62
     7
370
    35
100
AcDbLine
 10
505.10834
 20
317.7
 30
0.0
 11
508.083686
 21
317.7
 31
0.0
  0
LINE
  5
63C
330
523
100
AcDbEntity
  8
LC-001-002-----0
 62
     7
370
    35
100
AcDbLine
 10
505.1215049999999
 20
317.8
 30
0.0
 11
508.0705209999999
 21
317.8
 31
0.0
  0
LINE
  5
63D
330
523
100
AcDbEntity
  8
LC-001-002-----0
 62
     7
370
    35
100
AcDbLine
 10
505.13467
 20
317.9
 30
0.0
 11
508.0573559999999
 21
317.9
 31
0.0
  0
LINE
  5
63E
330
523
100
AcDbEntity
  8
LC-001-002-----0
 62
     7
370
    35
100
AcDbLine
 10
505.147835
 20
318.0
 30
0.0
 11
508.04419
 21
318.0
 31
0.0
  0
LINE
  5
63F
330
523
100
AcDbEntity
  8
LC-001-002-----0
 62
     7
370
    35
100
AcDbLine
 10
505.161001
 20
318.1
 30
0.0
 11
508.031025
 21
318.1
 31
0.0
  0
LINE
  5
640
330
523
100
AcDbEntity
  8
LC-001-002-----0
 62
     7
370
    35
100
AcDbLine
 10
505.174166
 20
318.2
 30
0.0
 11
508.0178599999999
 21
318.2
 31
0.0
  0
LINE
  5
641
330
523
100
AcDbEntity
  8
LC-001-002-----0
 62
     7
370
    35
100
AcDbLine
 10
505.1873309999999
 20
318.3
 30
0.0
 11
508.004695
 21
318.3
 31
0.0
  0
LINE
  5
642
330
523
100
AcDbEntity
  8
LC-001-002-----0
 62
     7
370
    35
100
AcDbLine
 10
505.2004959999999
 20
318.4
 30
0.0
 11
507.991529
 21
318.4
 31
0.0
  0
LINE
  5
643
330
523
100
AcDbEntity
  8
LC-001-002-----0
 62
     7
370
    35
100
AcDbLine
 10
505.2136619999999
 20
318.5
 30
0.0
 11
507.9783639999999
 21
318.5
 31
0.0
  0
LINE
  5
644
330
523
100
AcDbEntity
  8
LC-001-002-----0
 62
     7
370
    35
100
AcDbLine
 10
505.2268269999999
 20
318.6
 30
0.0
 11
507.965199
 21
318.6
 31
0.0
  0
LINE
  5
645
330
523
100
AcDbEntity
  8
LC-001-002-----0
 62
     7
370
    35
100
AcDbLine
 10
505.239992
 20
318.7
 30
0.0
 11
507.952034
 21
318.7
 31
0.0
  0
LINE
  5
646
330
523
100
AcDbEntity
  8
LC-001-002-----0
 62
     7
370
    35
100
AcDbLine
 10
505.253157
 20
318.8
 30
0.0
 11
507.938868
 21
318.8
 31
0.0
  0
LINE
  5
647
330
523
100
AcDbEntity
  8
LC-001-002-----0
 62
     7
370
    35
100
AcDbLine
 10
505.266323
 20
318.9
 30
0.0
 11
507.9257029999999
 21
318.9
 31
0.0
  0
LINE
  5
648
330
523
100
AcDbEntity
  8
LC-001-002-----0
 62
     7
370
    35
100
AcDbLine
 10
505.279488
 20
319.0
 30
0.0
 11
507.9125379999999
 21
319.0
 31
0.0
  0
LINE
  5
649
330
523
100
AcDbEntity
  8
LC-001-002-----0
 62
     7
370
    35
100
AcDbLine
 10
505.292653
 20
319.1
 30
0.0
 11
507.899373
 21
319.1
 31
0.0
  0
LINE
  5
64A
330
523
100
AcDbEntity
  8
LC-001-002-----0
 62
     7
370
    35
100
AcDbLine
 10
505.3058179999999
 20
319.2
 30
0.0
 11
507.886207
 21
319.2
 31
0.0
  0
LINE
  5
64B
330
523
100
AcDbEntity
  8
LC-001-002-----0
 62
     7
370
    35
100
AcDbLine
 10
505.3189839999999
 20
319.3
 30
0.0
 11
507.873042
 21
319.3
 31
0.0
  0
LINE
  5
64C
330
523
100
AcDbEntity
  8
LC-001-002-----0
 62
     7
370
    35
100
AcDbLine
 10
505.332149
 20
319.4
 30
0.0
 11
507.859877
 21
319.4
 31
0.0
  0
LINE
  5
64D
330
523
100
AcDbEntity
  8
LC-001-002-----0
 62
     7
370
    35
100
AcDbLine
 10
505.345314
 20
319.5
 30
0.0
 11
507.846712
 21
319.5
 31
0.0
  0
LINE
  5
64E
330
523
100
AcDbEntity
  8
LC-001-002-----0
 62
     7
370
    35
100
AcDbLine
 10
505.358479
 20
319.6
 30
0.0
 11
507.8335459999999
 21
319.6
 31
0.0
  0
LINE
  5
64F
330
523
100
AcDbEntity
  8
LC-001-002-----0
 62
     7
370
    35
100
AcDbLine
 10
505.371645
 20
319.7
 30
0.0
 11
507.8203809999999
 21
319.7
 31
0.0
  0
LINE
  5
650
330
523
100
AcDbEntity
  8
LC-001-002-----0
 62
     7
370
    35
100
AcDbLine
 10
505.3848099999999
 20
319.8
 30
0.0
 11
507.807216
 21
319.8
 31
0.0
  0
LINE
  5
651
330
523
100
AcDbEntity
  8
LC-001-002-----0
 62
     7
370
    35
100
AcDbLine
 10
505.3979749999999
 20
319.9
 30
0.0
 11
507.7940509999999
 21
319.9
 31
0.0
  0
LINE
  5
652
330
523
100
AcDbEntity
  8
LC-001-002-----0
 62
     7
370
    35
100
AcDbLine
 10
505.41114
 20
320.0
 30
0.0
 11
507.7808849999999
 21
320.0
 31
0.0
  0
LINE
  5
653
330
523
100
AcDbEntity
  8
LC-001-002-----0
 62
     7
370
    35
100
AcDbLine
 10
505.4243059999999
 20
320.1
 30
0.0
 11
507.76772
 21
320.1
 31
0.0
  0
LINE
  5
654
330
523
100
AcDbEntity
  8
LC-001-002-----0
 62
     7
370
    35
100
AcDbLine
 10
505.437471
 20
320.2
 30
0.0
 11
507.7545549999999
 21
320.2
 31
0.0
  0
LINE
  5
655
330
523
100
AcDbEntity
  8
LC-001-002-----0
 62
     7
370
    35
100
AcDbLine
 10
505.450636
 20
320.3
 30
0.0
 11
507.74139
 21
320.3
 31
0.0
  0
LINE
  5
656
330
523
100
AcDbEntity
  8
LC-001-002-----0
 62
     7
370
    35
100
AcDbLine
 10
505.4638009999999
 20
320.4
 30
0.0
 11
507.728224
 21
320.4
 31
0.0
  0
LINE
  5
657
330
523
100
AcDbEntity
  8
LC-001-002-----0
 62
     7
370
    35
100
AcDbLine
 10
505.4769669999999
 20
320.5
 30
0.0
 11
507.715059
 21
320.5
 31
0.0
  0
LINE
  5
658
330
523
100
AcDbEntity
  8
LC-001-002-----0
 62
     7
370
    35
100
AcDbLine
 10
505.4901319999999
 20
320.6
 30
0.0
 11
507.701894
 21
320.6
 31
0.0
  0
LINE
  5
659
330
523
100
AcDbEntity
  8
LC-001-002-----0
 62
     7
370
    35
100
AcDbLine
 10
505.503297
 20
320.7
 30
0.0
 11
507.688729
 21
320.7
 31
0.0
  0
LINE
  5
65A
330
523
100
AcDbEntity
  8
LC-001-002-----0
 62
     7
370
    35
100
AcDbLine
 10
505.516462
 20
320.8
 30
0.0
 11
507.675563
 21
320.8
 31
0.0
  0
LINE
  5
65B
330
523
100
AcDbEntity
  8
LC-001-002-----0
 62
     7
370
    35
100
AcDbLine
 10
505.529628
 20
320.9
 30
0.0
 11
507.662398
 21
320.9
 31
0.0
  0
LINE
  5
65C
330
523
100
AcDbEntity
  8
LC-001-002-----0
 62
     7
370
    35
100
AcDbLine
 10
505.5427929999999
 20
321.0
 30
0.0
 11
507.6492329999999
 21
321.0
 31
0.0
  0
LINE
  5
65D
330
523
100
AcDbEntity
  8
LC-001-002-----0
 62
     7
370
    35
100
AcDbLine
 10
505.555958
 20
321.1
 30
0.0
 11
507.6360679999999
 21
321.1
 31
0.0
  0
LINE
  5
65E
330
523
100
AcDbEntity
  8
LC-001-002-----0
 62
     7
370
    35
100
AcDbLine
 10
505.569123
 20
321.2
 30
0.0
 11
507.6229019999999
 21
321.2
 31
0.0
  0
LINE
  5
65F
330
523
100
AcDbEntity
  8
LC-001-002-----0
 62
     7
370
    35
100
AcDbLine
 10
505.5822889999999
 20
321.3
 30
0.0
 11
507.609737
 21
321.3
 31
0.0
  0
LINE
  5
660
330
523
100
AcDbEntity
  8
LC-001-002-----0
 62
     7
370
    35
100
AcDbLine
 10
505.595454
 20
321.4
 30
0.0
 11
507.596572
 21
321.4
 31
0.0
  0
LINE
  5
661
330
523
100
AcDbEntity
  8
LC-001-002-----0
 62
     7
370
    35
100
AcDbLine
 10
505.608619
 20
321.5
 30
0.0
 11
507.5834069999999
 21
321.5
 31
0.0
  0
LINE
  5
662
330
523
100
AcDbEntity
  8
LC-001-002-----0
 62
     7
370
    35
100
AcDbLine
 10
505.621784
 20
321.6
 30
0.0
 11
507.5702409999999
 21
321.6
 31
0.0
  0
LINE
  5
663
330
523
100
AcDbEntity
  8
LC-001-002-----0
 62
     7
370
    35
100
AcDbLine
 10
505.63495
 20
321.7
 30
0.0
 11
507.5570759999999
 21
321.7
 31
0.0
  0
LINE
  5
664
330
523
100
AcDbEntity
  8
LC-001-002-----0
 62
     7
370
    35
100
AcDbLine
 10
505.648115
 20
321.8
 30
0.0
 11
507.543911
 21
321.8
 31
0.0
  0
LINE
  5
665
330
523
100
AcDbEntity
  8
LC-001-002-----0
 62
     7
370
    35
100
AcDbLine
 10
505.6612799999999
 20
321.9
 30
0.0
 11
507.530746
 21
321.9
 31
0.0
  0
LINE
  5
666
330
523
100
AcDbEntity
  8
LC-001-002-----0
 62
     7
370
    35
100
AcDbLine
 10
505.674445
 20
322.0
 30
0.0
 11
507.51758
 21
322.0
 31
0.0
  0
LINE
  5
667
330
523
100
AcDbEntity
  8
LC-001-002-----0
 62
     7
370
    35
100
AcDbLine
 10
505.6876110000001
 20
322.1
 30
0.0
 11
507.504415
 21
322.1
 31
0.0
  0
LINE
  5
668
330
523
100
AcDbEntity
  8
LC-001-002-----0
 62
     7
370
    35
100
AcDbLine
 10
505.7007759999999
 20
322.2
 30
0.0
 11
507.4912499999999
 21
322.2
 31
0.0
  0
LINE
  5
669
330
523
100
AcDbEntity
  8
LC-001-002-----0
 62
     7
370
    35
100
AcDbLine
 10
505.713941
 20
322.3
 30
0.0
 11
507.4780849999999
 21
322.3
 31
0.0
  0
LINE
  5
66A
330
523
100
AcDbEntity
  8
LC-001-002-----0
 62
     7
370
    35
100
AcDbLine
 10
505.7271059999999
 20
322.4
 30
0.0
 11
507.464919
 21
322.4
 31
0.0
  0
LINE
  5
66B
330
523
100
AcDbEntity
  8
LC-001-002-----0
 62
     7
370
    35
100
AcDbLine
 10
505.7402719999999
 20
322.5
 30
0.0
 11
507.451754
 21
322.5
 31
0.0
  0
LINE
  5
66C
330
523
100
AcDbEntity
  8
LC-001-002-----0
 62
     7
370
    35
100
AcDbLine
 10
505.7534369999999
 20
322.6
 30
0.0
 11
507.438589
 21
322.6
 31
0.0
  0
LINE
  5
66D
330
523
100
AcDbEntity
  8
LC-001-002-----0
 62
     7
370
    35
100
AcDbLine
 10
505.766602
 20
322.7
 30
0.0
 11
507.425424
 21
322.7
 31
0.0
  0
LINE
  5
66E
330
523
100
AcDbEntity
  8
LC-001-002-----0
 62
     7
370
    35
100
AcDbLine
 10
505.779767
 20
322.8
 30
0.0
 11
507.412258
 21
322.8
 31
0.0
  0
LINE
  5
66F
330
523
100
AcDbEntity
  8
LC-001-002-----0
 62
     7
370
    35
100
AcDbLine
 10
505.792933
 20
322.9
 30
0.0
 11
507.3990929999999
 21
322.9
 31
0.0
  0
LINE
  5
670
330
523
100
AcDbEntity
  8
LC-001-002-----0
 62
     7
370
    35
100
AcDbLine
 10
505.806098
 20
323.0
 30
0.0
 11
507.385928
 21
323.0
 31
0.0
  0
LINE
  5
671
330
523
100
AcDbEntity
  8
LC-001-002-----0
 62
     7
370
    35
100
AcDbLine
 10
505.8192629999999
 20
323.1
 30
0.0
 11
507.3727629999999
 21
323.1
 31
0.0
  0
LINE
  5
672
330
523
100
AcDbEntity
  8
LC-001-002-----0
 62
     7
370
    35
100
AcDbLine
 10
505.832428
 20
323.2
 30
0.0
 11
507.3595969999999
 21
323.2
 31
0.0
  0
LINE
  5
673
330
523
100
AcDbEntity
  8
LC-001-002-----0
 62
     7
370
    35
100
AcDbLine
 10
505.845594
 20
323.3
 30
0.0
 11
507.346432
 21
323.3
 31
0.0
  0
LINE
  5
674
330
523
100
AcDbEntity
  8
LC-001-002-----0
 62
     7
370
    35
100
AcDbLine
 10
505.858759
 20
323.4
 30
0.0
 11
507.333267
 21
323.4
 31
0.0
  0
LINE
  5
675
330
523
100
AcDbEntity
  8
LC-001-002-----0
 62
     7
370
    35
100
AcDbLine
 10
505.871924
 20
323.5
 30
0.0
 11
507.3201019999999
 21
323.5
 31
0.0
  0
LINE
  5
676
330
523
100
AcDbEntity
  8
LC-001-002-----0
 62
     7
370
    35
100
AcDbLine
 10
505.885089
 20
323.6
 30
0.0
 11
507.3069359999999
 21
323.6
 31
0.0
  0
LINE
  5
677
330
523
100
AcDbEntity
  8
LC-001-002-----0
 62
     7
370
    35
100
AcDbLine
 10
505.898255
 20
323.7
 30
0.0
 11
507.2937709999999
 21
323.7
 31
0.0
  0
LINE
  5
678
330
523
100
AcDbEntity
  8
LC-001-002-----0
 62
     7
370
    35
100
AcDbLine
 10
505.91142
 20
323.8
 30
0.0
 11
507.2806059999999
 21
323.8
 31
0.0
  0
LINE
  5
679
330
523
100
AcDbEntity
  8
LC-001-002-----0
 62
     7
370
    35
100
AcDbLine
 10
505.9245849999999
 20
323.9
 30
0.0
 11
507.267441
 21
323.9
 31
0.0
  0
LINE
  5
67A
330
523
100
AcDbEntity
  8
LC-001-002-----0
 62
     7
370
    35
100
AcDbLine
 10
505.93775
 20
324.0
 30
0.0
 11
507.254275
 21
324.0
 31
0.0
  0
LINE
  5
67B
330
523
100
AcDbEntity
  8
LC-001-002-----0
 62
     7
370
    35
100
AcDbLine
 10
505.950916
 20
324.1
 30
0.0
 11
507.2411099999999
 21
324.1
 31
0.0
  0
LINE
  5
67C
330
523
100
AcDbEntity
  8
LC-001-002-----0
 62
     7
370
    35
100
AcDbLine
 10
505.9640809999999
 20
324.2
 30
0.0
 11
507.227945
 21
324.2
 31
0.0
  0
LINE
  5
67D
330
523
100
AcDbEntity
  8
LC-001-002-----0
 62
     7
370
    35
100
AcDbLine
 10
505.9772459999999
 20
324.3
 30
0.0
 11
507.2147799999999
 21
324.3
 31
0.0
  0
LINE
  5
67E
330
523
100
AcDbEntity
  8
LC-001-002-----0
 62
     7
370
    35
100
AcDbLine
 10
505.990411
 20
324.4
 30
0.0
 11
507.2016139999999
 21
324.4
 31
0.0
  0
LINE
  5
67F
330
523
100
AcDbEntity
  8
LC-001-002-----0
 62
     7
370
    35
100
AcDbLine
 10
506.0035769999999
 20
324.5
 30
0.0
 11
507.188449
 21
324.5
 31
0.0
  0
LINE
  5
680
330
523
100
AcDbEntity
  8
LC-001-002-----0
 62
     7
370
    35
100
AcDbLine
 10
506.0167419999999
 20
324.6
 30
0.0
 11
507.175284
 21
324.6
 31
0.0
  0
LINE
  5
681
330
523
100
AcDbEntity
  8
LC-001-002-----0
 62
     7
370
    35
100
AcDbLine
 10
506.029907
 20
324.7
 30
0.0
 11
507.162119
 21
324.7
 31
0.0
  0
LINE
  5
682
330
523
100
AcDbEntity
  8
LC-001-002-----0
 62
     7
370
    35
100
AcDbLine
 10
506.043072
 20
324.8
 30
0.0
 11
507.148953
 21
324.8
 31
0.0
  0
LINE
  5
683
330
523
100
AcDbEntity
  8
LC-001-002-----0
 62
     7
370
    35
100
AcDbLine
 10
506.056238
 20
324.9
 30
0.0
 11
507.1357879999999
 21
324.9
 31
0.0
  0
LINE
  5
684
330
523
100
AcDbEntity
  8
LC-001-002-----0
 62
     7
370
    35
100
AcDbLine
 10
506.069403
 20
325.0
 30
0.0
 11
507.122623
 21
325.0
 31
0.0
  0
LINE
  5
685
330
523
100
AcDbEntity
  8
LC-001-002-----0
 62
     7
370
    35
100
AcDbLine
 10
506.0825679999999
 20
325.1
 30
0.0
 11
507.109458
 21
325.1
 31
0.0
  0
LINE
  5
686
330
523
100
AcDbEntity
  8
LC-001-002-----0
 62
     7
370
    35
100
AcDbLine
 10
506.0957329999999
 20
325.2
 30
0.0
 11
507.096292
 21
325.2
 31
0.0
  0
LINE
  5
687
330
523
100
AcDbEntity
  8
LC-001-002-----0
 62
     7
370
    35
100
AcDbLine
 10
506.108899
 20
325.3
 30
0.0
 11
507.0831269999999
 21
325.3
 31
0.0
  0
LINE
  5
688
330
523
100
AcDbEntity
  8
LC-001-002-----0
 62
     7
370
    35
100
AcDbLine
 10
506.122064
 20
325.4
 30
0.0
 11
507.069962
 21
325.4
 31
0.0
  0
LINE
  5
689
330
523
100
AcDbEntity
  8
LC-001-002-----0
 62
     7
370
    35
100
AcDbLine
 10
506.135229
 20
325.5
 30
0.0
 11
507.0567969999999
 21
325.5
 31
0.0
  0
LINE
  5
68A
330
523
100
AcDbEntity
  8
LC-001-002-----0
 62
     7
370
    35
100
AcDbLine
 10
506.148394
 20
325.6
 30
0.0
 11
507.0436309999999
 21
325.6
 31
0.0
  0
LINE
  5
68B
330
523
100
AcDbEntity
  8
LC-001-002-----0
 62
     7
370
    35
100
AcDbLine
 10
506.1615599999999
 20
325.7
 30
0.0
 11
507.0304659999999
 21
325.7
 31
0.0
  0
LINE
  5
68C
330
523
100
AcDbEntity
  8
LC-001-002-----0
 62
     7
370
    35
100
AcDbLine
 10
506.174725
 20
325.8
 30
0.0
 11
507.0173009999999
 21
325.8
 31
0.0
  0
LINE
  5
68D
330
523
100
AcDbEntity
  8
LC-001-002-----0
 62
     7
370
    35
100
AcDbLine
 10
506.18789
 20
325.9
 30
0.0
 11
507.004136
 21
325.9
 31
0.0
  0
LINE
  5
68E
330
523
100
AcDbEntity
  8
LC-001-002-----0
 62
     7
370
    35
100
AcDbLine
 10
506.201055
 20
326.0
 30
0.0
 11
506.99097
 21
326.0
 31
0.0
  0
LINE
  5
68F
330
523
100
AcDbEntity
  8
LC-001-002-----0
 62
     7
370
    35
100
AcDbLine
 10
506.214221
 20
326.1
 30
0.0
 11
506.977805
 21
326.1
 31
0.0
  0
LINE
  5
690
330
523
100
AcDbEntity
  8
LC-001-002-----0
 62
     7
370
    35
100
AcDbLine
 10
506.227386
 20
326.2
 30
0.0
 11
506.96464
 21
326.2
 31
0.0
  0
LINE
  5
691
330
523
100
AcDbEntity
  8
LC-001-002-----0
 62
     7
370
    35
100
AcDbLine
 10
506.2405509999999
 20
326.3
 30
0.0
 11
506.951475
 21
326.3
 31
0.0
  0
LINE
  5
692
330
523
100
AcDbEntity
  8
LC-001-002-----0
 62
     7
370
    35
100
AcDbLine
 10
506.2537159999999
 20
326.4
 30
0.0
 11
506.938309
 21
326.4
 31
0.0
  0
LINE
  5
693
330
523
100
AcDbEntity
  8
LC-001-002-----0
 62
     7
370
    35
100
AcDbLine
 10
506.2668819999999
 20
326.5
 30
0.0
 11
506.925144
 21
326.5
 31
0.0
  0
LINE
  5
694
330
523
100
AcDbEntity
  8
LC-001-002-----0
 62
     7
370
    35
100
AcDbLine
 10
506.2800469999999
 20
326.6
 30
0.0
 11
506.911979
 21
326.6
 31
0.0
  0
LINE
  5
695
330
523
100
AcDbEntity
  8
LC-001-002-----0
 62
     7
370
    35
100
AcDbLine
 10
506.293212
 20
326.7
 30
0.0
 11
506.898814
 21
326.7
 31
0.0
  0
LINE
  5
696
330
523
100
AcDbEntity
  8
LC-001-002-----0
 62
     7
370
    35
100
AcDbLine
 10
506.3063769999999
 20
326.8
 30
0.0
 11
506.885648
 21
326.8
 31
0.0
  0
LINE
  5
697
330
523
100
AcDbEntity
  8
LC-001-002-----0
 62
     7
370
    35
100
AcDbLine
 10
506.3195429999999
 20
326.9
 30
0.0
 11
506.8724829999999
 21
326.9
 31
0.0
  0
LINE
  5
698
330
523
100
AcDbEntity
  8
LC-001-002-----0
 62
     7
370
    35
100
AcDbLine
 10
506.332708
 20
327.0
 30
0.0
 11
506.8593179999999
 21
327.0
 31
0.0
  0
LINE
  5
699
330
523
100
AcDbEntity
  8
LC-001-002-----0
 62
     7
370
    35
100
AcDbLine
 10
506.345873
 20
327.1
 30
0.0
 11
506.846153
 21
327.1
 31
0.0
  0
LINE
  5
69A
330
523
100
AcDbEntity
  8
LC-001-002-----0
 62
     7
370
    35
100
AcDbLine
 10
506.3590379999999
 20
327.2
 30
0.0
 11
506.832987
 21
327.2
 31
0.0
  0
LINE
  5
69B
330
523
100
AcDbEntity
  8
LC-001-002-----0
 62
     7
370
    35
100
AcDbLine
 10
506.372204
 20
327.3
 30
0.0
 11
506.819822
 21
327.3
 31
0.0
  0
LINE
  5
69C
330
523
100
AcDbEntity
  8
LC-001-002-----0
 62
     7
370
    35
100
AcDbLine
 10
506.385369
 20
327.4
 30
0.0
 11
506.806657
 21
327.4
 31
0.0
  0
LINE
  5
69D
330
523
100
AcDbEntity
  8
LC-001-002-----0
 62
     7
370
    35
100
AcDbLine
 10
506.398534
 20
327.5
 30
0.0
 11
506.7934919999999
 21
327.5
 31
0.0
  0
LINE
  5
69E
330
523
100
AcDbEntity
  8
LC-001-002-----0
 62
     7
370
    35
100
AcDbLine
 10
506.411699
 20
327.6
 30
0.0
 11
506.7803259999999
 21
327.6
 31
0.0
  0
LINE
  5
69F
330
523
100
AcDbEntity
  8
LC-001-002-----0
 62
     7
370
    35
100
AcDbLine
 10
506.424865
 20
327.7
 30
0.0
 11
506.767161
 21
327.7
 31
0.0
  0
LINE
  5
6A0
330
523
100
AcDbEntity
  8
LC-001-002-----0
 62
     7
370
    35
100
AcDbLine
 10
506.4380299999999
 20
327.8
 30
0.0
 11
506.7539959999999
 21
327.8
 31
0.0
  0
LINE
  5
6A1
330
523
100
AcDbEntity
  8
LC-001-002-----0
 62
     7
370
    35
100
AcDbLine
 10
506.451195
 20
327.9
 30
0.0
 11
506.7408309999999
 21
327.9
 31
0.0
  0
LINE
  5
6A2
330
523
100
AcDbEntity
  8
LC-001-002-----0
 62
     7
370
    35
100
AcDbLine
 10
506.4643599999999
 20
328.0
 30
0.0
 11
506.7276650000001
 21
328.0
 31
0.0
  0
LINE
  5
6A3
330
523
100
AcDbEntity
  8
LC-001-002-----0
 62
     7
370
    35
100
AcDbLine
 10
506.4775259999999
 20
328.1
 30
0.0
 11
506.7145
 21
328.1
 31
0.0
  0
LINE
  5
6A4
330
523
100
AcDbEntity
  8
LC-001-002-----0
 62
     7
370
    35
100
AcDbLine
 10
506.490691
 20
328.2
 30
0.0
 11
506.7013349999999
 21
328.2
 31
0.0
  0
LINE
  5
6A5
330
523
100
AcDbEntity
  8
LC-001-002-----0
 62
     7
370
    35
100
AcDbLine
 10
506.5038559999999
 20
328.3
 30
0.0
 11
506.68817
 21
328.3
 31
0.0
  0
LINE
  5
6A6
330
523
100
AcDbEntity
  8
LC-001-002-----0
 62
     7
370
    35
100
AcDbLine
 10
506.5170209999999
 20
328.4
 30
0.0
 11
506.675004
 21
328.4
 31
0.0
  0
LINE
  5
6A7
330
523
100
AcDbEntity
  8
LC-001-002-----0
 62
     7
370
    35
100
AcDbLine
 10
506.5301869999999
 20
328.5
 30
0.0
 11
506.661839
 21
328.5
 31
0.0
  0
LINE
  5
6A8
330
523
100
AcDbEntity
  8
LC-001-002-----0
 62
     7
370
    35
100
AcDbLine
 10
506.543352
 20
328.6
 30
0.0
 11
506.648674
 21
328.6
 31
0.0
  0
LINE
  5
6A9
330
523
100
AcDbEntity
  8
LC-001-002-----0
 62
     7
370
    35
100
AcDbLine
 10
506.556517
 20
328.7
 30
0.0
 11
506.635509
 21
328.7
 31
0.0
  0
LINE
  5
6AA
330
523
100
AcDbEntity
  8
LC-001-002-----0
 62
     7
370
    35
100
AcDbLine
 10
506.569682
 20
328.8
 30
0.0
 11
506.6223429999999
 21
328.8
 31
0.0
  0
LINE
  5
6AB
330
523
100
AcDbEntity
  8
LC-001-002-----0
 62
     7
370
    35
100
AcDbLine
 10
506.582848
 20
328.9
 30
0.0
 11
506.609178
 21
328.9
 31
0.0
  0
ENDBLK
  5
525
330
523
100
AcDbEntity
  8
0
100
AcDbBlockEnd
  0
BLOCK
  5
6AE
330
6AD
100
AcDbEntity
  8
0
100
AcDbBlockBegin
  2
*X25
 70
     1
 10
0.0
 20
0.0
 30
0.0
  3
*X25
  1

  4
*X9
  0
LINE
  5
6B0
330
6AD
100
AcDbEntity
  8
LC-001-002-----0
 62
     7
370
    35
100
AcDbLine
 10
566.5874579999999
 20
224.9
 30
0.0
 11
566.857667
 21
224.9
 31
0.0
  0
LINE
  5
6B1
330
6AD
100
AcDbEntity
  8
LC-001-002-----0
 62
     7
370
    35
100
AcDbLine
 10
566.5874579999999
 20
225.0
 30
0.0
 11
567.617242
 21
225.0
 31
0.0
  0
LINE
  5
6B2
330
6AD
100
AcDbEntity
  8
LC-001-002-----0
 62
     7
370
    35
100
AcDbLine
 10
566.5874579999999
 20
225.1
 30
0.0
 11
568.3768169999999
 21
225.1
 31
0.0
  0
LINE
  5
6B3
330
6AD
100
AcDbEntity
  8
LC-001-002-----0
 62
     7
370
    35
100
AcDbLine
 10
566.5874579999999
 20
225.2
 30
0.0
 11
569.136393
 21
225.2
 31
0.0
  0
LINE
  5
6B4
330
6AD
100
AcDbEntity
  8
LC-001-002-----0
 62
     7
370
    35
100
AcDbLine
 10
566.5874579999999
 20
225.3
 30
0.0
 11
569.8959679999999
 21
225.3
 31
0.0
  0
LINE
  5
6B5
330
6AD
100
AcDbEntity
  8
LC-001-002-----0
 62
     7
370
    35
100
AcDbLine
 10
566.5874579999999
 20
225.4
 30
0.0
 11
570.655544
 21
225.4
 31
0.0
  0
LINE
  5
6B6
330
6AD
100
AcDbEntity
  8
LC-001-002-----0
 62
     7
370
    35
100
AcDbLine
 10
566.5874579999999
 20
225.5
 30
0.0
 11
571.4151189999999
 21
225.5
 31
0.0
  0
LINE
  5
6B7
330
6AD
100
AcDbEntity
  8
LC-001-002-----0
 62
     7
370
    35
100
AcDbLine
 10
566.5874579999999
 20
225.6
 30
0.0
 11
572.174694
 21
225.6
 31
0.0
  0
LINE
  5
6B8
330
6AD
100
AcDbEntity
  8
LC-001-002-----0
 62
     7
370
    35
100
AcDbLine
 10
566.5874579999999
 20
225.7
 30
0.0
 11
572.93427
 21
225.7
 31
0.0
  0
LINE
  5
6B9
330
6AD
100
AcDbEntity
  8
LC-001-002-----0
 62
     7
370
    35
100
AcDbLine
 10
566.5874579999999
 20
225.8
 30
0.0
 11
573.693845
 21
225.8
 31
0.0
  0
LINE
  5
6BA
330
6AD
100
AcDbEntity
  8
LC-001-002-----0
 62
     7
370
    35
100
AcDbLine
 10
566.5874579999999
 20
225.9
 30
0.0
 11
574.453421
 21
225.9
 31
0.0
  0
LINE
  5
6BB
330
6AD
100
AcDbEntity
  8
LC-001-002-----0
 62
     7
370
    35
100
AcDbLine
 10
566.5874579999999
 20
226.0
 30
0.0
 11
575.2129959999999
 21
226.0
 31
0.0
  0
LINE
  5
6BC
330
6AD
100
AcDbEntity
  8
LC-001-002-----0
 62
     7
370
    35
100
AcDbLine
 10
566.5874579999999
 20
226.1
 30
0.0
 11
575.972572
 21
226.1
 31
0.0
  0
LINE
  5
6BD
330
6AD
100
AcDbEntity
  8
LC-001-002-----0
 62
     7
370
    35
100
AcDbLine
 10
566.5874579999999
 20
226.2
 30
0.0
 11
576.7321469999999
 21
226.2
 31
0.0
  0
LINE
  5
6BE
330
6AD
100
AcDbEntity
  8
LC-001-002-----0
 62
     7
370
    35
100
AcDbLine
 10
566.5874579999999
 20
226.3
 30
0.0
 11
577.4917219999999
 21
226.3
 31
0.0
  0
LINE
  5
6BF
330
6AD
100
AcDbEntity
  8
LC-001-002-----0
 62
     7
370
    35
100
AcDbLine
 10
566.5874579999999
 20
226.4
 30
0.0
 11
578.2512979999999
 21
226.4
 31
0.0
  0
LINE
  5
6C0
330
6AD
100
AcDbEntity
  8
LC-001-002-----0
 62
     7
370
    35
100
AcDbLine
 10
566.5874579999999
 20
226.5
 30
0.0
 11
579.010873
 21
226.5
 31
0.0
  0
LINE
  5
6C1
330
6AD
100
AcDbEntity
  8
LC-001-002-----0
 62
     7
370
    35
100
AcDbLine
 10
566.5874579999999
 20
226.6
 30
0.0
 11
579.770449
 21
226.6
 31
0.0
  0
LINE
  5
6C2
330
6AD
100
AcDbEntity
  8
LC-001-002-----0
 62
     7
370
    35
100
AcDbLine
 10
566.5874579999999
 20
226.7
 30
0.0
 11
580.530024
 21
226.7
 31
0.0
  0
LINE
  5
6C3
330
6AD
100
AcDbEntity
  8
LC-001-002-----0
 62
     7
370
    35
100
AcDbLine
 10
566.5874579999999
 20
226.8
 30
0.0
 11
581.289599
 21
226.8
 31
0.0
  0
LINE
  5
6C4
330
6AD
100
AcDbEntity
  8
LC-001-002-----0
 62
     7
370
    35
100
AcDbLine
 10
566.5874579999999
 20
226.9
 30
0.0
 11
582.049175
 21
226.9
 31
0.0
  0
LINE
  5
6C5
330
6AD
100
AcDbEntity
  8
LC-001-002-----0
 62
     7
370
    35
100
AcDbLine
 10
566.5874579999999
 20
227.0
 30
0.0
 11
582.80875
 21
227.0
 31
0.0
  0
LINE
  5
6C6
330
6AD
100
AcDbEntity
  8
LC-001-002-----0
 62
     7
370
    35
100
AcDbLine
 10
566.5874579999999
 20
227.1
 30
0.0
 11
583.5683259999999
 21
227.1
 31
0.0
  0
LINE
  5
6C7
330
6AD
100
AcDbEntity
  8
LC-001-002-----0
 62
     7
370
    35
100
AcDbLine
 10
566.5874579999999
 20
227.2
 30
0.0
 11
584.3279009999999
 21
227.2
 31
0.0
  0
LINE
  5
6C8
330
6AD
100
AcDbEntity
  8
LC-001-002-----0
 62
     7
370
    35
100
AcDbLine
 10
566.5874579999999
 20
227.3
 30
0.0
 11
585.0874759999999
 21
227.3
 31
0.0
  0
LINE
  5
6C9
330
6AD
100
AcDbEntity
  8
LC-001-002-----0
 62
     7
370
    35
100
AcDbLine
 10
566.5874579999999
 20
227.4
 30
0.0
 11
585.847052
 21
227.4
 31
0.0
  0
LINE
  5
6CA
330
6AD
100
AcDbEntity
  8
LC-001-002-----0
 62
     7
370
    35
100
AcDbLine
 10
566.5874579999999
 20
227.5
 30
0.0
 11
586.606627
 21
227.5
 31
0.0
  0
LINE
  5
6CB
330
6AD
100
AcDbEntity
  8
LC-001-002-----0
 62
     7
370
    35
100
AcDbLine
 10
566.5874579999999
 20
227.6
 30
0.0
 11
587.366203
 21
227.6
 31
0.0
  0
LINE
  5
6CC
330
6AD
100
AcDbEntity
  8
LC-001-002-----0
 62
     7
370
    35
100
AcDbLine
 10
566.5874579999999
 20
227.7
 30
0.0
 11
588.1257780000001
 21
227.7
 31
0.0
  0
LINE
  5
6CD
330
6AD
100
AcDbEntity
  8
LC-001-002-----0
 62
     7
370
    35
100
AcDbLine
 10
566.5874579999999
 20
227.8
 30
0.0
 11
588.885354
 21
227.8
 31
0.0
  0
LINE
  5
6CE
330
6AD
100
AcDbEntity
  8
LC-001-002-----0
 62
     7
370
    35
100
AcDbLine
 10
566.5874579999999
 20
227.9
 30
0.0
 11
589.644929
 21
227.9
 31
0.0
  0
LINE
  5
6CF
330
6AD
100
AcDbEntity
  8
LC-001-002-----0
 62
     7
370
    35
100
AcDbLine
 10
566.5874579999999
 20
228.0
 30
0.0
 11
590.4045039999999
 21
228.0
 31
0.0
  0
LINE
  5
6D0
330
6AD
100
AcDbEntity
  8
LC-001-002-----0
 62
     7
370
    35
100
AcDbLine
 10
566.5874579999999
 20
228.1
 30
0.0
 11
591.1640799999999
 21
228.1
 31
0.0
  0
LINE
  5
6D1
330
6AD
100
AcDbEntity
  8
LC-001-002-----0
 62
     7
370
    35
100
AcDbLine
 10
566.5874579999999
 20
228.2
 30
0.0
 11
591.9236549999999
 21
228.2
 31
0.0
  0
LINE
  5
6D2
330
6AD
100
AcDbEntity
  8
LC-001-002-----0
 62
     7
370
    35
100
AcDbLine
 10
566.5874579999999
 20
228.3
 30
0.0
 11
592.6832309999999
 21
228.3
 31
0.0
  0
LINE
  5
6D3
330
6AD
100
AcDbEntity
  8
LC-001-002-----0
 62
     7
370
    35
100
AcDbLine
 10
566.5874579999999
 20
228.4
 30
0.0
 11
593.4428059999999
 21
228.4
 31
0.0
  0
LINE
  5
6D4
330
6AD
100
AcDbEntity
  8
LC-001-002-----0
 62
     7
370
    35
100
AcDbLine
 10
566.5874579999999
 20
228.5
 30
0.0
 11
594.2023809999999
 21
228.5
 31
0.0
  0
LINE
  5
6D5
330
6AD
100
AcDbEntity
  8
LC-001-002-----0
 62
     7
370
    35
100
AcDbLine
 10
566.5874579999999
 20
228.6
 30
0.0
 11
594.961957
 21
228.6
 31
0.0
  0
LINE
  5
6D6
330
6AD
100
AcDbEntity
  8
LC-001-002-----0
 62
     7
370
    35
100
AcDbLine
 10
566.5874579999999
 20
228.7
 30
0.0
 11
595.721532
 21
228.7
 31
0.0
  0
LINE
  5
6D7
330
6AD
100
AcDbEntity
  8
LC-001-002-----0
 62
     7
370
    35
100
AcDbLine
 10
566.5874579999999
 20
228.8
 30
0.0
 11
596.481108
 21
228.8
 31
0.0
  0
LINE
  5
6D8
330
6AD
100
AcDbEntity
  8
LC-001-002-----0
 62
     7
370
    35
100
AcDbLine
 10
566.5874579999999
 20
228.9
 30
0.0
 11
597.2406829999999
 21
228.9
 31
0.0
  0
LINE
  5
6D9
330
6AD
100
AcDbEntity
  8
LC-001-002-----0
 62
     7
370
    35
100
AcDbLine
 10
566.5874579999999
 20
229.0
 30
0.0
 11
598.000258
 21
229.0
 31
0.0
  0
LINE
  5
6DA
330
6AD
100
AcDbEntity
  8
LC-001-002-----0
 62
     7
370
    35
100
AcDbLine
 10
566.5874579999999
 20
229.1
 30
0.0
 11
598.7598339999999
 21
229.1
 31
0.0
  0
LINE
  5
6DB
330
6AD
100
AcDbEntity
  8
LC-001-002-----0
 62
     7
370
    35
100
AcDbLine
 10
566.5874579999999
 20
229.2
 30
0.0
 11
599.519409
 21
229.2
 31
0.0
  0
LINE
  5
6DC
330
6AD
100
AcDbEntity
  8
LC-001-002-----0
 62
     7
370
    35
100
AcDbLine
 10
566.5874579999999
 20
229.3
 30
0.0
 11
600.2789849999999
 21
229.3
 31
0.0
  0
LINE
  5
6DD
330
6AD
100
AcDbEntity
  8
LC-001-002-----0
 62
     7
370
    35
100
AcDbLine
 10
566.5874579999999
 20
229.4
 30
0.0
 11
601.0385599999999
 21
229.4
 31
0.0
  0
LINE
  5
6DE
330
6AD
100
AcDbEntity
  8
LC-001-002-----0
 62
     7
370
    35
100
AcDbLine
 10
566.5874579999999
 20
229.5
 30
0.0
 11
601.798136
 21
229.5
 31
0.0
  0
LINE
  5
6DF
330
6AD
100
AcDbEntity
  8
LC-001-002-----0
 62
     7
370
    35
100
AcDbLine
 10
566.5874579999999
 20
229.6
 30
0.0
 11
602.557711
 21
229.6
 31
0.0
  0
LINE
  5
6E0
330
6AD
100
AcDbEntity
  8
LC-001-002-----0
 62
     7
370
    35
100
AcDbLine
 10
566.5874579999999
 20
229.7
 30
0.0
 11
603.317286
 21
229.7
 31
0.0
  0
LINE
  5
6E1
330
6AD
100
AcDbEntity
  8
LC-001-002-----0
 62
     7
370
    35
100
AcDbLine
 10
566.5874579999999
 20
229.8
 30
0.0
 11
604.076862
 21
229.8
 31
0.0
  0
LINE
  5
6E2
330
6AD
100
AcDbEntity
  8
LC-001-002-----0
 62
     7
370
    35
100
AcDbLine
 10
566.5874579999999
 20
229.9
 30
0.0
 11
604.836437
 21
229.9
 31
0.0
  0
LINE
  5
6E3
330
6AD
100
AcDbEntity
  8
LC-001-002-----0
 62
     7
370
    35
100
AcDbLine
 10
566.5874579999999
 20
230.1
 30
0.0
 11
604.836438
 21
230.1
 31
0.0
  0
LINE
  5
6E4
330
6AD
100
AcDbEntity
  8
LC-001-002-----0
 62
     7
370
    35
100
AcDbLine
 10
566.5874579999999
 20
230.2
 30
0.0
 11
604.076862
 21
230.2
 31
0.0
  0
LINE
  5
6E5
330
6AD
100
AcDbEntity
  8
LC-001-002-----0
 62
     7
370
    35
100
AcDbLine
 10
566.5874579999999
 20
230.3
 30
0.0
 11
603.3172869999999
 21
230.3
 31
0.0
  0
LINE
  5
6E6
330
6AD
100
AcDbEntity
  8
LC-001-002-----0
 62
     7
370
    35
100
AcDbLine
 10
566.5874579999999
 20
230.4
 30
0.0
 11
602.557711
 21
230.4
 31
0.0
  0
LINE
  5
6E7
330
6AD
100
AcDbEntity
  8
LC-001-002-----0
 62
     7
370
    35
100
AcDbLine
 10
566.5874579999999
 20
230.5
 30
0.0
 11
601.798136
 21
230.5
 31
0.0
  0
LINE
  5
6E8
330
6AD
100
AcDbEntity
  8
LC-001-002-----0
 62
     7
370
    35
100
AcDbLine
 10
566.5874579999999
 20
230.6
 30
0.0
 11
601.0385610000001
 21
230.6
 31
0.0
  0
LINE
  5
6E9
330
6AD
100
AcDbEntity
  8
LC-001-002-----0
 62
     7
370
    35
100
AcDbLine
 10
566.5874579999999
 20
230.7
 30
0.0
 11
600.2789849999999
 21
230.7
 31
0.0
  0
LINE
  5
6EA
330
6AD
100
AcDbEntity
  8
LC-001-002-----0
 62
     7
370
    35
100
AcDbLine
 10
566.5874579999999
 20
230.8
 30
0.0
 11
599.5194099999999
 21
230.8
 31
0.0
  0
LINE
  5
6EB
330
6AD
100
AcDbEntity
  8
LC-001-002-----0
 62
     7
370
    35
100
AcDbLine
 10
566.5874579999999
 20
230.9
 30
0.0
 11
598.7598339999999
 21
230.9
 31
0.0
  0
LINE
  5
6EC
330
6AD
100
AcDbEntity
  8
LC-001-002-----0
 62
     7
370
    35
100
AcDbLine
 10
566.5874579999999
 20
231.0
 30
0.0
 11
598.000259
 21
231.0
 31
0.0
  0
LINE
  5
6ED
330
6AD
100
AcDbEntity
  8
LC-001-002-----0
 62
     7
370
    35
100
AcDbLine
 10
566.5874579999999
 20
231.1
 30
0.0
 11
597.2406839999999
 21
231.1
 31
0.0
  0
LINE
  5
6EE
330
6AD
100
AcDbEntity
  8
LC-001-002-----0
 62
     7
370
    35
100
AcDbLine
 10
566.5874579999999
 20
231.2
 30
0.0
 11
596.481108
 21
231.2
 31
0.0
  0
LINE
  5
6EF
330
6AD
100
AcDbEntity
  8
LC-001-002-----0
 62
     7
370
    35
100
AcDbLine
 10
566.5874579999999
 20
231.3
 30
0.0
 11
595.721533
 21
231.3
 31
0.0
  0
LINE
  5
6F0
330
6AD
100
AcDbEntity
  8
LC-001-002-----0
 62
     7
370
    35
100
AcDbLine
 10
566.5874579999999
 20
231.4
 30
0.0
 11
594.961957
 21
231.4
 31
0.0
  0
LINE
  5
6F1
330
6AD
100
AcDbEntity
  8
LC-001-002-----0
 62
     7
370
    35
100
AcDbLine
 10
566.5874579999999
 20
231.5
 30
0.0
 11
594.2023820000001
 21
231.5
 31
0.0
  0
LINE
  5
6F2
330
6AD
100
AcDbEntity
  8
LC-001-002-----0
 62
     7
370
    35
100
AcDbLine
 10
566.5874579999999
 20
231.6
 30
0.0
 11
593.442807
 21
231.6
 31
0.0
  0
LINE
  5
6F3
330
6AD
100
AcDbEntity
  8
LC-001-002-----0
 62
     7
370
    35
100
AcDbLine
 10
566.5874579999999
 20
231.7
 30
0.0
 11
592.6832309999999
 21
231.7
 31
0.0
  0
LINE
  5
6F4
330
6AD
100
AcDbEntity
  8
LC-001-002-----0
 62
     7
370
    35
100
AcDbLine
 10
566.5874579999999
 20
231.8
 30
0.0
 11
591.9236559999999
 21
231.8
 31
0.0
  0
LINE
  5
6F5
330
6AD
100
AcDbEntity
  8
LC-001-002-----0
 62
     7
370
    35
100
AcDbLine
 10
566.5874579999999
 20
231.9
 30
0.0
 11
591.1640799999999
 21
231.9
 31
0.0
  0
LINE
  5
6F6
330
6AD
100
AcDbEntity
  8
LC-001-002-----0
 62
     7
370
    35
100
AcDbLine
 10
566.5874579999999
 20
232.0
 30
0.0
 11
590.4045049999999
 21
232.0
 31
0.0
  0
LINE
  5
6F7
330
6AD
100
AcDbEntity
  8
LC-001-002-----0
 62
     7
370
    35
100
AcDbLine
 10
566.5874579999999
 20
232.1
 30
0.0
 11
589.644929
 21
232.1
 31
0.0
  0
LINE
  5
6F8
330
6AD
100
AcDbEntity
  8
LC-001-002-----0
 62
     7
370
    35
100
AcDbLine
 10
566.5874579999999
 20
232.2
 30
0.0
 11
588.885354
 21
232.2
 31
0.0
  0
LINE
  5
6F9
330
6AD
100
AcDbEntity
  8
LC-001-002-----0
 62
     7
370
    35
100
AcDbLine
 10
566.5874579999999
 20
232.3
 30
0.0
 11
588.1257789999999
 21
232.3
 31
0.0
  0
LINE
  5
6FA
330
6AD
100
AcDbEntity
  8
LC-001-002-----0
 62
     7
370
    35
100
AcDbLine
 10
566.5874579999999
 20
232.4
 30
0.0
 11
587.366203
 21
232.4
 31
0.0
  0
LINE
  5
6FB
330
6AD
100
AcDbEntity
  8
LC-001-002-----0
 62
     7
370
    35
100
AcDbLine
 10
566.5874579999999
 20
232.5
 30
0.0
 11
586.606628
 21
232.5
 31
0.0
  0
LINE
  5
6FC
330
6AD
100
AcDbEntity
  8
LC-001-002-----0
 62
     7
370
    35
100
AcDbLine
 10
566.5874579999999
 20
232.6
 30
0.0
 11
585.847052
 21
232.6
 31
0.0
  0
LINE
  5
6FD
330
6AD
100
AcDbEntity
  8
LC-001-002-----0
 62
     7
370
    35
100
AcDbLine
 10
566.5874579999999
 20
232.7
 30
0.0
 11
585.0874769999999
 21
232.7
 31
0.0
  0
LINE
  5
6FE
330
6AD
100
AcDbEntity
  8
LC-001-002-----0
 62
     7
370
    35
100
AcDbLine
 10
566.5874579999999
 20
232.8
 30
0.0
 11
584.3279019999999
 21
232.8
 31
0.0
  0
LINE
  5
6FF
330
6AD
100
AcDbEntity
  8
LC-001-002-----0
 62
     7
370
    35
100
AcDbLine
 10
566.5874579999999
 20
232.9
 30
0.0
 11
583.5683259999999
 21
232.9
 31
0.0
  0
LINE
  5
700
330
6AD
100
AcDbEntity
  8
LC-001-002-----0
 62
     7
370
    35
100
AcDbLine
 10
566.5874579999999
 20
233.0
 30
0.0
 11
582.808751
 21
233.0
 31
0.0
  0
LINE
  5
701
330
6AD
100
AcDbEntity
  8
LC-001-002-----0
 62
     7
370
    35
100
AcDbLine
 10
566.5874579999999
 20
233.1
 30
0.0
 11
582.049175
 21
233.1
 31
0.0
  0
LINE
  5
702
330
6AD
100
AcDbEntity
  8
LC-001-002-----0
 62
     7
370
    35
100
AcDbLine
 10
566.5874579999999
 20
233.2
 30
0.0
 11
581.2895999999999
 21
233.2
 31
0.0
  0
LINE
  5
703
330
6AD
100
AcDbEntity
  8
LC-001-002-----0
 62
     7
370
    35
100
AcDbLine
 10
566.5874579999999
 20
233.3
 30
0.0
 11
580.530025
 21
233.3
 31
0.0
  0
LINE
  5
704
330
6AD
100
AcDbEntity
  8
LC-001-002-----0
 62
     7
370
    35
100
AcDbLine
 10
566.5874579999999
 20
233.4
 30
0.0
 11
579.770449
 21
233.4
 31
0.0
  0
LINE
  5
705
330
6AD
100
AcDbEntity
  8
LC-001-002-----0
 62
     7
370
    35
100
AcDbLine
 10
566.5874579999999
 20
233.5
 30
0.0
 11
579.010874
 21
233.5
 31
0.0
  0
LINE
  5
706
330
6AD
100
AcDbEntity
  8
LC-001-002-----0
 62
     7
370
    35
100
AcDbLine
 10
566.5874579999999
 20
233.6
 30
0.0
 11
578.2512979999999
 21
233.6
 31
0.0
  0
LINE
  5
707
330
6AD
100
AcDbEntity
  8
LC-001-002-----0
 62
     7
370
    35
100
AcDbLine
 10
566.5874579999999
 20
233.7
 30
0.0
 11
577.491723
 21
233.7
 31
0.0
  0
LINE
  5
708
330
6AD
100
AcDbEntity
  8
LC-001-002-----0
 62
     7
370
    35
100
AcDbLine
 10
566.5874579999999
 20
233.8
 30
0.0
 11
576.7321469999999
 21
233.8
 31
0.0
  0
LINE
  5
709
330
6AD
100
AcDbEntity
  8
LC-001-002-----0
 62
     7
370
    35
100
AcDbLine
 10
566.5874579999999
 20
233.9
 30
0.0
 11
575.972572
 21
233.9
 31
0.0
  0
LINE
  5
70A
330
6AD
100
AcDbEntity
  8
LC-001-002-----0
 62
     7
370
    35
100
AcDbLine
 10
566.5874579999999
 20
234.0
 30
0.0
 11
575.2129969999999
 21
234.0
 31
0.0
  0
LINE
  5
70B
330
6AD
100
AcDbEntity
  8
LC-001-002-----0
 62
     7
370
    35
100
AcDbLine
 10
566.5874579999999
 20
234.1
 30
0.0
 11
574.453421
 21
234.1
 31
0.0
  0
LINE
  5
70C
330
6AD
100
AcDbEntity
  8
LC-001-002-----0
 62
     7
370
    35
100
AcDbLine
 10
566.5874579999999
 20
234.2
 30
0.0
 11
573.693846
 21
234.2
 31
0.0
  0
LINE
  5
70D
330
6AD
100
AcDbEntity
  8
LC-001-002-----0
 62
     7
370
    35
100
AcDbLine
 10
566.5874579999999
 20
234.3
 30
0.0
 11
572.93427
 21
234.3
 31
0.0
  0
LINE
  5
70E
330
6AD
100
AcDbEntity
  8
LC-001-002-----0
 62
     7
370
    35
100
AcDbLine
 10
566.5874579999999
 20
234.4
 30
0.0
 11
572.174695
 21
234.4
 31
0.0
  0
LINE
  5
70F
330
6AD
100
AcDbEntity
  8
LC-001-002-----0
 62
     7
370
    35
100
AcDbLine
 10
566.5874579999999
 20
234.5
 30
0.0
 11
571.4151199999999
 21
234.5
 31
0.0
  0
LINE
  5
710
330
6AD
100
AcDbEntity
  8
LC-001-002-----0
 62
     7
370
    35
100
AcDbLine
 10
566.5874579999999
 20
234.6
 30
0.0
 11
570.655544
 21
234.6
 31
0.0
  0
LINE
  5
711
330
6AD
100
AcDbEntity
  8
LC-001-002-----0
 62
     7
370
    35
100
AcDbLine
 10
566.5874579999999
 20
234.7
 30
0.0
 11
569.895969
 21
234.7
 31
0.0
  0
LINE
  5
712
330
6AD
100
AcDbEntity
  8
LC-001-002-----0
 62
     7
370
    35
100
AcDbLine
 10
566.5874579999999
 20
234.8
 30
0.0
 11
569.136393
 21
234.8
 31
0.0
  0
LINE
  5
713
330
6AD
100
AcDbEntity
  8
LC-001-002-----0
 62
     7
370
    35
100
AcDbLine
 10
566.5874579999999
 20
234.9
 30
0.0
 11
568.3768179999999
 21
234.9
 31
0.0
  0
LINE
  5
714
330
6AD
100
AcDbEntity
  8
LC-001-002-----0
 62
     7
370
    35
100
AcDbLine
 10
566.5874579999999
 20
235.0
 30
0.0
 11
567.6172429999999
 21
235.0
 31
0.0
  0
LINE
  5
715
330
6AD
100
AcDbEntity
  8
LC-001-002-----0
 62
     7
370
    35
100
AcDbLine
 10
566.5874579999999
 20
235.1
 30
0.0
 11
566.857667
 21
235.1
 31
0.0
  0
ENDBLK
  5
6AF
330
6AD
100
AcDbEntity
  8
0
100
AcDbBlockEnd
  0
BLOCK
  5
71B
330
71A
100
AcDbEntity
  8
0
100
AcDbBlockBegin
  2
*X26
 70
     1
 10
0.0
 20
0.0
 30
0.0
  3
*X26
  1

  4
*X10
  0
LINE
  5
71D
330
71A
100
AcDbEntity
  8
LC-001-002-----0
 62
     7
370
    35
100
AcDbLine
 10
506.5960129999999
 20
215.2
 30
0.0
 11
509.0373239999999
 21
215.2
 31
0.0
  0
LINE
  5
71E
330
71A
100
AcDbEntity
  8
LC-001-002-----0
 62
     7
370
    35
100
AcDbLine
 10
506.5960129999999
 20
215.4
 30
0.0
 11
510.0369429999999
 21
215.4
 31
0.0
  0
LINE
  5
71F
330
71A
100
AcDbEntity
  8
LC-001-002-----0
 62
     7
370
    35
100
AcDbLine
 10
506.5960129999999
 20
215.6
 30
0.0
 11
510.796013
 21
215.6
 31
0.0
  0
LINE
  5
720
330
71A
100
AcDbEntity
  8
LC-001-002-----0
 62
     7
370
    35
100
AcDbLine
 10
506.5960129999999
 20
215.8
 30
0.0
 11
511.4292309999999
 21
215.8
 31
0.0
  0
LINE
  5
721
330
71A
100
AcDbEntity
  8
LC-001-002-----0
 62
     7
370
    35
100
AcDbLine
 10
506.5960129999999
 20
216.0
 30
0.0
 11
511.981178
 21
216.0
 31
0.0
  0
LINE
  5
722
330
71A
100
AcDbEntity
  8
LC-001-002-----0
 62
     7
370
    35
100
AcDbLine
 10
506.5960129999999
 20
216.2
 30
0.0
 11
512.474788
 21
216.2
 31
0.0
  0
LINE
  5
723
330
71A
100
AcDbEntity
  8
LC-001-002-----0
 62
     7
370
    35
100
AcDbLine
 10
506.5960129999999
 20
216.4
 30
0.0
 11
512.9237299999999
 21
216.4
 31
0.0
  0
LINE
  5
724
330
71A
100
AcDbEntity
  8
LC-001-002-----0
 62
     7
370
    35
100
AcDbLine
 10
506.5960129999999
 20
216.6
 30
0.0
 11
513.336933
 21
216.6
 31
0.0
  0
LINE
  5
725
330
71A
100
AcDbEntity
  8
LC-001-002-----0
 62
     7
370
    35
100
AcDbLine
 10
506.5960129999999
 20
216.8
 30
0.0
 11
513.7206179999999
 21
216.8
 31
0.0
  0
LINE
  5
726
330
71A
100
AcDbEntity
  8
LC-001-002-----0
 62
     7
370
    35
100
AcDbLine
 10
506.5960129999999
 20
217.0
 30
0.0
 11
514.079328
 21
217.0
 31
0.0
  0
LINE
  5
727
330
71A
100
AcDbEntity
  8
LC-001-002-----0
 62
     7
370
    35
100
AcDbLine
 10
506.5960129999999
 20
217.2
 30
0.0
 11
514.416499
 21
217.2
 31
0.0
  0
LINE
  5
728
330
71A
100
AcDbEntity
  8
LC-001-002-----0
 62
     7
370
    35
100
AcDbLine
 10
506.5960129999999
 20
217.4
 30
0.0
 11
514.734809
 21
217.4
 31
0.0
  0
LINE
  5
729
330
71A
100
AcDbEntity
  8
LC-001-002-----0
 62
     7
370
    35
100
AcDbLine
 10
506.5960129999999
 20
217.6
 30
0.0
 11
515.036392
 21
217.6
 31
0.0
  0
LINE
  5
72A
330
71A
100
AcDbEntity
  8
LC-001-002-----0
 62
     7
370
    35
100
AcDbLine
 10
506.5960129999999
 20
217.8
 30
0.0
 11
515.3229819999999
 21
217.8
 31
0.0
  0
LINE
  5
72B
330
71A
100
AcDbEntity
  8
LC-001-002-----0
 62
     7
370
    35
100
AcDbLine
 10
506.5960129999999
 20
218.0
 30
0.0
 11
515.5960129999999
 21
218.0
 31
0.0
  0
LINE
  5
72C
330
71A
100
AcDbEntity
  8
LC-001-002-----0
 62
     7
370
    35
100
AcDbLine
 10
506.5960129999999
 20
218.2
 30
0.0
 11
515.8566819999999
 21
218.2
 31
0.0
  0
LINE
  5
72D
330
71A
100
AcDbEntity
  8
LC-001-002-----0
 62
     7
370
    35
100
AcDbLine
 10
506.5960129999999
 20
218.4
 30
0.0
 11
516.1060079999999
 21
218.4
 31
0.0
  0
LINE
  5
72E
330
71A
100
AcDbEntity
  8
LC-001-002-----0
 62
     7
370
    35
100
AcDbLine
 10
506.5960129999999
 20
218.6
 30
0.0
 11
516.3448589999999
 21
218.6
 31
0.0
  0
LINE
  5
72F
330
71A
100
AcDbEntity
  8
LC-001-002-----0
 62
     7
370
    35
100
AcDbLine
 10
506.5960129999999
 20
218.8
 30
0.0
 11
516.573989
 21
218.8
 31
0.0
  0
LINE
  5
730
330
71A
100
AcDbEntity
  8
LC-001-002-----0
 62
     7
370
    35
100
AcDbLine
 10
506.5960129999999
 20
219.0
 30
0.0
 11
516.794052
 21
219.0
 31
0.0
  0
LINE
  5
731
330
71A
100
AcDbEntity
  8
LC-001-002-----0
 62
     7
370
    35
100
AcDbLine
 10
506.5960129999999
 20
219.2
 30
0.0
 11
517.005624
 21
219.2
 31
0.0
  0
LINE
  5
732
330
71A
100
AcDbEntity
  8
LC-001-002-----0
 62
     7
370
    35
100
AcDbLine
 10
506.5960129999999
 20
219.4
 30
0.0
 11
517.209212
 21
219.4
 31
0.0
  0
LINE
  5
733
330
71A
100
AcDbEntity
  8
LC-001-002-----0
 62
     7
370
    35
100
AcDbLine
 10
506.5960129999999
 20
219.6
 30
0.0
 11
517.4052679999999
 21
219.6
 31
0.0
  0
LINE
  5
734
330
71A
100
AcDbEntity
  8
LC-001-002-----0
 62
     7
370
    35
100
AcDbLine
 10
506.5960129999999
 20
219.8
 30
0.0
 11
517.594194
 21
219.8
 31
0.0
  0
LINE
  5
735
330
71A
100
AcDbEntity
  8
LC-001-002-----0
 62
     7
370
    35
100
AcDbLine
 10
506.5960129999999
 20
220.0
 30
0.0
 11
517.776353
 21
220.0
 31
0.0
  0
LINE
  5
736
330
71A
100
AcDbEntity
  8
LC-001-002-----0
 62
     7
370
    35
100
AcDbLine
 10
506.5960129999999
 20
220.2
 30
0.0
 11
517.9520679999999
 21
220.2
 31
0.0
  0
LINE
  5
737
330
71A
100
AcDbEntity
  8
LC-001-002-----0
 62
     7
370
    35
100
AcDbLine
 10
506.5960129999999
 20
220.4
 30
0.0
 11
518.121636
 21
220.4
 31
0.0
  0
LINE
  5
738
330
71A
100
AcDbEntity
  8
LC-001-002-----0
 62
     7
370
    35
100
AcDbLine
 10
506.5960129999999
 20
220.6
 30
0.0
 11
518.285324
 21
220.6
 31
0.0
  0
LINE
  5
739
330
71A
100
AcDbEntity
  8
LC-001-002-----0
 62
     7
370
    35
100
AcDbLine
 10
506.5960129999999
 20
220.8
 30
0.0
 11
518.4433749999999
 21
220.8
 31
0.0
  0
LINE
  5
73A
330
71A
100
AcDbEntity
  8
LC-001-002-----0
 62
     7
370
    35
100
AcDbLine
 10
506.5960129999999
 20
221.0
 30
0.0
 11
518.5960129999999
 21
221.0
 31
0.0
  0
LINE
  5
73B
330
71A
100
AcDbEntity
  8
LC-001-002-----0
 62
     7
370
    35
100
AcDbLine
 10
506.5960129999999
 20
221.2
 30
0.0
 11
518.7434409999999
 21
221.2
 31
0.0
  0
LINE
  5
73C
330
71A
100
AcDbEntity
  8
LC-001-002-----0
 62
     7
370
    35
100
AcDbLine
 10
506.5960129999999
 20
221.4
 30
0.0
 11
518.885846
 21
221.4
 31
0.0
  0
LINE
  5
73D
330
71A
100
AcDbEntity
  8
LC-001-002-----0
 62
     7
370
    35
100
AcDbLine
 10
506.5960129999999
 20
221.6
 30
0.0
 11
519.0234019999999
 21
221.6
 31
0.0
  0
LINE
  5
73E
330
71A
100
AcDbEntity
  8
LC-001-002-----0
 62
     7
370
    35
100
AcDbLine
 10
506.5960129999999
 20
221.8
 30
0.0
 11
519.1562679999999
 21
221.8
 31
0.0
  0
LINE
  5
73F
330
71A
100
AcDbEntity
  8
LC-001-002-----0
 62
     7
370
    35
100
AcDbLine
 10
506.5960129999999
 20
222.0
 30
0.0
 11
519.28459
 21
222.0
 31
0.0
  0
LINE
  5
740
330
71A
100
AcDbEntity
  8
LC-001-002-----0
 62
     7
370
    35
100
AcDbLine
 10
506.5960129999999
 20
222.2
 30
0.0
 11
519.4085069999999
 21
222.2
 31
0.0
  0
LINE
  5
741
330
71A
100
AcDbEntity
  8
LC-001-002-----0
 62
     7
370
    35
100
AcDbLine
 10
506.5960129999999
 20
222.4
 30
0.0
 11
519.528143
 21
222.4
 31
0.0
  0
LINE
  5
742
330
71A
100
AcDbEntity
  8
LC-001-002-----0
 62
     7
370
    35
100
AcDbLine
 10
506.5960129999999
 20
222.6
 30
0.0
 11
519.6436179999999
 21
222.6
 31
0.0
  0
LINE
  5
743
330
71A
100
AcDbEntity
  8
LC-001-002-----0
 62
     7
370
    35
100
AcDbLine
 10
506.5960129999999
 20
222.8
 30
0.0
 11
519.7550399999999
 21
222.8
 31
0.0
  0
LINE
  5
744
330
71A
100
AcDbEntity
  8
LC-001-002-----0
 62
     7
370
    35
100
AcDbLine
 10
506.5960129999999
 20
223.0
 30
0.0
 11
519.862512
 21
223.0
 31
0.0
  0
LINE
  5
745
330
71A
100
AcDbEntity
  8
LC-001-002-----0
 62
     7
370
    35
100
AcDbLine
 10
506.5960129999999
 20
223.2
 30
0.0
 11
519.966129
 21
223.2
 31
0.0
  0
LINE
  5
746
330
71A
100
AcDbEntity
  8
LC-001-002-----0
 62
     7
370
    35
100
AcDbLine
 10
506.5960129999999
 20
223.4
 30
0.0
 11
520.0659789999999
 21
223.4
 31
0.0
  0
LINE
  5
747
330
71A
100
AcDbEntity
  8
LC-001-002-----0
 62
     7
370
    35
100
AcDbLine
 10
506.5960129999999
 20
223.6
 30
0.0
 11
520.162147
 21
223.6
 31
0.0
  0
LINE
  5
748
330
71A
100
AcDbEntity
  8
LC-001-002-----0
 62
     7
370
    35
100
AcDbLine
 10
506.5960129999999
 20
223.8
 30
0.0
 11
520.2547099999999
 21
223.8
 31
0.0
  0
LINE
  5
749
330
71A
100
AcDbEntity
  8
LC-001-002-----0
 62
     7
370
    35
100
AcDbLine
 10
506.5960129999999
 20
224.0
 30
0.0
 11
520.34374
 21
224.0
 31
0.0
  0
LINE
  5
74A
330
71A
100
AcDbEntity
  8
LC-001-002-----0
 62
     7
370
    35
100
AcDbLine
 10
506.5960129999999
 20
224.2
 30
0.0
 11
520.429306
 21
224.2
 31
0.0
  0
LINE
  5
74B
330
71A
100
AcDbEntity
  8
LC-001-002-----0
 62
     7
370
    35
100
AcDbLine
 10
506.5960129999999
 20
224.4
 30
0.0
 11
520.511472
 21
224.4
 31
0.0
  0
LINE
  5
74C
330
71A
100
AcDbEntity
  8
LC-001-002-----0
 62
     7
370
    35
100
AcDbLine
 10
506.5960129999999
 20
224.6
 30
0.0
 11
520.5902969999999
 21
224.6
 31
0.0
  0
LINE
  5
74D
330
71A
100
AcDbEntity
  8
LC-001-002-----0
 62
     7
370
    35
100
AcDbLine
 10
506.5960129999999
 20
224.8
 30
0.0
 11
520.665839
 21
224.8
 31
0.0
  0
LINE
  5
74E
330
71A
100
AcDbEntity
  8
LC-001-002-----0
 62
     7
370
    35
100
AcDbLine
 10
506.5960129999999
 20
225.0
 30
0.0
 11
520.738148
 21
225.0
 31
0.0
  0
LINE
  5
74F
330
71A
100
AcDbEntity
  8
LC-001-002-----0
 62
     7
370
    35
100
AcDbLine
 10
506.5960129999999
 20
225.2
 30
0.0
 11
520.807276
 21
225.2
 31
0.0
  0
LINE
  5
750
330
71A
100
AcDbEntity
  8
LC-001-002-----0
 62
     7
370
    35
100
AcDbLine
 10
506.5960129999999
 20
225.4
 30
0.0
 11
520.8732669999999
 21
225.4
 31
0.0
  0
LINE
  5
751
330
71A
100
AcDbEntity
  8
LC-001-002-----0
 62
     7
370
    35
100
AcDbLine
 10
506.5960129999999
 20
225.6
 30
0.0
 11
520.936166
 21
225.6
 31
0.0
  0
LINE
  5
752
330
71A
100
AcDbEntity
  8
LC-001-002-----0
 62
     7
370
    35
100
AcDbLine
 10
506.5960129999999
 20
225.8
 30
0.0
 11
520.9960129999999
 21
225.8
 31
0.0
  0
LINE
  5
753
330
71A
100
AcDbEntity
  8
LC-001-002-----0
 62
     7
370
    35
100
AcDbLine
 10
506.5960129999999
 20
226.0
 30
0.0
 11
521.052845
 21
226.0
 31
0.0
  0
LINE
  5
754
330
71A
100
AcDbEntity
  8
LC-001-002-----0
 62
     7
370
    35
100
AcDbLine
 10
506.5960129999999
 20
226.2
 30
0.0
 11
521.106699
 21
226.2
 31
0.0
  0
LINE
  5
755
330
71A
100
AcDbEntity
  8
LC-001-002-----0
 62
     7
370
    35
100
AcDbLine
 10
506.5960129999999
 20
226.4
 30
0.0
 11
521.1576059999999
 21
226.4
 31
0.0
  0
LINE
  5
756
330
71A
100
AcDbEntity
  8
LC-001-002-----0
 62
     7
370
    35
100
AcDbLine
 10
506.5960129999999
 20
226.6
 30
0.0
 11
521.205599
 21
226.6
 31
0.0
  0
LINE
  5
757
330
71A
100
AcDbEntity
  8
LC-001-002-----0
 62
     7
370
    35
100
AcDbLine
 10
506.5960129999999
 20
226.8
 30
0.0
 11
521.2507049999999
 21
226.8
 31
0.0
  0
LINE
  5
758
330
71A
100
AcDbEntity
  8
LC-001-002-----0
 62
     7
370
    35
100
AcDbLine
 10
506.5960129999999
 20
227.0
 30
0.0
 11
521.292951
 21
227.0
 31
0.0
  0
LINE
  5
759
330
71A
100
AcDbEntity
  8
LC-001-002-----0
 62
     7
370
    35
100
AcDbLine
 10
506.5960129999999
 20
227.2
 30
0.0
 11
521.3323619999999
 21
227.2
 31
0.0
  0
LINE
  5
75A
330
71A
100
AcDbEntity
  8
LC-001-002-----0
 62
     7
370
    35
100
AcDbLine
 10
506.5960129999999
 20
227.4
 30
0.0
 11
521.368961
 21
227.4
 31
0.0
  0
LINE
  5
75B
330
71A
100
AcDbEntity
  8
LC-001-002-----0
 62
     7
370
    35
100
AcDbLine
 10
506.5960129999999
 20
227.6
 30
0.0
 11
521.4027679999999
 21
227.6
 31
0.0
  0
LINE
  5
75C
330
71A
100
AcDbEntity
  8
LC-001-002-----0
 62
     7
370
    35
100
AcDbLine
 10
506.5960129999999
 20
227.8
 30
0.0
 11
521.4338019999998
 21
227.8
 31
0.0
  0
LINE
  5
75D
330
71A
100
AcDbEntity
  8
LC-001-002-----0
 62
     7
370
    35
100
AcDbLine
 10
506.5960129999999
 20
228.0
 30
0.0
 11
521.462082
 21
228.0
 31
0.0
  0
LINE
  5
75E
330
71A
100
AcDbEntity
  8
LC-001-002-----0
 62
     7
370
    35
100
AcDbLine
 10
506.5960129999999
 20
228.2
 30
0.0
 11
521.4876209999999
 21
228.2
 31
0.0
  0
LINE
  5
75F
330
71A
100
AcDbEntity
  8
LC-001-002-----0
 62
     7
370
    35
100
AcDbLine
 10
506.5960129999999
 20
228.4
 30
0.0
 11
521.5104349999998
 21
228.4
 31
0.0
  0
LINE
  5
760
330
71A
100
AcDbEntity
  8
LC-001-002-----0
 62
     7
370
    35
100
AcDbLine
 10
506.5960129999999
 20
228.6
 30
0.0
 11
521.530537
 21
228.6
 31
0.0
  0
LINE
  5
761
330
71A
100
AcDbEntity
  8
LC-001-002-----0
 62
     7
370
    35
100
AcDbLine
 10
506.5960129999999
 20
228.8
 30
0.0
 11
521.547936
 21
228.8
 31
0.0
  0
LINE
  5
762
330
71A
100
AcDbEntity
  8
LC-001-002-----0
 62
     7
370
    35
100
AcDbLine
 10
506.5960129999999
 20
229.0
 30
0.0
 11
521.5626419999999
 21
229.0
 31
0.0
  0
LINE
  5
763
330
71A
100
AcDbEntity
  8
LC-001-002-----0
 62
     7
370
    35
100
AcDbLine
 10
506.5960129999999
 20
229.2
 30
0.0
 11
521.5746639999999
 21
229.2
 31
0.0
  0
LINE
  5
764
330
71A
100
AcDbEntity
  8
LC-001-002-----0
 62
     7
370
    35
100
AcDbLine
 10
506.5960129999999
 20
229.4
 30
0.0
 11
521.584008
 21
229.4
 31
0.0
  0
LINE
  5
765
330
71A
100
AcDbEntity
  8
LC-001-002-----0
 62
     7
370
    35
100
AcDbLine
 10
506.5960129999999
 20
229.6
 30
0.0
 11
521.590679
 21
229.6
 31
0.0
  0
LINE
  5
766
330
71A
100
AcDbEntity
  8
LC-001-002-----0
 62
     7
370
    35
100
AcDbLine
 10
506.5960129999999
 20
229.8
 30
0.0
 11
521.594679
 21
229.8
 31
0.0
  0
LINE
  5
767
330
71A
100
AcDbEntity
  8
LC-001-002-----0
 62
     7
370
    35
100
AcDbLine
 10
506.5960129999999
 20
230.0
 30
0.0
 11
521.596013
 21
230.0
 31
0.0
  0
ENDBLK
  5
71C
330
71A
100
AcDbEntity
  8
0
100
AcDbBlockEnd
  0
BLOCK
  5
776
330
76B
100
AcDbEntity
  8
0
100
AcDbBlockBegin
  2
*D27
 70
     1
 10
0.0
 20
0.0
 30
0.0
  3
*D27
  1

  0
LINE
  5
76C
330
76B
100
AcDbEntity
  8
LC-006-003-----0
 62
     2
370
    -2
100
AcDbLine
 10
303.971013
 20
454.6249999999999
 30
0.0
 11
191.0
 21
454.6249999999999
 31
0.0
  0
LINE
  5
76D
330
76B
100
AcDbEntity
  8
LC-006-003-----0
 62
     2
370
    -2
100
AcDbLine
 10
303.971013
 20
230.0
 30
0.0
 11
191.0
 21
230.0
 31
0.0
  0
LINE
  5
76E
330
76B
100
AcDbEntity
  8
LC-006-003-----0
 62
     2
370
    -2
100
AcDbLine
 10
200.0
 20
442.1249999999999
 30
0.0
 11
200.0
 21
396.8249990000001
 31
0.0
  0
LINE
  5
76F
330
76B
100
AcDbEntity
  8
LC-006-003-----0
 62
     2
370
    -2
100
AcDbLine
 10
200.0
 20
242.5
 30
0.0
 11
200.0
 21
287.800001
 31
0.0
  0
SOLID
  5
770
330
76B
100
AcDbEntity
  8
LC-006-003-----0
 62
     2
100
AcDbTrace
 10
202.083333
 20
442.1249999999999
 30
0.0
 11
197.916667
 21
442.1249999999999
 31
0.0
 12
200.0
 22
454.6249999999999
 32
0.0
 13
200.0
 23
454.6249999999999
 33
0.0
  0
SOLID
  5
771
330
76B
100
AcDbEntity
  8
LC-006-003-----0
 62
     2
100
AcDbTrace
 10
197.916667
 20
242.5
 30
0.0
 11
202.083333
 21
242.5
 31
0.0
 12
200.0
 22
230.0
 32
0.0
 13
200.0
 23
230.0
 33
0.0
  0
MTEXT
  5
772
330
76B
100
AcDbEntity
  8
LC-006-003-----0
 62
     2
100
AcDbMText
 10
185.0
 20
342.3125
 30
0.0
 40
12.5
 41
0.0
 71
     5
 72
     1
  1
(\A1;224,625)
  7
LCTX0-400-0-0pDIN-Schrift
 11
0.0000000000000001
 21
1.0
 31
0.0
 73
     1
 44
1.0
1001
ACAD
1000
MTEXTBEGIN
1070
    73
1070
     1
1070
    44
1040
1.0
1070
    74
1070
     0
1000
MTEXTEND
  0
POINT
  5
773
330
76B
100
AcDbEntity
  8
Defpoints
 62
     0
100
AcDbPoint
 10
303.971013
 20
454.6249999999999
 30
0.0
  0
POINT
  5
774
330
76B
100
AcDbEntity
  8
Defpoints
 62
     0
100
AcDbPoint
 10
303.971013
 20
230.0
 30
0.0
  0
POINT
  5
775
330
76B
100
AcDbEntity
  8
Defpoints
 62
     0
100
AcDbPoint
 10
200.0
 20
230.0
 30
0.0
  0
ENDBLK
  5
777
330
76B
100
AcDbEntity
  8
0
100
AcDbBlockEnd
  0
BLOCK
  5
784
330
779
100
AcDbEntity
  8
0
100
AcDbBlockBegin
  2
*D28
 70
     1
 10
0.0
 20
0.0
 30
0.0
  3
*D28
  1

  0
LINE
  5
77A
330
779
100
AcDbEntity
  8
LC-006-003-----0
 62
     2
370
    -2
100
AcDbLine
 10
303.971013
 20
230.0
 30
0.0
 11
191.0
 21
230.0
 31
0.0
  0
LINE
  5
77B
330
779
100
AcDbEntity
  8
LC-006-003-----0
 62
     2
370
    -2
100
AcDbLine
 10
303.971013
 20
5.375
 30
0.0
 11
191.0
 21
5.375
 31
0.0
  0
LINE
  5
77C
330
779
100
AcDbEntity
  8
LC-006-003-----0
 62
     2
370
    -2
100
AcDbLine
 10
200.0
 20
217.5
 30
0.0
 11
200.0
 21
172.199999
 31
0.0
  0
LINE
  5
77D
330
779
100
AcDbEntity
  8
LC-006-003-----0
 62
     2
370
    -2
100
AcDbLine
 10
200.0
 20
17.875
 30
0.0
 11
200.0
 21
63.175001
 31
0.0
  0
SOLID
  5
77E
330
779
100
AcDbEntity
  8
LC-006-003-----0
 62
     2
100
AcDbTrace
 10
202.083333
 20
217.5
 30
0.0
 11
197.916667
 21
217.5
 31
0.0
 12
200.0
 22
230.0
 32
0.0
 13
200.0
 23
230.0
 33
0.0
  0
SOLID
  5
77F
330
779
100
AcDbEntity
  8
LC-006-003-----0
 62
     2
100
AcDbTrace
 10
197.916667
 20
17.875
 30
0.0
 11
202.083333
 21
17.875
 31
0.0
 12
200.0
 22
5.375
 32
0.0
 13
200.0
 23
5.375
 33
0.0
  0
MTEXT
  5
780
330
779
100
AcDbEntity
  8
LC-006-003-----0
 62
     2
100
AcDbMText
 10
185.0
 20
117.6875
 30
0.0
 40
12.5
 41
0.0
 71
     5
 72
     1
  1
(\A1;224,625)
  7
LCTX0-400-0-0pDIN-Schrift
 11
0.0000000000000001
 21
1.0
 31
0.0
 73
     1
 44
1.0
1001
ACAD
1000
MTEXTBEGIN
1070
    73
1070
     1
1070
    44
1040
1.0
1070
    74
1070
     0
1000
MTEXTEND
  0
POINT
  5
781
330
779
100
AcDbEntity
  8
Defpoints
 62
     0
100
AcDbPoint
 10
303.971013
 20
230.0
 30
0.0
  0
POINT
  5
782
330
779
100
AcDbEntity
  8
Defpoints
 62
     0
100
AcDbPoint
 10
303.971013
 20
5.375
 30
0.0
  0
POINT
  5
783
330
779
100
AcDbEntity
  8
Defpoints
 62
     0
100
AcDbPoint
 10
200.0
 20
5.375
 30
0.0
  0
ENDBLK
  5
785
330
779
100
AcDbEntity
  8
0
100
AcDbBlockEnd
  0
BLOCK
  5
791
330
787
100
AcDbEntity
  8
0
100
AcDbBlockBegin
  2
*D29
 70
     1
 10
0.0
 20
0.0
 30
0.0
  3
*D29
  1

  0
LINE
  5
788
330
787
100
AcDbEntity
  8
LC-006-003-----0
 62
     2
370
    -2
100
AcDbLine
 10
343.971013
 20
-34.625
 30
0.0
 11
343.971013
 21
-134.0
 31
0.0
  0
LINE
  5
789
330
787
100
AcDbEntity
  8
LC-006-003-----0
 62
     2
370
    -2
100
AcDbLine
 10
506.5960129999999
 20
-34.625
 30
0.0
 11
506.5960129999999
 21
-134.0
 31
0.0
  0
LINE
  5
78A
330
787
100
AcDbEntity
  8
LC-006-003-----0
 62
     2
370
    -2
100
AcDbLine
 10
356.471013
 20
-125.0
 30
0.0
 11
494.0960129999999
 21
-125.0
 31
0.0
  0
SOLID
  5
78B
330
787
100
AcDbEntity
  8
LC-006-003-----0
 62
     2
100
AcDbTrace
 10
356.471013
 20
-122.916667
 30
0.0
 11
356.471013
 21
-127.083333
 31
0.0
 12
343.971013
 22
-125.0
 32
0.0
 13
343.971013
 23
-125.0
 33
0.0
  0
SOLID
  5
78C
330
787
100
AcDbEntity
  8
LC-006-003-----0
 62
     2
100
AcDbTrace
 10
494.0960129999999
 20
-127.083333
 30
0.0
 11
494.0960129999999
 21
-122.916667
 31
0.0
 12
506.5960129999999
 22
-125.0
 32
0.0
 13
506.5960129999999
 23
-125.0
 33
0.0
  0
MTEXT
  5
78D
330
787
100
AcDbEntity
  8
LC-006-003-----0
 62
     2
100
AcDbMText
 10
425.2835129999999
 20
-110.0
 30
0.0
 40
12.5
 41
0.0
 71
     5
 72
     1
  1
(\A1;162,625)
  7
LCTX0-400-0-0pDIN-Schrift
 73
     1
 44
1.0
1001
ACAD
1000
MTEXTBEGIN
1070
    73
1070
     1
1070
    44
1040
1.0
1070
    74
1070
     0
1000
MTEXTEND
  0
POINT
  5
78E
330
787
100
AcDbEntity
  8
Defpoints
 62
     0
100
AcDbPoint
 10
343.971013
 20
-34.625
 30
0.0
  0
POINT
  5
78F
330
787
100
AcDbEntity
  8
Defpoints
 62
     0
100
AcDbPoint
 10
506.5960129999999
 20
-34.625
 30
0.0
  0
POINT
  5
790
330
787
100
AcDbEntity
  8
Defpoints
 62
     0
100
AcDbPoint
 10
506.5960129999999
 20
-125.0
 30
0.0
  0
ENDBLK
  5
792
330
787
100
AcDbEntity
  8
0
100
AcDbBlockEnd
  0
BLOCK
  5
79E
330
794
100
AcDbEntity
  8
0
100
AcDbBlockBegin
  2
*D30
 70
     1
 10
0.0
 20
0.0
 30
0.0
  3
*D30
  1

  0
LINE
  5
795
330
794
100
AcDbEntity
  8
LC-006-003-----0
 62
     2
370
    -2
100
AcDbLine
 10
669.2210129999999
 20
-34.625
 30
0.0
 11
669.2210129999999
 21
-134.0
 31
0.0
  0
LINE
  5
796
330
794
100
AcDbEntity
  8
LC-006-003-----0
 62
     2
370
    -2
100
AcDbLine
 10
506.5960129999999
 20
-34.625
 30
0.0
 11
506.5960129999999
 21
-134.0
 31
0.0
  0
LINE
  5
797
330
794
100
AcDbEntity
  8
LC-006-003-----0
 62
     2
370
    -2
100
AcDbLine
 10
656.7210129999999
 20
-125.0
 30
0.0
 11
519.0960129999999
 21
-125.0
 31
0.0
  0
SOLID
  5
798
330
794
100
AcDbEntity
  8
LC-006-003-----0
 62
     2
100
AcDbTrace
 10
656.7210129999999
 20
-127.083333
 30
0.0
 11
656.7210129999999
 21
-122.916667
 31
0.0
 12
669.2210129999999
 22
-125.0
 32
0.0
 13
669.2210129999999
 23
-125.0
 33
0.0
  0
SOLID
  5
799
330
794
100
AcDbEntity
  8
LC-006-003-----0
 62
     2
100
AcDbTrace
 10
519.0960129999999
 20
-122.916667
 30
0.0
 11
519.0960129999999
 21
-127.083333
 31
0.0
 12
506.5960129999999
 22
-125.0
 32
0.0
 13
506.5960129999999
 23
-125.0
 33
0.0
  0
MTEXT
  5
79A
330
794
100
AcDbEntity
  8
LC-006-003-----0
 62
     2
100
AcDbMText
 10
587.9085129999999
 20
-110.0
 30
0.0
 40
12.5
 41
0.0
 71
     5
 72
     1
  1
(\A1;162,625)
  7
LCTX0-400-0-0pDIN-Schrift
 73
     1
 44
1.0
1001
ACAD
1000
MTEXTBEGIN
1070
    73
1070
     1
1070
    44
1040
1.0
1070
    74
1070
     0
1000
MTEXTEND
  0
POINT
  5
79B
330
794
100
AcDbEntity
  8
Defpoints
 62
     0
100
AcDbPoint
 10
669.2210129999999
 20
-34.625
 30
0.0
  0
POINT
  5
79C
330
794
100
AcDbEntity
  8
Defpoints
 62
     0
100
AcDbPoint
 10
506.5960129999999
 20
-34.625
 30
0.0
  0
POINT
  5
79D
330
794
100
AcDbEntity
  8
Defpoints
 62
     0
100
AcDbPoint
 10
506.5960129999999
 20
-125.0
 30
0.0
  0
ENDBLK
  5
79F
330
794
100
AcDbEntity
  8
0
100
AcDbBlockEnd
  0
BLOCK
  5
7D4
330
7CA
100
AcDbEntity
  8
0
100
AcDbBlockBegin
  2
*D31
 70
     1
 10
0.0
 20
0.0
 30
0.0
  3
*D31
  1

  0
LINE
  5
7CB
330
7CA
100
AcDbEntity
  8
LC-006-003-----0
 62
     2
370
    -2
100
AcDbLine
 10
1831.681294
 20
289.490747
 30
0.0
 11
1831.681294
 21
216.0
 31
0.0
  0
LINE
  5
7CC
330
7CA
100
AcDbEntity
  8
LC-006-003-----0
 62
     2
370
    -2
100
AcDbLine
 10
1932.306294
 20
289.490747
 30
0.0
 11
1932.306294
 21
216.0
 31
0.0
  0
LINE
  5
7CD
330
7CA
100
AcDbEntity
  8
LC-006-003-----0
 62
     2
370
    -2
100
AcDbLine
 10
1844.181294
 20
225.0
 30
0.0
 11
1919.806294
 21
225.0
 31
0.0
  0
SOLID
  5
7CE
330
7CA
100
AcDbEntity
  8
LC-006-003-----0
 62
     2
100
AcDbTrace
 10
1844.181294
 20
227.083333
 30
0.0
 11
1844.181294
 21
222.916667
 31
0.0
 12
1831.681294
 22
225.0
 32
0.0
 13
1831.681294
 23
225.0
 33
0.0
  0
SOLID
  5
7CF
330
7CA
100
AcDbEntity
  8
LC-006-003-----0
 62
     2
100
AcDbTrace
 10
1919.806294
 20
222.916667
 30
0.0
 11
1919.806294
 21
227.083333
 31
0.0
 12
1932.306294
 22
225.0
 32
0.0
 13
1932.306294
 23
225.0
 33
0.0
  0
MTEXT
  5
7D0
330
7CA
100
AcDbEntity
  8
LC-006-003-----0
 62
     2
100
AcDbMText
 10
1881.993794
 20
240.0
 30
0.0
 40
12.5
 41
0.0
 71
     5
 72
     1
  1
\A1;100,6
  7
LCTX0-400-0-0pDIN-Schrift
 73
     1
 44
1.0
1001
ACAD
1000
MTEXTBEGIN
1070
    73
1070
     1
1070
    44
1040
1.0
1070
    74
1070
     0
1000
MTEXTEND
  0
POINT
  5
7D1
330
7CA
100
AcDbEntity
  8
Defpoints
 62
     0
100
AcDbPoint
 10
1831.681294
 20
289.490747
 30
0.0
  0
POINT
  5
7D2
330
7CA
100
AcDbEntity
  8
Defpoints
 62
     0
100
AcDbPoint
 10
1932.306294
 20
289.490747
 30
0.0
  0
POINT
  5
7D3
330
7CA
100
AcDbEntity
  8
Defpoints
 62
     0
100
AcDbPoint
 10
1932.306294
 20
225.0
 30
0.0
  0
ENDBLK
  5
7D5
330
7CA
100
AcDbEntity
  8
0
100
AcDbBlockEnd
  0
BLOCK
  5
7DE
330
7D8
100
AcDbEntity
  8
0
100
AcDbBlockBegin
  2
*D32
 70
     1
 10
0.0
 20
0.0
 30
0.0
  3
*D32
  1

  0
LINE
  5
7D9
330
7D8
100
AcDbEntity
  8
LC-006-003-----0
 62
     2
370
    -2
100
AcDbLine
 10
2167.620048
 20
792.797762
 30
0.0
 11
2172.075625
 21
797.7423629999999
 31
0.0
  0
MTEXT
  5
7DA
330
7D8
100
AcDbEntity
  8
LC-006-003-----0
 62
     2
100
AcDbMText
 10
2192.374357
 20
801.8052759999999
 30
0.0
 40
12.5
 41
0.0
 71
     5
 72
     1
  1
\A1;R40
  7
LCTX0-400-0-0pDIN-Schrift
 11
0.6694158143497845
 21
0.7428879239147821
 31
0.0
 73
     1
 44
1.0
1001
ACAD
1000
MTEXTBEGIN
1070
    73
1070
     1
1070
    44
1040
1.0
1070
    74
1070
     0
1000
MTEXTEND
  0
SOLID
  5
7DB
330
7D8
100
AcDbEntity
  8
LC-006-003-----0
 62
     2
100
AcDbTrace
 10
2156.887912
 20
777.775548
 30
0.0
 11
2153.792546
 21
780.5647809999999
 31
0.0
 12
2163.707927
 22
788.4562639999999
 32
0.0
 13
2163.707927
 23
788.4562639999999
 33
0.0
  0
POINT
  5
7DC
330
7D8
100
AcDbEntity
  8
Defpoints
 62
     0
100
AcDbPoint
 10
2163.707927
 20
788.4562639999999
 30
0.0
  0
POINT
  5
7DD
330
7D8
100
AcDbEntity
  8
Defpoints
 62
     0
100
AcDbPoint
 10
2136.931294
 20
758.7407469999999
 30
0.0
  0
ENDBLK
  5
7DF
330
7D8
100
AcDbEntity
  8
0
100
AcDbBlockEnd
  0
BLOCK
  5
7E7
330
7E1
100
AcDbEntity
  8
0
100
AcDbBlockBegin
  2
*D33
 70
     1
 10
0.0
 20
0.0
 30
0.0
  3
*D33
  1

  0
LINE
  5
7E2
330
7E1
100
AcDbEntity
  8
LC-006-003-----0
 62
     2
370
    -2
100
AcDbLine
 10
2150.422542000001
 20
772.3368999999999
 30
0.0
 11
2142.214016
 21
764.0645469999999
 31
0.0
  0
MTEXT
  5
7E3
330
7E1
100
AcDbEntity
  8
LC-006-003-----0
 62
     2
100
AcDbMText
 10
2125.703636
 20
764.093609
 30
0.0
 40
12.5
 41
0.0
 71
     5
 72
     1
  1
\A1;R20
  7
LCTX0-400-0-0pDIN-Schrift
 11
0.7043629569082154
 21
0.7098399995319479
 31
0.0
 73
     1
 44
1.0
1001
ACAD
1000
MTEXTBEGIN
1070
    73
1070
     1
1070
    44
1040
1.0
1070
    74
1070
     0
1000
MTEXTEND
  0
SOLID
  5
7E4
330
7E1
100
AcDbEntity
  8
LC-006-003-----0
 62
     2
100
AcDbTrace
 10
2158.344257
 20
783.2779689999999
 30
0.0
 11
2161.301924
 21
780.343124
 31
0.0
 12
2151.018553
 22
772.9375469999999
 32
0.0
 13
2151.018553
 23
772.9375469999999
 33
0.0
  0
POINT
  5
7E5
330
7E1
100
AcDbEntity
  8
Defpoints
 62
     0
100
AcDbPoint
 10
2151.018553
 20
772.9375469999999
 30
0.0
  0
POINT
  5
7E6
330
7E1
100
AcDbEntity
  8
Defpoints
 62
     0
100
AcDbPoint
 10
2136.931294
 20
758.7407469999999
 30
0.0
  0
ENDBLK
  5
7E8
330
7E1
100
AcDbEntity
  8
0
100
AcDbBlockEnd
  0
ENDSEC
  0
SECTION
  2
ENTITIES
  0
LINE
  5
36
330
1F
100
AcDbEntity
  8
LC-001-002-----0
 62
     7
370
    50
100
AcDbLine
 10
2163.755758
 20
1172.123434
 30
0.0
 11
2149.688951
 21
1057.558486
 31
0.0
  0
LINE
  5
37
330
1F
100
AcDbEntity
  8
LC-001-002-----0
 62
     7
370
    50
100
AcDbLine
 10
1824.856831
 20
1172.123434
 30
0.0
 11
1839.457592
 21
1053.209777
 31
0.0
  0
LINE
  5
38
330
1F
100
AcDbEntity
  8
LC-001-002-----0
 62
     7
370
    50
100
AcDbLine
 10
2173.447955
 20
1177.392218
 30
0.0
 11
2169.711035
 21
1177.392218
 31
0.0
  0
LINE
  5
39
330
1F
100
AcDbEntity
  8
LC-001-002-----0
 62
     7
370
    50
100
AcDbLine
 10
1818.901554
 20
1177.392218
 30
0.0
 11
1815.164634
 21
1177.392218
 31
0.0
  0
LINE
  5
3A
330
1F
100
AcDbEntity
  8
LC-001-002-----0
 62
     7
370
    50
100
AcDbLine
 10
2156.769563
 20
1189.075022
 30
0.0
 11
2140.756068
 21
1058.655573
 31
0.0
  0
LINE
  5
3B
330
1F
100
AcDbEntity
  8
LC-001-002-----0
 62
     7
370
    50
100
AcDbLine
 10
1831.843026
 20
1189.075022
 30
0.0
 11
1848.390477
 21
1054.306843
 31
0.0
  0
LINE
  5
3D
330
1F
100
AcDbEntity
  8
LC-002-100-D10-0
 62
     7
370
    13
100
AcDbLine
 10
1864.253165
 20
1010.304334
 30
0.0
 11
1864.253165
 21
1010.304334
 31
0.0
  0
LINE
  5
3E
330
1F
100
AcDbEntity
  8
LC-001-002-----0
 62
     7
370
    50
100
AcDbLine
 10
2176.931294
 20
1190.392218
 30
0.0
 11
1811.681294
 21
1190.392218
 31
0.0
  0
ARC
  5
3F
330
1F
100
AcDbEntity
  8
LC-001-002-----0
 62
     7
370
    50
100
AcDbCircle
 10
2001.127563
 20
1003.751012
 30
0.0
 40
6.000000000000667
100
AcDbArc
 50
92.0
 51
113.000009
  0
ARC
  5
40
330
1F
100
AcDbEntity
  8
LC-001-002-----0
 62
     7
370
    50
100
AcDbCircle
 10
2001.127563
 20
1003.751012
 30
0.0
 40
6.000000000000202
100
AcDbArc
 50
113.000009
 51
119.166415
  0
ARC
  5
41
330
1F
100
AcDbEntity
  8
LC-001-002-----0
 62
     7
370
    50
100
AcDbCircle
 10
2001.127563
 20
1003.751012
 30
0.0
 40
6.000000000000331
100
AcDbArc
 50
119.166415
 51
134.000023
  0
ARC
  5
42
330
1F
100
AcDbEntity
  8
LC-001-002-----0
 62
     7
370
    50
100
AcDbCircle
 10
2001.127563
 20
1003.751012
 30
0.0
 40
6.000000000000441
100
AcDbArc
 50
134.000023
 51
153.8833
  0
LINE
  5
43
330
1F
100
AcDbEntity
  8
LC-002-100-D10-0
 62
     7
370
    13
100
AcDbLine
 10
2117.583326
 20
1013.821395
 30
0.0
 11
2117.573154
 21
1013.821039
 31
0.0
  0
LINE
  5
44
330
1F
100
AcDbEntity
  8
LC-001-002-----0
 62
     7
370
    50
100
AcDbLine
 10
1864.38435
 20
1010.279202
 30
0.0
 11
1864.257597
 21
1010.318594
 31
0.0
  0
LINE
  5
45
330
1F
100
AcDbEntity
  8
LC-002-100-D10-0
 62
     7
370
    13
100
AcDbLine
 10
1864.382503
 20
1010.279578
 30
0.0
 11
1864.385099
 21
1010.279049
 31
0.0
  0
LINE
  5
46
330
1F
100
AcDbEntity
  8
LC-001-002-----0
 62
     7
370
    50
100
AcDbLine
 10
1871.979736
 20
1020.464733
 30
0.0
 11
1873.172107999999
 21
1020.423094
 31
0.0
  0
ARC
  5
47
330
1F
100
AcDbEntity
  8
LC-001-002-----0
 62
     7
370
    50
100
AcDbCircle
 10
1873.137209
 20
1019.423703
 30
0.0
 40
1.000000000000254
100
AcDbArc
 50
5.0
 51
32.666667
  0
ARC
  5
48
330
1F
100
AcDbEntity
  8
LC-001-002-----0
 62
     7
370
    50
100
AcDbCircle
 10
1873.137209
 20
1019.423703
 30
0.0
 40
1.000000000000045
100
AcDbArc
 50
32.666667
 51
88.0
  0
LINE
  5
49
330
1F
100
AcDbEntity
  8
LC-001-002-----0
 62
     7
370
    50
100
AcDbLine
 10
1874.133403
 20
1019.510859
 30
0.0
 11
1874.164395
 21
1019.156625
 31
0.0
  0
ARC
  5
4A
330
1F
100
AcDbEntity
  8
LC-001-002-----0
 62
     7
370
    50
100
AcDbCircle
 10
1875.160589
 20
1019.243781
 30
0.0
 40
1.000000000000254
100
AcDbArc
 50
185.0
 51
210.0
  0
ARC
  5
4B
330
1F
100
AcDbEntity
  8
LC-001-002-----0
 62
     7
370
    50
100
AcDbCircle
 10
1875.160589
 20
1019.243781
 30
0.0
 40
1.000000000000082
100
AcDbArc
 50
210.0
 51
260.0
  0
LINE
  5
4C
330
1F
100
AcDbEntity
  8
LC-001-002-----0
 62
     7
370
    50
100
AcDbLine
 10
1874.986941
 20
1018.258973
 30
0.0
 11
1884.039286
 21
1016.6628
 31
0.0
  0
ARC
  5
4D
330
1F
100
AcDbEntity
  8
LC-001-002-----0
 62
     7
370
    50
100
AcDbCircle
 10
1883.518341
 20
1013.708377
 30
0.0
 40
3.000000000000466
100
AcDbArc
 50
5.0
 51
80.0
  0
LINE
  5
4E
330
1F
100
AcDbEntity
  8
LC-001-002-----0
 62
     7
370
    50
100
AcDbLine
 10
1886.506925
 20
1013.969844
 30
0.0
 11
1887.169882
 21
1006.392218
 31
0.0
  0
LINE
  5
4F
330
1F
100
AcDbEntity
  8
LC-001-002-----0
 62
     7
370
    50
100
AcDbLine
 10
2117.166581
 20
1024.813546
 30
0.0
 11
1991.440481
 21
1020.423094
 31
0.0
  0
ARC
  5
50
330
1F
100
AcDbEntity
  8
LC-001-002-----0
 62
     7
370
    50
100
AcDbCircle
 10
2158.258382
 20
1188.892218
 30
0.0
 40
1.5
100
AcDbArc
 50
90.0
 51
173.0
  0
ARC
  5
51
330
1F
100
AcDbEntity
  8
LC-001-002-----0
 62
     7
370
    50
100
AcDbCircle
 10
2169.711035
 20
1171.392218
 30
0.0
 40
6.0
100
AcDbArc
 50
90.0
 51
173.0
  0
LINE
  5
52
330
1F
100
AcDbEntity
  8
LC-001-002-----0
 62
     7
370
    50
100
AcDbLine
 10
2000.918166
 20
1009.747357
 30
0.0
 11
2117.58332
 21
1013.821394
 31
0.0
  0
LINE
  5
53
330
1F
100
AcDbEntity
  8
LC-001-002-----0
 62
     7
370
    50
100
AcDbLine
 10
1868.636783
 20
1006.900243
 30
0.0
 11
1868.873679
 21
1006.392218
 31
0.0
  0
ARC
  5
54
330
1F
100
AcDbEntity
  8
LC-001-002-----0
 62
     7
370
    50
100
AcDbCircle
 10
1818.901554
 20
1171.392218
 30
0.0
 40
5.999999999999871
100
AcDbArc
 50
7.0
 51
90.0
  0
ARC
  5
55
330
1F
100
AcDbEntity
  8
LC-001-002-----0
 62
     7
370
    50
100
AcDbCircle
 10
1830.354206
 20
1188.892218
 30
0.0
 40
1.500000000000164
100
AcDbArc
 50
7.0
 51
90.0
  0
LINE
  5
56
330
1F
100
AcDbEntity
  8
LC-001-002-----0
 62
     7
370
    50
100
AcDbLine
 10
1978.105663
 20
1013.969844
 30
0.0
 11
1977.442706999999
 21
1006.392218
 31
0.0
  0
ARC
  5
57
330
1F
100
AcDbEntity
  8
LC-001-002-----0
 62
     7
370
    50
100
AcDbCircle
 10
1981.094248
 20
1013.708377
 30
0.0
 40
3.000000000000071
100
AcDbArc
 50
100.0
 51
175.0
  0
LINE
  5
58
330
1F
100
AcDbEntity
  8
LC-001-002-----0
 62
     7
370
    50
100
AcDbLine
 10
1989.625647
 20
1018.258973
 30
0.0
 11
1980.573303
 21
1016.6628
 31
0.0
  0
ARC
  5
59
330
1F
100
AcDbEntity
  8
LC-001-002-----0
 62
     7
370
    50
100
AcDbCircle
 10
1989.451999
 20
1019.243781
 30
0.0
 40
1.000000000000125
100
AcDbArc
 50
280.0
 51
355.0
  0
LINE
  5
5A
330
1F
100
AcDbEntity
  8
LC-001-002-----0
 62
     7
370
    50
100
AcDbLine
 10
1990.479185
 20
1019.510859
 30
0.0
 11
1990.448194
 21
1019.156625
 31
0.0
  0
ARC
  5
5B
330
1F
100
AcDbEntity
  8
LC-001-002-----0
 62
     7
370
    50
100
AcDbCircle
 10
1991.47538
 20
1019.423703
 30
0.0
 40
0.9999999999998488
100
AcDbArc
 50
92.0
 51
175.0
  0
LINE
  5
5C
330
1F
100
AcDbEntity
  8
LC-001-002-----0
 62
     7
370
    50
100
AcDbLine
 10
2231.711035
 20
1595.986173
 30
0.0
 11
2235.447955
 21
1595.986173
 31
0.0
  0
LINE
  5
5D
330
1F
100
AcDbEntity
  8
LC-002-100-D10-0
 62
     7
370
    13
100
AcDbLine
 10
2179.610194
 20
1432.416288
 30
0.0
 11
2179.610194
 21
1432.416288
 31
0.0
  0
LINE
  5
5E
330
1F
100
AcDbEntity
  8
LC-001-002-----0
 62
     7
370
    50
100
AcDbLine
 10
1749.681294
 20
1608.986173
 30
0.0
 11
2238.931294
 21
1608.986173
 31
0.0
  0
LINE
  5
5F
330
1F
100
AcDbEntity
  8
LC-001-002-----0
 62
     7
370
    50
100
AcDbLine
 10
2225.755758
 20
1590.717389
 30
0.0
 11
2211.689380000001
 21
1476.155929
 31
0.0
  0
ARC
  5
60
330
1F
100
AcDbEntity
  8
LC-001-002-----0
 62
     7
370
    50
100
AcDbCircle
 10
2063.127563
 20
1422.344968
 30
0.0
 40
5.999999999999971
100
AcDbArc
 50
92.0
 51
153.8833
  0
LINE
  5
61
330
1F
100
AcDbEntity
  8
LC-001-002-----0
 62
     7
370
    50
100
AcDbLine
 10
2062.918166
 20
1428.341312
 30
0.0
 11
2179.610225
 21
1432.416289
 31
0.0
  0
ARC
  5
62
330
1F
100
AcDbEntity
  8
LC-001-002-----0
 62
     7
370
    50
100
AcDbCircle
 10
2231.711035
 20
1589.986173
 30
0.0
 40
6.0
100
AcDbArc
 50
90.0
 51
173.0
  0
LINE
  5
63
330
1F
100
AcDbEntity
  8
LC-001-002-----0
 62
     7
370
    50
100
AcDbLine
 10
2218.769563
 20
1607.668977
 30
0.0
 11
2202.756083
 21
1477.249645
 31
0.0
  0
ARC
  5
64
330
1F
100
AcDbEntity
  8
LC-001-002-----0
 62
     7
370
    50
100
AcDbCircle
 10
2220.258382
 20
1607.486173
 30
0.0
 40
1.5
100
AcDbArc
 50
90.0
 51
173.0
  0
LINE
  5
65
330
1F
100
AcDbEntity
  8
LC-001-002-----0
 62
     7
370
    50
100
AcDbLine
 10
2179.201076
 20
1443.408706
 30
0.0
 11
2053.440481
 21
1439.017049
 31
0.0
  0
ARC
  5
66
330
1F
100
AcDbEntity
  8
LC-001-002-----0
 62
     7
370
    50
100
AcDbCircle
 10
2053.47538
 20
1438.017659
 30
0.0
 40
1.000000000000045
100
AcDbArc
 50
147.333333
 51
175.0
  0
ARC
  5
67
330
1F
100
AcDbEntity
  8
LC-001-002-----0
 62
     7
370
    50
100
AcDbCircle
 10
2053.47538
 20
1438.017659
 30
0.0
 40
0.9999999999998488
100
AcDbArc
 50
92.0
 51
147.333333
  0
LINE
  5
68
330
1F
100
AcDbEntity
  8
LC-001-002-----0
 62
     7
370
    50
100
AcDbLine
 10
2052.479185000001
 20
1438.104814
 30
0.0
 11
2052.448194
 21
1437.75058
 31
0.0
  0
ARC
  5
69
330
1F
100
AcDbEntity
  8
LC-001-002-----0
 62
     7
370
    50
100
AcDbCircle
 10
2051.451999
 20
1437.837736
 30
0.0
 40
0.9999999999996884
100
AcDbArc
 50
330.0
 51
355.0
  0
ARC
  5
6A
330
1F
100
AcDbEntity
  8
LC-001-002-----0
 62
     7
370
    50
100
AcDbCircle
 10
2051.451999
 20
1437.837736
 30
0.0
 40
0.9999999999995187
100
AcDbArc
 50
280.0
 51
330.0
  0
LINE
  5
6B
330
1F
100
AcDbEntity
  8
LC-001-002-----0
 62
     7
370
    50
100
AcDbLine
 10
2051.625647
 20
1436.852928
 30
0.0
 11
2042.573303
 21
1435.256755
 31
0.0
  0
ARC
  5
6C
330
1F
100
AcDbEntity
  8
LC-001-002-----0
 62
     7
370
    50
100
AcDbCircle
 10
2043.094248
 20
1432.302332
 30
0.0
 40
2.999999999999768
100
AcDbArc
 50
100.0
 51
175.0
  0
LINE
  5
6D
330
1F
100
AcDbEntity
  8
LC-001-002-----0
 62
     7
370
    50
100
AcDbLine
 10
2040.105663
 20
1432.563799
 30
0.0
 11
2039.442707
 21
1424.986173
 31
0.0
  0
LINE
  5
70
330
1F
100
AcDbEntity
  8
LC-003-006-MLN-0
 62
     7
370
    25
100
AcDbLine
 10
1994.306294
 20
1421.986173
 30
0.0
 11
1994.306294
 21
1611.986173
 31
0.0
  0
LINE
  5
71
330
1F
100
AcDbEntity
  8
LC-001-002-----0
 62
     7
370
    50
100
AcDbLine
 10
1831.681294
 20
349.490747
 30
0.0
 11
1831.681294
 21
758.7407469999999
 31
0.0
  0
LINE
  5
72
330
1F
100
AcDbEntity
  8
LC-001-002-----0
 62
     7
370
    50
100
AcDbLine
 10
1811.681294
 20
349.490747
 30
0.0
 11
1811.681294
 21
758.7407469999999
 31
0.0
  0
LINE
  5
73
330
1F
100
AcDbEntity
  8
LC-001-002-----0
 62
     7
370
    50
100
AcDbLine
 10
2156.931294
 20
349.490747
 30
0.0
 11
2156.931294
 21
758.7407469999999
 31
0.0
  0
LINE
  5
74
330
1F
100
AcDbEntity
  8
LC-001-002-----0
 62
     7
370
    50
100
AcDbLine
 10
2176.931294
 20
349.490747
 30
0.0
 11
2176.931294
 21
758.7407469999999
 31
0.0
  0
LINE
  5
75
330
1F
100
AcDbEntity
  8
LC-001-002-----0
 62
     7
370
    50
100
AcDbLine
 10
1851.681294
 20
778.7407469999999
 30
0.0
 11
2136.931294
 21
778.7407469999999
 31
0.0
  0
LINE
  5
76
330
1F
100
AcDbEntity
  8
LC-001-002-----0
 62
     7
370
    50
100
AcDbLine
 10
1851.681294
 20
798.7407469999999
 30
0.0
 11
2136.931294
 21
798.7407469999999
 31
0.0
  0
LINE
  5
77
330
1F
100
AcDbEntity
  8
LC-001-002-----0
 62
     7
370
    50
100
AcDbLine
 10
1851.681294
 20
329.490747
 30
0.0
 11
2136.931294
 21
329.490747
 31
0.0
  0
LINE
  5
78
330
1F
100
AcDbEntity
  8
LC-001-002-----0
 62
     7
370
    50
100
AcDbLine
 10
1851.681294
 20
309.490747
 30
0.0
 11
2136.931294
 21
309.490747
 31
0.0
  0
ARC
  5
7A
330
1F
100
AcDbEntity
  8
LC-004-002-RND-0
 62
     7
370
    50
100
AcDbCircle
 10
1851.681294
 20
758.7407469999999
 30
0.0
 40
20.0
100
AcDbArc
 50
90.0
 51
180.0
  0
ARC
  5
7B
330
1F
100
AcDbEntity
  8
LC-004-002-RND-0
 62
     7
370
    50
100
AcDbCircle
 10
1851.681294
 20
349.490747
 30
0.0
 40
20.0
100
AcDbArc
 50
180.0
 51
270.0
  0
ARC
  5
7C
330
1F
100
AcDbEntity
  8
LC-004-002-RND-0
 62
     7
370
    50
100
AcDbCircle
 10
2136.931294
 20
349.490747
 30
0.0
 40
20.0
100
AcDbArc
 50
270.0
 51
0.0
  0
ARC
  5
7D
330
1F
100
AcDbEntity
  8
LC-004-002-RND-0
 62
     7
370
    50
100
AcDbCircle
 10
2136.931294
 20
758.7407469999999
 30
0.0
 40
20.0
100
AcDbArc
 50
0.0
 51
90.0
  0
ARC
  5
7E
330
1F
100
AcDbEntity
  8
LC-004-002-RND-0
 62
     7
370
    50
100
AcDbCircle
 10
1851.681294
 20
758.7407469999999
 30
0.0
 40
40.0
100
AcDbArc
 50
90.0
 51
180.0
  0
ARC
  5
7F
330
1F
100
AcDbEntity
  8
LC-004-002-RND-0
 62
     7
370
    50
100
AcDbCircle
 10
1851.681294
 20
349.490747
 30
0.0
 40
40.0
100
AcDbArc
 50
180.0
 51
270.0
  0
ARC
  5
80
330
1F
100
AcDbEntity
  8
LC-004-002-RND-0
 62
     7
370
    50
100
AcDbCircle
 10
2136.931294
 20
349.490747
 30
0.0
 40
40.0
100
AcDbArc
 50
270.0
 51
0.0
  0
ARC
  5
81
330
1F
100
AcDbEntity
  8
LC-004-002-RND-0
 62
     7
370
    50
100
AcDbCircle
 10
2136.931294
 20
758.7407469999999
 30
0.0
 40
40.0
100
AcDbArc
 50
0.0
 51
90.0
  0
LINE
  5
82
330
1F
100
AcDbEntity
  8
LC-003-006-MLN-0
 62
     7
370
    25
100
AcDbLine
 10
1871.056294
 20
554.1157469999999
 30
0.0
 11
1993.556294
 21
554.1157469999999
 31
0.0
  0
LINE
  5
83
330
1F
100
AcDbEntity
  8
LC-003-006-MLN-0
 62
     7
370
    25
100
AcDbLine
 10
1932.306294
 20
615.3657469999999
 30
0.0
 11
1932.306294
 21
492.865747
 31
0.0
  0
CIRCLE
  5
84
330
1F
100
AcDbEntity
  8
LC-001-002-----0
 62
     7
370
    50
100
AcDbCircle
 10
1932.306294
 20
554.1157469999999
 30
0.0
 40
45.13641272593122
  0
CIRCLE
  5
85
330
1F
100
AcDbEntity
  8
LC-001-002-----0
 62
     7
370
    50
100
AcDbCircle
 10
1932.306294
 20
554.1157469999999
 30
0.0
 40
58.250000000025
  0
LINE
  5
86
330
1F
100
AcDbEntity
  8
LC-001-002-----0
 62
     7
370
    50
100
AcDbLine
 10
1811.681294
 20
1190.392218
 30
0.0
 11
1815.164634
 21
1177.392218
 31
0.0
  0
LINE
  5
87
330
1F
100
AcDbEntity
  8
LC-001-002-----0
 62
     7
370
    50
100
AcDbLine
 10
2176.931294
 20
1190.392218
 30
0.0
 11
2173.447955
 21
1177.392218
 31
0.0
  0
LINE
  5
88
330
1F
100
AcDbEntity
  8
LC-003-006-MLN-0
 62
     7
370
    25
100
AcDbLine
 10
1932.306294
 20
1003.392218
 30
0.0
 11
1932.306294
 21
1023.392218
 31
0.0
  0
LINE
  5
89
330
1F
100
AcDbEntity
  8
LC-001-002-----0
 62
     7
370
    50
100
AcDbLine
 10
1868.872422
 20
1006.392218
 30
0.0
 11
1995.740167
 21
1006.392218
 31
0.0
  0
LINE
  5
8A
330
1F
100
AcDbEntity
  8
LC-001-002-----0
 62
     7
370
    25
100
AcDbLine
 10
1874.056294
 20
1020.392218
 30
0.0
 11
1990.556294
 21
1020.392218
 31
0.0
  0
LINE
  5
8B
330
1F
100
AcDbEntity
  8
LC-001-002-----0
 62
     7
370
    50
100
AcDbLine
 10
2238.931294
 20
1608.986173
 30
0.0
 11
2235.447955
 21
1595.986173
 31
0.0
  0
LINE
  5
8C
330
1F
100
AcDbEntity
  8
LC-001-002-----0
 62
     7
370
    50
100
AcDbLine
 10
1930.872422
 20
1424.986173
 30
0.0
 11
2057.740167
 21
1424.986173
 31
0.0
  0
LINE
  5
8D
330
1F
100
AcDbEntity
  8
LC-001-002-----0
 62
     7
370
    25
100
AcDbLine
 10
1936.056294
 20
1438.986173
 30
0.0
 11
2052.556294
 21
1438.986173
 31
0.0
  0
LINE
  5
8E
102
{ACAD_REACTORS
330
807
102
}
330
1F
100
AcDbEntity
  8
LC-001-002-----0
 62
     7
370
    50
100
AcDbLine
 10
1848.390477
 20
1054.306843
 30
0.0
 11
1849.317346
 21
1047.799356
 31
0.0
  0
LINE
  5
8F
102
{ACAD_REACTORS
330
807
102
}
330
1F
100
AcDbEntity
  8
LC-001-002-----0
 62
     7
370
    50
100
AcDbLine
 10
1849.317346
 20
1047.799356
 30
0.0
 11
1850.426193
 21
1042.061354
 31
0.0
  0
LINE
  5
90
102
{ACAD_REACTORS
330
807
102
}
330
1F
100
AcDbEntity
  8
LC-001-002-----0
 62
     7
370
    50
100
AcDbLine
 10
1850.426193
 20
1042.061354
 30
0.0
 11
1851.773678
 21
1036.961174
 31
0.0
  0
LINE
  5
91
102
{ACAD_REACTORS
330
807
102
}
330
1F
100
AcDbEntity
  8
LC-001-002-----0
 62
     7
370
    50
100
AcDbLine
 10
1851.773678
 20
1036.961174
 30
0.0
 11
1853.513688
 21
1032.333581
 31
0.0
  0
LINE
  5
92
102
{ACAD_REACTORS
330
807
102
}
330
1F
100
AcDbEntity
  8
LC-001-002-----0
 62
     7
370
    50
100
AcDbLine
 10
1853.513688
 20
1032.333581
 30
0.0
 11
1855.775361
 21
1028.287269
 31
0.0
  0
LINE
  5
93
102
{ACAD_REACTORS
330
807
102
}
330
1F
100
AcDbEntity
  8
LC-001-002-----0
 62
     7
370
    50
100
AcDbLine
 10
1855.775361
 20
1028.287269
 30
0.0
 11
1858.700901
 21
1024.960606
 31
0.0
  0
LINE
  5
94
102
{ACAD_REACTORS
330
807
102
}
330
1F
100
AcDbEntity
  8
LC-001-002-----0
 62
     7
370
    50
100
AcDbLine
 10
1858.700901
 20
1024.960606
 30
0.0
 11
1862.424813
 21
1022.516973
 31
0.0
  0
LINE
  5
95
102
{ACAD_REACTORS
330
807
102
}
330
1F
100
AcDbEntity
  8
LC-001-002-----0
 62
     7
370
    50
100
AcDbLine
 10
1862.424813
 20
1022.516973
 30
0.0
 11
1866.935136
 21
1021.043572
 31
0.0
  0
LINE
  5
96
102
{ACAD_REACTORS
330
807
102
}
330
1F
100
AcDbEntity
  8
LC-001-002-----0
 62
     7
370
    50
100
AcDbLine
 10
1866.935136
 20
1021.043572
 30
0.0
 11
1871.979736
 21
1020.464733
 31
0.0
  0
LINE
  5
97
102
{ACAD_REACTORS
330
80B
102
}
330
1F
100
AcDbEntity
  8
LC-001-002-----0
 62
     7
370
    50
100
AcDbLine
 10
1864.979575
 20
1010.094221
 30
0.0
 11
1858.558708
 21
1012.089661
 31
0.0
  0
LINE
  5
98
102
{ACAD_REACTORS
330
80B
102
}
330
1F
100
AcDbEntity
  8
LC-001-002-----0
 62
     7
370
    50
100
AcDbLine
 10
1858.558708
 20
1012.089661
 30
0.0
 11
1853.645645
 21
1015.065305
 31
0.0
  0
LINE
  5
99
102
{ACAD_REACTORS
330
80B
102
}
330
1F
100
AcDbEntity
  8
LC-001-002-----0
 62
     7
370
    50
100
AcDbLine
 10
1853.645645
 20
1015.065305
 30
0.0
 11
1849.664903
 21
1019.190212
 31
0.0
  0
LINE
  5
9A
102
{ACAD_REACTORS
330
80B
102
}
330
1F
100
AcDbEntity
  8
LC-001-002-----0
 62
     7
370
    50
100
AcDbLine
 10
1849.664903
 20
1019.190212
 30
0.0
 11
1846.522537
 21
1024.330452
 31
0.0
  0
LINE
  5
9B
102
{ACAD_REACTORS
330
80B
102
}
330
1F
100
AcDbEntity
  8
LC-001-002-----0
 62
     7
370
    50
100
AcDbLine
 10
1846.522537
 20
1024.330452
 30
0.0
 11
1844.09474
 21
1030.320768
 31
0.0
  0
LINE
  5
9C
102
{ACAD_REACTORS
330
80B
102
}
330
1F
100
AcDbEntity
  8
LC-001-002-----0
 62
     7
370
    50
100
AcDbLine
 10
1844.09474
 20
1030.320768
 30
0.0
 11
1842.227206
 21
1036.989222
 31
0.0
  0
LINE
  5
9D
102
{ACAD_REACTORS
330
80B
102
}
330
1F
100
AcDbEntity
  8
LC-001-002-----0
 62
     7
370
    50
100
AcDbLine
 10
1842.227206
 20
1036.989222
 30
0.0
 11
1840.70672
 21
1044.561708
 31
0.0
  0
LINE
  5
9E
102
{ACAD_REACTORS
330
80B
102
}
330
1F
100
AcDbEntity
  8
LC-001-002-----0
 62
     7
370
    50
100
AcDbLine
 10
1840.70672
 20
1044.561708
 30
0.0
 11
1839.457592
 21
1053.209777
 31
0.0
  0
LINE
  5
9F
102
{ACAD_REACTORS
330
80A
102
}
330
1F
100
AcDbEntity
  8
LC-001-002-----0
 62
     7
370
    50
100
AcDbLine
 10
2117.166581
 20
1024.813546
 30
0.0
 11
2122.224044
 21
1025.395022
 31
0.0
  0
LINE
  5
A0
102
{ACAD_REACTORS
330
80A
102
}
330
1F
100
AcDbEntity
  8
LC-001-002-----0
 62
     7
370
    50
100
AcDbLine
 10
2122.224044
 20
1025.395022
 30
0.0
 11
2126.747415
 21
1026.877933
 31
0.0
  0
LINE
  5
A1
102
{ACAD_REACTORS
330
80A
102
}
330
1F
100
AcDbEntity
  8
LC-001-002-----0
 62
     7
370
    50
100
AcDbLine
 10
2126.747415
 20
1026.877933
 30
0.0
 11
2130.474419
 21
1029.334836
 31
0.0
  0
LINE
  5
A2
102
{ACAD_REACTORS
330
80A
102
}
330
1F
100
AcDbEntity
  8
LC-001-002-----0
 62
     7
370
    50
100
AcDbLine
 10
2130.474419
 20
1029.334836
 30
0.0
 11
2133.394561
 21
1032.669928
 31
0.0
  0
LINE
  5
A3
102
{ACAD_REACTORS
330
80A
102
}
330
1F
100
AcDbEntity
  8
LC-001-002-----0
 62
     7
370
    50
100
AcDbLine
 10
2133.394561
 20
1032.669928
 30
0.0
 11
2135.649032
 21
1036.718048
 31
0.0
  0
LINE
  5
A4
102
{ACAD_REACTORS
330
80A
102
}
330
1F
100
AcDbEntity
  8
LC-001-002-----0
 62
     7
370
    50
100
AcDbLine
 10
2135.649032
 20
1036.718048
 30
0.0
 11
2137.38297
 21
1041.34238
 31
0.0
  0
LINE
  5
A5
102
{ACAD_REACTORS
330
80A
102
}
330
1F
100
AcDbEntity
  8
LC-001-002-----0
 62
     7
370
    50
100
AcDbLine
 10
2137.38297
 20
1041.34238
 30
0.0
 11
2138.726411
 21
1046.437073
 31
0.0
  0
LINE
  5
A6
102
{ACAD_REACTORS
330
80A
102
}
330
1F
100
AcDbEntity
  8
LC-001-002-----0
 62
     7
370
    50
100
AcDbLine
 10
2138.726411
 20
1046.437073
 30
0.0
 11
2139.831766
 21
1052.163613
 31
0.0
  0
LINE
  5
A7
102
{ACAD_REACTORS
330
80A
102
}
330
1F
100
AcDbEntity
  8
LC-001-002-----0
 62
     7
370
    50
100
AcDbLine
 10
2139.831766
 20
1052.163613
 30
0.0
 11
2140.756068
 21
1058.655573
 31
0.0
  0
LINE
  5
A8
102
{ACAD_REACTORS
330
80D
102
}
330
1F
100
AcDbEntity
  8
LC-001-002-----0
 62
     7
370
    50
100
AcDbLine
 10
2149.688951
 20
1057.558486
 30
0.0
 11
2148.428133
 21
1048.841839
 31
0.0
  0
LINE
  5
A9
102
{ACAD_REACTORS
330
80D
102
}
330
1F
100
AcDbEntity
  8
LC-001-002-----0
 62
     7
370
    50
100
AcDbLine
 10
2148.428133
 20
1048.841839
 30
0.0
 11
2146.890856
 21
1041.217757
 31
0.0
  0
LINE
  5
AA
102
{ACAD_REACTORS
330
80D
102
}
330
1F
100
AcDbEntity
  8
LC-001-002-----0
 62
     7
370
    50
100
AcDbLine
 10
2146.890856
 20
1041.217757
 30
0.0
 11
2144.996738
 21
1034.505273
 31
0.0
  0
LINE
  5
AB
102
{ACAD_REACTORS
330
80D
102
}
330
1F
100
AcDbEntity
  8
LC-001-002-----0
 62
     7
370
    50
100
AcDbLine
 10
2144.996738
 20
1034.505273
 30
0.0
 11
2142.527103
 21
1028.48433
 31
0.0
  0
LINE
  5
AC
102
{ACAD_REACTORS
330
80D
102
}
330
1F
100
AcDbEntity
  8
LC-001-002-----0
 62
     7
370
    50
100
AcDbLine
 10
2142.527103
 20
1028.48433
 30
0.0
 11
2139.322553
 21
1023.332049
 31
0.0
  0
LINE
  5
AD
102
{ACAD_REACTORS
330
80D
102
}
330
1F
100
AcDbEntity
  8
LC-001-002-----0
 62
     7
370
    50
100
AcDbLine
 10
2139.322553
 20
1023.332049
 30
0.0
 11
2135.251897
 21
1019.21664
 31
0.0
  0
LINE
  5
AE
102
{ACAD_REACTORS
330
80D
102
}
330
1F
100
AcDbEntity
  8
LC-001-002-----0
 62
     7
370
    50
100
AcDbLine
 10
2135.251897
 20
1019.21664
 30
0.0
 11
2130.212928
 21
1016.277147
 31
0.0
  0
LINE
  5
AF
102
{ACAD_REACTORS
330
80D
102
}
330
1F
100
AcDbEntity
  8
LC-001-002-----0
 62
     7
370
    50
100
AcDbLine
 10
2130.212928
 20
1016.277147
 30
0.0
 11
2124.237435
 21
1014.525101
 31
0.0
  0
LINE
  5
B0
102
{ACAD_REACTORS
330
80D
102
}
330
1F
100
AcDbEntity
  8
LC-001-002-----0
 62
     7
370
    50
100
AcDbLine
 10
2124.237435
 20
1014.525101
 30
0.0
 11
2117.58332
 21
1013.821394
 31
0.0
  0
INSERT
  5
C9
330
1F
100
AcDbEntity
  8
LC-005-005-----0
 62
     7
370
    25
100
AcDbBlockReference
  2
*X1
 10
0.0
 20
0.0
 30
0.0
  0
ARC
  5
CA
102
{ACAD_REACTORS
330
80B
102
}
330
1F
100
AcDbEntity
  8
LC-004-002-RND-0
 62
     7
370
    50
100
AcDbCircle
 10
1863.198936
 20
1004.364533
 30
0.0
 40
6.000000000000195
100
AcDbArc
 50
25.0
 51
72.736102
  0
INSERT
  5
E1
330
1F
100
AcDbEntity
  8
LC-005-005-----0
 62
     7
370
    25
100
AcDbBlockReference
  2
*X2
 10
0.0
 20
0.0
 30
0.0
  0
LINE
  5
E2
102
{ACAD_REACTORS
330
80F
102
}
330
1F
100
AcDbEntity
  8
LC-001-002-----0
 62
     7
370
    50
100
AcDbLine
 10
2202.756083
 20
1477.249645
 30
0.0
 11
2201.830163
 21
1470.746542
 31
0.0
  0
LINE
  5
E3
102
{ACAD_REACTORS
330
80F
102
}
330
1F
100
AcDbEntity
  8
LC-001-002-----0
 62
     7
370
    50
100
AcDbLine
 10
2201.830163
 20
1470.746542
 30
0.0
 11
2200.723097
 21
1465.012137
 31
0.0
  0
LINE
  5
E4
102
{ACAD_REACTORS
330
80F
102
}
330
1F
100
AcDbEntity
  8
LC-001-002-----0
 62
     7
370
    50
100
AcDbLine
 10
2200.723097
 20
1465.012137
 30
0.0
 11
2199.378428
 21
1459.91474
 31
0.0
  0
LINE
  5
E5
102
{ACAD_REACTORS
330
80F
102
}
330
1F
100
AcDbEntity
  8
LC-001-002-----0
 62
     7
370
    50
100
AcDbLine
 10
2199.378428
 20
1459.91474
 30
0.0
 11
2197.642846
 21
1455.289151
 31
0.0
  0
LINE
  5
E6
102
{ACAD_REACTORS
330
80F
102
}
330
1F
100
AcDbEntity
  8
LC-001-002-----0
 62
     7
370
    50
100
AcDbLine
 10
2197.642846
 20
1455.289151
 30
0.0
 11
2195.387295
 21
1451.242783
 31
0.0
  0
LINE
  5
E7
102
{ACAD_REACTORS
330
80F
102
}
330
1F
100
AcDbEntity
  8
LC-001-002-----0
 62
     7
370
    50
100
AcDbLine
 10
2195.387295
 20
1451.242783
 30
0.0
 11
2192.468616
 21
1447.913481
 31
0.0
  0
LINE
  5
E8
102
{ACAD_REACTORS
330
80F
102
}
330
1F
100
AcDbEntity
  8
LC-001-002-----0
 62
     7
370
    50
100
AcDbLine
 10
2192.468616
 20
1447.913481
 30
0.0
 11
2188.750313
 21
1445.465519
 31
0.0
  0
LINE
  5
E9
102
{ACAD_REACTORS
330
80F
102
}
330
1F
100
AcDbEntity
  8
LC-001-002-----0
 62
     7
370
    50
100
AcDbLine
 10
2188.750313
 20
1445.465519
 30
0.0
 11
2184.243313
 21
1443.988637
 31
0.0
  0
LINE
  5
EA
102
{ACAD_REACTORS
330
80F
102
}
330
1F
100
AcDbEntity
  8
LC-001-002-----0
 62
     7
370
    50
100
AcDbLine
 10
2184.243313
 20
1443.988637
 30
0.0
 11
2179.201076
 21
1443.408706
 31
0.0
  0
LINE
  5
EB
102
{ACAD_REACTORS
330
80E
102
}
330
1F
100
AcDbEntity
  8
LC-001-002-----0
 62
     7
370
    50
100
AcDbLine
 10
2179.610225
 20
1432.416289
 30
0.0
 11
2186.250776
 21
1433.117661
 31
0.0
  0
LINE
  5
EC
102
{ACAD_REACTORS
330
80E
102
}
330
1F
100
AcDbEntity
  8
LC-001-002-----0
 62
     7
370
    50
100
AcDbLine
 10
2186.250776
 20
1433.117661
 30
0.0
 11
2192.212985
 21
1434.864112
 31
0.0
  0
LINE
  5
ED
102
{ACAD_REACTORS
330
80E
102
}
330
1F
100
AcDbEntity
  8
LC-001-002-----0
 62
     7
370
    50
100
AcDbLine
 10
2192.212985
 20
1434.864112
 30
0.0
 11
2197.244973
 21
1437.795853
 31
0.0
  0
LINE
  5
EE
102
{ACAD_REACTORS
330
80E
102
}
330
1F
100
AcDbEntity
  8
LC-001-002-----0
 62
     7
370
    50
100
AcDbLine
 10
2197.244973
 20
1437.795853
 30
0.0
 11
2201.314715
 21
1441.906103
 31
0.0
  0
LINE
  5
EF
102
{ACAD_REACTORS
330
80E
102
}
330
1F
100
AcDbEntity
  8
LC-001-002-----0
 62
     7
370
    50
100
AcDbLine
 10
2201.314715
 20
1441.906103
 30
0.0
 11
2204.520829
 21
1447.057064
 31
0.0
  0
LINE
  5
F0
102
{ACAD_REACTORS
330
80E
102
}
330
1F
100
AcDbEntity
  8
LC-001-002-----0
 62
     7
370
    50
100
AcDbLine
 10
2204.520829
 20
1447.057064
 30
0.0
 11
2206.992353
 21
1453.079529
 31
0.0
  0
LINE
  5
F1
102
{ACAD_REACTORS
330
80E
102
}
330
1F
100
AcDbEntity
  8
LC-001-002-----0
 62
     7
370
    50
100
AcDbLine
 10
2206.992353
 20
1453.079529
 30
0.0
 11
2208.887919
 21
1459.795481
 31
0.0
  0
LINE
  5
F2
102
{ACAD_REACTORS
330
80E
102
}
330
1F
100
AcDbEntity
  8
LC-001-002-----0
 62
     7
370
    50
100
AcDbLine
 10
2208.887919
 20
1459.795481
 30
0.0
 11
2210.42698
 21
1467.427928
 31
0.0
  0
LINE
  5
F3
102
{ACAD_REACTORS
330
80E
102
}
330
1F
100
AcDbEntity
  8
LC-001-002-----0
 62
     7
370
    50
100
AcDbLine
 10
2210.42698
 20
1467.427928
 30
0.0
 11
2211.689380000001
 21
1476.155929
 31
0.0
  0
INSERT
  5
10C
330
1F
100
AcDbEntity
  8
LC-005-005-----0
 62
     7
370
    25
100
AcDbBlockReference
  2
*X3
 10
0.0
 20
0.0
 30
0.0
  0
LINE
  5
10D
330
1F
100
AcDbEntity
  8
LC-001-002-----0
 62
     7
370
    50
100
AcDbLine
 10
1756.901554
 20
1595.986173
 30
0.0
 11
1753.164634
 21
1595.986173
 31
0.0
  0
LINE
  5
10E
330
1F
100
AcDbEntity
  8
LC-001-002-----0
 62
     7
370
    50
100
AcDbLine
 10
1762.856831
 20
1590.717389
 30
0.0
 11
1776.923209
 21
1476.155929
 31
0.0
  0
ARC
  5
10F
330
1F
100
AcDbEntity
  8
LC-001-002-----0
 62
     7
370
    50
100
AcDbCircle
 10
1925.485026
 20
1422.344968
 30
0.0
 40
5.99999999999991
100
AcDbArc
 50
26.1167
 51
88.0
  0
LINE
  5
110
330
1F
100
AcDbEntity
  8
LC-001-002-----0
 62
     7
370
    50
100
AcDbLine
 10
1925.694423
 20
1428.341312
 30
0.0
 11
1809.002364
 21
1432.416289
 31
0.0
  0
ARC
  5
111
330
1F
100
AcDbEntity
  8
LC-001-002-----0
 62
     7
370
    50
100
AcDbCircle
 10
1756.901554
 20
1589.986173
 30
0.0
 40
6.000000000000211
100
AcDbArc
 50
7.0
 51
90.0
  0
LINE
  5
112
330
1F
100
AcDbEntity
  8
LC-001-002-----0
 62
     7
370
    50
100
AcDbLine
 10
1769.843026
 20
1607.668977
 30
0.0
 11
1785.856506
 21
1477.249645
 31
0.0
  0
ARC
  5
113
330
1F
100
AcDbEntity
  8
LC-001-002-----0
 62
     7
370
    50
100
AcDbCircle
 10
1768.354206
 20
1607.486173
 30
0.0
 40
1.500000000000053
100
AcDbArc
 50
7.0
 51
90.0
  0
LINE
  5
114
330
1F
100
AcDbEntity
  8
LC-001-002-----0
 62
     7
370
    50
100
AcDbLine
 10
1809.411512
 20
1443.408706
 30
0.0
 11
1935.172107999999
 21
1439.017049
 31
0.0
  0
ARC
  5
115
330
1F
100
AcDbEntity
  8
LC-001-002-----0
 62
     7
370
    50
100
AcDbCircle
 10
1935.137209
 20
1438.017659
 30
0.0
 40
1.000000000000292
100
AcDbArc
 50
5.0
 51
32.666667
  0
ARC
  5
116
330
1F
100
AcDbEntity
  8
LC-001-002-----0
 62
     7
370
    50
100
AcDbCircle
 10
1935.137209
 20
1438.017659
 30
0.0
 40
1.000000000000045
100
AcDbArc
 50
32.666667
 51
88.0
  0
LINE
  5
117
330
1F
100
AcDbEntity
  8
LC-001-002-----0
 62
     7
370
    50
100
AcDbLine
 10
1936.133403
 20
1438.104814
 30
0.0
 11
1936.164395
 21
1437.75058
 31
0.0
  0
ARC
  5
118
330
1F
100
AcDbEntity
  8
LC-001-002-----0
 62
     7
370
    50
100
AcDbCircle
 10
1937.160589
 20
1437.837736
 30
0.0
 40
0.9999999999993871
100
AcDbArc
 50
185.0
 51
210.0
  0
ARC
  5
119
330
1F
100
AcDbEntity
  8
LC-001-002-----0
 62
     7
370
    50
100
AcDbCircle
 10
1937.160589
 20
1437.837736
 30
0.0
 40
0.9999999999992944
100
AcDbArc
 50
210.0
 51
260.0
  0
LINE
  5
11A
330
1F
100
AcDbEntity
  8
LC-001-002-----0
 62
     7
370
    50
100
AcDbLine
 10
1936.986941
 20
1436.852928
 30
0.0
 11
1946.039286
 21
1435.256755
 31
0.0
  0
ARC
  5
11B
330
1F
100
AcDbEntity
  8
LC-001-002-----0
 62
     7
370
    50
100
AcDbCircle
 10
1945.518341
 20
1432.302332
 30
0.0
 40
2.999999999999973
100
AcDbArc
 50
5.0
 51
80.0
  0
LINE
  5
11C
330
1F
100
AcDbEntity
  8
LC-001-002-----0
 62
     7
370
    50
100
AcDbLine
 10
1948.506925
 20
1432.563799
 30
0.0
 11
1949.169882
 21
1424.986173
 31
0.0
  0
LINE
  5
11D
330
1F
100
AcDbEntity
  8
LC-001-002-----0
 62
     7
370
    50
100
AcDbLine
 10
1749.681294
 20
1608.986173
 30
0.0
 11
1753.164634
 21
1595.986173
 31
0.0
  0
LINE
  5
11E
102
{ACAD_REACTORS
330
810
102
}
330
1F
100
AcDbEntity
  8
LC-001-002-----0
 62
     7
370
    50
100
AcDbLine
 10
1785.856506
 20
1477.249645
 30
0.0
 11
1786.782425
 21
1470.746542
 31
0.0
  0
LINE
  5
11F
102
{ACAD_REACTORS
330
810
102
}
330
1F
100
AcDbEntity
  8
LC-001-002-----0
 62
     7
370
    50
100
AcDbLine
 10
1786.782425
 20
1470.746542
 30
0.0
 11
1787.889492
 21
1465.012137
 31
0.0
  0
LINE
  5
120
102
{ACAD_REACTORS
330
810
102
}
330
1F
100
AcDbEntity
  8
LC-001-002-----0
 62
     7
370
    50
100
AcDbLine
 10
1787.889492
 20
1465.012137
 30
0.0
 11
1789.23416
 21
1459.91474
 31
0.0
  0
LINE
  5
121
102
{ACAD_REACTORS
330
810
102
}
330
1F
100
AcDbEntity
  8
LC-001-002-----0
 62
     7
370
    50
100
AcDbLine
 10
1789.23416
 20
1459.91474
 30
0.0
 11
1790.969742999999
 21
1455.289151
 31
0.0
  0
LINE
  5
122
102
{ACAD_REACTORS
330
810
102
}
330
1F
100
AcDbEntity
  8
LC-001-002-----0
 62
     7
370
    50
100
AcDbLine
 10
1790.969742999999
 20
1455.289151
 30
0.0
 11
1793.225294
 21
1451.242783
 31
0.0
  0
LINE
  5
123
102
{ACAD_REACTORS
330
810
102
}
330
1F
100
AcDbEntity
  8
LC-001-002-----0
 62
     7
370
    50
100
AcDbLine
 10
1793.225294
 20
1451.242783
 30
0.0
 11
1796.143973
 21
1447.913481
 31
0.0
  0
LINE
  5
124
102
{ACAD_REACTORS
330
810
102
}
330
1F
100
AcDbEntity
  8
LC-001-002-----0
 62
     7
370
    50
100
AcDbLine
 10
1796.143973
 20
1447.913481
 30
0.0
 11
1799.862275
 21
1445.465519
 31
0.0
  0
LINE
  5
125
102
{ACAD_REACTORS
330
810
102
}
330
1F
100
AcDbEntity
  8
LC-001-002-----0
 62
     7
370
    50
100
AcDbLine
 10
1799.862275
 20
1445.465519
 30
0.0
 11
1804.369275
 21
1443.988637
 31
0.0
  0
LINE
  5
126
102
{ACAD_REACTORS
330
810
102
}
330
1F
100
AcDbEntity
  8
LC-001-002-----0
 62
     7
370
    50
100
AcDbLine
 10
1804.369275
 20
1443.988637
 30
0.0
 11
1809.411512
 21
1443.408706
 31
0.0
  0
LINE
  5
127
102
{ACAD_REACTORS
330
802
102
}
330
1F
100
AcDbEntity
  8
LC-001-002-----0
 62
     7
370
    50
100
AcDbLine
 10
1809.002364
 20
1432.416289
 30
0.0
 11
1802.361813
 21
1433.117661
 31
0.0
  0
LINE
  5
128
102
{ACAD_REACTORS
330
802
102
}
330
1F
100
AcDbEntity
  8
LC-001-002-----0
 62
     7
370
    50
100
AcDbLine
 10
1802.361813
 20
1433.117661
 30
0.0
 11
1796.399604
 21
1434.864112
 31
0.0
  0
LINE
  5
129
102
{ACAD_REACTORS
330
802
102
}
330
1F
100
AcDbEntity
  8
LC-001-002-----0
 62
     7
370
    50
100
AcDbLine
 10
1796.399604
 20
1434.864112
 30
0.0
 11
1791.367615
 21
1437.795853
 31
0.0
  0
LINE
  5
12A
102
{ACAD_REACTORS
330
802
102
}
330
1F
100
AcDbEntity
  8
LC-001-002-----0
 62
     7
370
    50
100
AcDbLine
 10
1791.367615
 20
1437.795853
 30
0.0
 11
1787.297873
 21
1441.906103
 31
0.0
  0
LINE
  5
12B
102
{ACAD_REACTORS
330
802
102
}
330
1F
100
AcDbEntity
  8
LC-001-002-----0
 62
     7
370
    50
100
AcDbLine
 10
1787.297873
 20
1441.906103
 30
0.0
 11
1784.09176
 21
1447.057064
 31
0.0
  0
LINE
  5
12C
102
{ACAD_REACTORS
330
802
102
}
330
1F
100
AcDbEntity
  8
LC-001-002-----0
 62
     7
370
    50
100
AcDbLine
 10
1784.09176
 20
1447.057064
 30
0.0
 11
1781.620236
 21
1453.079529
 31
0.0
  0
LINE
  5
12D
102
{ACAD_REACTORS
330
802
102
}
330
1F
100
AcDbEntity
  8
LC-001-002-----0
 62
     7
370
    50
100
AcDbLine
 10
1781.620236
 20
1453.079529
 30
0.0
 11
1779.72467
 21
1459.795481
 31
0.0
  0
LINE
  5
12E
102
{ACAD_REACTORS
330
802
102
}
330
1F
100
AcDbEntity
  8
LC-001-002-----0
 62
     7
370
    50
100
AcDbLine
 10
1779.72467
 20
1459.795481
 30
0.0
 11
1778.185609
 21
1467.427928
 31
0.0
  0
LINE
  5
12F
102
{ACAD_REACTORS
330
802
102
}
330
1F
100
AcDbEntity
  8
LC-001-002-----0
 62
     7
370
    50
100
AcDbLine
 10
1778.185609
 20
1467.427928
 30
0.0
 11
1776.923209
 21
1476.155929
 31
0.0
  0
INSERT
  5
14F
330
1F
100
AcDbEntity
  8
LC-005-005-----0
 62
     7
370
    25
100
AcDbBlockReference
  2
*X4
 10
0.0
 20
0.0
 30
0.0
  0
LINE
  5
151
330
1F
100
AcDbEntity
  8
LC-006-003-----0
 62
     7
370
    25
100
AcDbLine
 10
1811.681294
 20
1190.392218
 30
0.0
 11
1811.681294
 21
1076.665148
 31
0.0
  0
INSERT
  5
16B
330
1F
100
AcDbEntity
  8
LC-006-003-----0
 62
     7
370
    25
100
AcDbBlockReference
  2
LCDIM1
 10
0.0
 20
0.0
 30
0.0
  0
LINE
  5
16C
330
1F
100
AcDbEntity
  8
LC-006-003-----0
 62
     7
370
    25
100
AcDbLine
 10
1815.164635
 20
1177.392214
 30
0.0
 11
1840.804037
 21
1081.704662
 31
0.0
  0
DIMENSION
  5
16E
330
1F
100
AcDbEntity
  8
LC-006-003-----0
 62
     7
370
    25
100
AcDbDimension
  2
*D6
 10
1600.0
 20
309.490747
 30
0.0
 11
1585.0
 21
554.1157469999999
 31
0.0
 70
   160
 71
     5
 42
489.25
 53
90.0
  3
LC-DIM-L-0025-03-02
100
AcDbAlignedDimension
 13
1791.681294
 23
798.7407469999999
 33
0.0
 14
1791.681294
 24
309.490747
 34
0.0
 50
90.0
100
AcDbRotatedDimension
  0
DIMENSION
  5
17D
330
1F
100
AcDbEntity
  8
LC-006-003-----0
 62
     7
370
    25
100
AcDbDimension
  2
*D7
 10
1675.0
 20
329.490747
 30
0.0
 11
1660.0
 21
554.1157469999999
 31
0.0
 70
   160
 71
     5
 42
449.2499999999999
 53
90.0
  3
LC-DIM-L-0025-03-02
100
AcDbAlignedDimension
 13
1791.681294
 23
778.7407469999999
 33
0.0
 14
1791.681294
 24
329.490747
 34
0.0
 50
90.0
100
AcDbRotatedDimension
  0
DIMENSION
  5
18C
330
1F
100
AcDbEntity
  8
LC-006-003-----0
 62
     7
370
    25
100
AcDbDimension
  2
*D8
 10
1600.0
 20
1424.986173
 30
0.0
 11
1585.0
 21
1516.986173
 31
0.0
 70
   160
 71
     5
 42
184.0
 53
90.0
  3
LC-DIM-L-0025-02-02
100
AcDbAlignedDimension
 13
1729.681294
 23
1608.986173
 33
0.0
 14
1729.681294
 24
1424.986173
 34
0.0
 50
90.0
100
AcDbRotatedDimension
  0
DIMENSION
  5
199
330
1F
100
AcDbEntity
  8
LC-006-003-----0
 62
     7
370
    25
100
AcDbDimension
  2
*D9
 10
1675.0
 20
1438.986173
 30
0.0
 11
1660.0
 21
1523.986173
 31
0.0
 70
   160
 71
     5
 42
170.0
 53
90.0
  3
LC-DIM-L-0025-03-02
100
AcDbAlignedDimension
 13
1729.681294
 23
1608.986173
 33
0.0
 14
1729.681294
 24
1438.986173
 34
0.0
 50
90.0
100
AcDbRotatedDimension
  0
DIMENSION
  5
1A6
330
1F
100
AcDbEntity
  8
LC-006-003-----0
 62
     7
370
    25
100
AcDbDimension
  2
*D10
 10
2176.931294
 20
100.0
 30
0.0
 11
1994.306294
 21
115.0
 31
0.0
 70
   160
 71
     5
 42
365.25
  3
LC-DIM-L-0025-03-02
100
AcDbAlignedDimension
 13
1811.681294
 23
289.490747
 33
0.0
 14
2176.931294
 24
289.490747
 34
0.0
100
AcDbRotatedDimension
  0
DIMENSION
  5
1B3
330
1F
100
AcDbEntity
  8
LC-006-003-----0
 62
     7
370
    25
100
AcDbDimension
  2
*D11
 10
1831.681294
 20
225.0
 30
0.0
 11
1804.786246
 21
240.0
 31
0.0
 70
   160
 71
     5
 42
20.0
  3
LC-DIM-L-0025-03-02
100
AcDbAlignedDimension
 13
1811.681294
 23
289.490747
 33
0.0
 14
1831.681294
 24
289.490747
 34
0.0
100
AcDbRotatedDimension
  0
DIMENSION
  5
1C2
330
1F
100
AcDbEntity
  8
LC-006-003-----0
 62
     7
370
    25
100
AcDbDimension
  2
*D12
 10
2156.931294
 20
175.0
 30
0.0
 11
1994.306294
 21
190.0
 31
0.0
 70
   160
 71
     5
 42
325.25
  3
LC-DIM-L-0025-03-02
100
AcDbAlignedDimension
 13
1831.681294
 23
289.490747
 33
0.0
 14
2156.931294
 24
289.490747
 34
0.0
100
AcDbRotatedDimension
  0
DIMENSION
  5
7C9
330
1F
100
AcDbEntity
  8
LC-006-003-----0
 62
     7
370
    25
100
AcDbDimension
  2
*D31
 10
1932.306294
 20
225.0
 30
0.0
 11
1881.993794
 21
240.0
 31
0.0
 70
   160
 71
     5
 42
100.625
  3
LC-DIM-L-0025-01-02
100
AcDbAlignedDimension
 13
1831.681294
 23
289.490747
 33
0.0
 14
1932.306294
 24
289.490747
 34
0.0
100
AcDbRotatedDimension
  0
DIMENSION
  5
7D7
330
1F
100
AcDbEntity
  8
LC-006-003-----0
 62
     7
370
    25
100
AcDbDimension
  2
*D32
 10
2136.931294
 20
758.7407469999999
 30
0.0
 11
2192.374357
 21
801.8052759999999
 31
0.0
 70
   164
 71
     5
 42
40.0
  3
LC-DIM-R-0025-03-02
100
AcDbRadialDimension
 15
2163.707927
 25
788.4562639999999
 35
0.0
 40
1.0
  0
DIMENSION
  5
7E0
330
1F
100
AcDbEntity
  8
LC-006-003-----0
 62
     7
370
    25
100
AcDbDimension
  2
*D33
 10
2136.931294
 20
758.7407469999999
 30
0.0
 11
2125.703636
 21
764.093609
 31
0.0
 70
   164
 71
     5
 42
20.0
  3
LC-DIM-R-0025-03-02
100
AcDbRadialDimension
 15
2151.018553
 25
772.9375469999999
 35
0.0
 40
1.0
  0
ENDSEC
  0
SECTION
  2
OBJECTS
  0
DICTIONARY
  5
C
330
0
100
AcDbDictionary
281
     1
  3
ACAD_COLOR
350
816
  3
ACAD_GROUP
350
D
  3
ACAD_LAYOUT
350
1A
  3
ACAD_MATERIAL
350
815
  3
ACAD_MLINESTYLE
350
17
  3
ACAD_PLOTSETTINGS
350
19
  3
ACAD_PLOTSTYLENAME
350
E
  3
ACDBHEADERROUNDTRIPXREC
350
81E
  3
AcDbVariableDictionary
350
818
  3
DWGPROPS
350
81D
  0
DICTIONARY
  5
816
102
{ACAD_REACTORS
330
C
102
}
330
C
100
AcDbDictionary
281
     1
  0
DICTIONARY
  5
D
102
{ACAD_REACTORS
330
C
102
}
330
C
100
AcDbDictionary
281
     1
  3
LCGROUP15
350
801
  3
LCGROUP8072
350
807
  3
LCGROUP8082
350
80B
  3
LCGROUP8091
350
80A
  3
LCGROUP8101
350
80D
  3
LCGROUP8114
350
80F
  3
LCGROUP8124
350
80E
  3
LCGROUP8152
350
810
  3
LCGROUP8162
350
802
  3
LCGROUP8214
350
803
  3
LCGROUP8236
350
804
  3
LCGROUP8249
350
805
  3
LCGROUP8331
350
806
  3
LCGROUP8352
350
809
  3
LCGROUP8365
350
808
  3
LCGROUP8375
350
80C
  0
DICTIONARY
  5
1A
102
{ACAD_REACTORS
330
C
102
}
330
C
100
AcDbDictionary
281
     1
  3
Layout1
350
1E
  3
Layout2
350
26
  3
Model
350
22
  0
DICTIONARY
  5
815
102
{ACAD_REACTORS
330
C
102
}
330
C
100
AcDbDictionary
281
     1
  0
DICTIONARY
  5
17
102
{ACAD_REACTORS
330
C
102
}
330
C
100
AcDbDictionary
281
     1
  3
Standard
350
18
  0
DICTIONARY
  5
19
102
{ACAD_REACTORS
330
C
102
}
330
C
100
AcDbDictionary
281
     1
  0
ACDBDICTIONARYWDFLT
  5
E
102
{ACAD_REACTORS
330
C
102
}
330
C
100
AcDbDictionary
281
     1
  3
Normal
350
F
100
AcDbDictionaryWithDefault
340
F
  0
DICTIONARY
  5
81E
102
{ACAD_REACTORS
330
C
102
}
330
C
100
AcDbDictionary
281
     1
  3
COLORDICT
350
820
  3
MATERIALDICT
350
81F
  0
DICTIONARY
  5
818
102
{ACAD_REACTORS
330
C
102
}
330
C
100
AcDbDictionary
281
     1
  3
DIMASSOC
350
81A
  3
HIDETEXT
350
819
  3
PROJECTNAME
350
81B
  0
XRECORD
  5
81D
102
{ACAD_REACTORS
330
C
102
}
330
C
100
AcDbXrecord
280
     1
  1
DWGPROPS COOKIE
  2

  3

  4

  6

  7

  8

  9

300
=
301
=
302
=
303
=
304
=
305
=
306
=
307
=
308
=
309
=
 40
0.0011078703703704
 41
2455509.579924398
 42
2455964.649055394
  1

 90
        0
  0
GROUP
  5
801
102
{ACAD_REACTORS
330
D
102
}
330
D
100
AcDbGroup
300
GRP15
 70
     1
 71
     1
  0
GROUP
  5
807
102
{ACAD_REACTORS
330
D
102
}
330
D
100
AcDbGroup
300
GRP8072
 70
     1
 71
     1
340
8E
340
8F
340
90
340
91
340
92
340
93
340
94
340
95
340
96
  0
GROUP
  5
80B
102
{ACAD_REACTORS
330
D
102
}
330
D
100
AcDbGroup
300
GRP8082
 70
     1
 71
     1
340
97
340
98
340
99
340
9A
340
9B
340
9C
340
9D
340
9E
340
CA
  0
GROUP
  5
80A
102
{ACAD_REACTORS
330
D
102
}
330
D
100
AcDbGroup
300
GRP8091
 70
     1
 71
     1
340
9F
340
A0
340
A1
340
A2
340
A3
340
A4
340
A5
340
A6
340
A7
  0
GROUP
  5
80D
102
{ACAD_REACTORS
330
D
102
}
330
D
100
AcDbGroup
300
GRP8101
 70
     1
 71
     1
340
A8
340
A9
340
AA
340
AB
340
AC
340
AD
340
AE
340
AF
340
B0
  0
GROUP
  5
80F
102
{ACAD_REACTORS
330
D
102
}
330
D
100
AcDbGroup
300
GRP8114
 70
     1
 71
     1
340
E2
340
E3
340
E4
340
E5
340
E6
340
E7
340
E8
340
E9
340
EA
  0
GROUP
  5
80E
102
{ACAD_REACTORS
330
D
102
}
330
D
100
AcDbGroup
300
GRP8124
 70
     1
 71
     1
340
EB
340
EC
340
ED
340
EE
340
EF
340
F0
340
F1
340
F2
340
F3
  0
GROUP
  5
810
102
{ACAD_REACTORS
330
D
102
}
330
D
100
AcDbGroup
300
GRP8152
 70
     1
 71
     1
340
11E
340
11F
340
120
340
121
340
122
340
123
340
124
340
125
340
126
  0
GROUP
  5
802
102
{ACAD_REACTORS
330
D
102
}
330
D
100
AcDbGroup
300
GRP8162
 70
     1
 71
     1
340
127
340
128
340
129
340
12A
340
12B
340
12C
340
12D
340
12E
340
12F
  0
GROUP
  5
803
102
{ACAD_REACTORS
330
D
102
}
330
D
100
AcDbGroup
300
GRP8214
 70
     1
 71
     1
  0
GROUP
  5
804
102
{ACAD_REACTORS
330
D
102
}
330
D
100
AcDbGroup
300
GRP8236
 70
     1
 71
     1
  0
GROUP
  5
805
102
{ACAD_REACTORS
330
D
102
}
330
D
100
AcDbGroup
300
S:\PKT-WS
 70
     1
 71
     1
  0
GROUP
  5
806
102
{ACAD_REACTORS
330
D
102
}
330
D
100
AcDbGroup
300
GRP8331
 70
     1
 71
     1
  0
GROUP
  5
809
102
{ACAD_REACTORS
330
D
102
}
330
D
100
AcDbGroup
300
GRP8352
 70
     1
 71
     1
  0
GROUP
  5
808
102
{ACAD_REACTORS
330
D
102
}
330
D
100
AcDbGroup
300
S:\PKT-WS
 70
     1
 71
     1
  0
GROUP
  5
80C
102
{ACAD_REACTORS
330
D
102
}
330
D
100
AcDbGroup
300
GRP8375
 70
     1
 71
     1
  0
LAYOUT
  5
1E
102
{ACAD_XDICTIONARY
360
821
102
}
102
{ACAD_REACTORS
330
1A
102
}
330
1A
100
AcDbPlotSettings
  1

  2

  4

  6

 40
0.0
 41
0.0
 42
0.0
 43
0.0
 44
0.0
 45
0.0
 46
0.0
 47
0.0
 48
0.0
 49
0.0
140
0.0
141
0.0
142
1.0
143
1.0
 70
   688
 72
     0
 73
     0
 74
     5
  7

 75
    16
147
1.0
148
0.0
149
0.0
100
AcDbLayout
  1
Layout1
 70
     1
 71
     1
 10
-435.0
 20
-307.5
 11
2535.0
 21
1792.5
 12
0.0
 22
0.0
 32
0.0
 14
-435.0
 24
-307.5
 34
0.0
 15
2535.0
 25
1792.5
 35
0.0
146
0.0
 13
0.0
 23
0.0
 33
0.0
 16
1.0
 26
0.0
 36
0.0
 17
0.0
 27
1.0
 37
0.0
 76
     0
330
1B
  0
LAYOUT
  5
26
102
{ACAD_XDICTIONARY
360
825
102
}
102
{ACAD_REACTORS
330
1A
102
}
330
1A
100
AcDbPlotSettings
  1

  2

  4

  6

 40
0.0
 41
0.0
 42
0.0
 43
0.0
 44
0.0
 45
0.0
 46
0.0
 47
0.0
 48
0.0
 49
0.0
140
0.0
141
0.0
142
1.0
143
1.0
 70
   688
 72
     0
 73
     0
 74
     5
  7

 75
    16
147
1.0
148
0.0
149
0.0
100
AcDbLayout
  1
Layout2
 70
     1
 71
     2
 10
0.0
 20
0.0
 11
0.0
 21
0.0
 12
0.0
 22
0.0
 32
0.0
 14
0.0
 24
0.0
 34
0.0
 15
0.0
 25
0.0
 35
0.0
146
0.0
 13
0.0
 23
0.0
 33
0.0
 16
1.0
 26
0.0
 36
0.0
 17
0.0
 27
1.0
 37
0.0
 76
     0
330
23
  0
LAYOUT
  5
22
102
{ACAD_XDICTIONARY
360
823
102
}
102
{ACAD_REACTORS
330
1A
102
}
330
1A
100
AcDbPlotSettings
  1

  2

  4

  6

 40
0.0
 41
0.0
 42
0.0
 43
0.0
 44
0.0
 45
0.0
 46
0.0
 47
0.0
 48
0.0
 49
0.0
140
0.0
141
0.0
142
1.0
143
1.0
 70
  1776
 72
     0
 73
     0
 74
     0
  7

 75
     0
147
1.0
148
0.0
149
0.0
100
AcDbLayout
  1
Model
 70
     1
 71
     0
 10
-435.0
 20
-307.5
 11
2535.0
 21
1792.5
 12
1050.0
 22
1485.0
 32
0.0
 14
-435.0
 24
-307.5
 34
0.0
 15
2535.0
 25
1792.5
 35
0.0
146
0.0
 13
0.0
 23
0.0
 33
0.0
 16
1.0
 26
0.0
 36
0.0
 17
0.0
 27
1.0
 37
0.0
 76
     0
330
1F
  0
MLINESTYLE
  5
18
102
{ACAD_REACTORS
330
17
102
}
330
17
100
AcDbMlineStyle
  2
STANDARD
 70
     0
  3

 62
   256
 51
90.0
 52
90.0
 71
     2
 49
0.5
 62
   256
  6
BYLAYER
 49
-0.5
 62
   256
  6
BYLAYER
  0
ACDBPLACEHOLDER
  5
F
102
{ACAD_REACTORS
330
E
102
}
330
E
  0
XRECORD
  5
820
102
{ACAD_REACTORS
330
81E
102
}
330
81E
100
AcDbXrecord
280
     1
340
816
  0
XRECORD
  5
81F
102
{ACAD_REACTORS
330
81E
102
}
330
81E
100
AcDbXrecord
280
     1
340
815
  0
DICTIONARYVAR
  5
81A
102
{ACAD_REACTORS
330
818
102
}
330
818
100
DictionaryVariables
280
     0
  1
2
  0
DICTIONARYVAR
  5
819
102
{ACAD_REACTORS
330
818
102
}
330
818
100
DictionaryVariables
280
     0
  1
1
  0
DICTIONARYVAR
  5
81B
102
{ACAD_REACTORS
330
818
102
}
330
818
100
DictionaryVariables
280
     0
  1

  0
DICTIONARY
  5
821
330
1E
100
AcDbDictionary
280
     1
281
     1
  3
ACAD_XREC_ROUNDTRIP
360
822
  0
DICTIONARY
  5
825
330
26
100
AcDbDictionary
280
     1
281
     1
  3
ACAD_XREC_ROUNDTRIP
360
826
  0
DICTIONARY
  5
823
330
22
100
AcDbDictionary
280
     1
281
     1
  3
ACAD_XREC_ROUNDTRIP
360
824
  0
XRECORD
  5
822
102
{ACAD_REACTORS
330
821
102
}
330
821
100
AcDbXrecord
280
     1
102
SHADEPLOT
 70
     0
102
SHADEPLOTRESLEVEL
 70
     2
102
SHADEPLOTCUSTOMDPI
 70
   300
  0
XRECORD
  5
826
102
{ACAD_REACTORS
330
825
102
}
330
825
100
AcDbXrecord
280
     1
102
SHADEPLOT
 70
     0
102
SHADEPLOTRESLEVEL
 70
     2
102
SHADEPLOTCUSTOMDPI
 70
   300
  0
XRECORD
  5
824
102
{ACAD_REACTORS
330
823
102
}
330
823
100
AcDbXrecord
280
     1
102
SHADEPLOT
 70
     0
102
SHADEPLOTRESLEVEL
 70
     2
102
SHADEPLOTCUSTOMDPI
 70
   300
  0
ENDSEC
  0
EOF
