  0
SECTION
  2
HEADER
  9
$ACADVER
  1
AC1009
  9
$INSBASE
 10
0.0
 20
0.0
 30
0.0
  9
$EXTMIN
 10
-110.4229781193947
 20
3655.234233260589
 30
0.0
  9
$EXTMAX
 10
342.91584446436713
 20
4430.5503186127053
 30
0.0
  9
$LIMMIN
 10
0.0
 20
0.0
  9
$LIMMAX
 10
12.0
 20
9.0
  9
$ORTHOMODE
 70
     1
  9
$REGENMODE
 70
     1
  9
$FILLMODE
 70
     1
  9
$QTEXTMODE
 70
     0
  9
$MIRRTEXT
 70
     1
  9
$DRAGMODE
 70
     2
  9
$LTSCALE
 40
50.799999999999997
  9
$OSMODE
 70
   439
  9
$ATTMODE
 70
     1
  9
$TEXTSIZE
 40
0.2
  9
$TRACEWID
 40
1.0
  9
$TEXTSTYLE
  7
STANDARD
  9
$CLAYER
  8
10_ZEICHNUNG-WERKZEICHNUNG
  9
$CELTYPE
  6
BYLAYER
  9
$CECOLOR
 62
   256
  9
$DIMSCALE
 40
1.0
  9
$DIMASZ
 40
14.138671875
  9
$DIMEXO
 40
30.0
  9
$DIMDLI
 40
10.16
  9
$DIMRND
 40
0.0
  9
$DIMDLE
 40
20.0
  9
$DIMEXE
 40
20.0
  9
$DIMTP
 40
0.0
  9
$DIMTM
 40
0.0
  9
$DIMTXT
 40
35.36964699074074
  9
$DIMCEN
 40
0.0
  9
$DIMTSZ
 40
0.0
  9
$DIMTOL
 70
     0
  9
$DIMLIM
 70
     0
  9
$DIMTIH
 70
     0
  9
$DIMTOH
 70
     0
  9
$DIMSE1
 70
     0
  9
$DIMSE2
 70
     0
  9
$DIMTAD
 70
     1
  9
$DIMZIN
 70
     8
  9
$DIMBLK
  1
VW_SLASH
  9
$DIMASO
 70
     1
  9
$DIMSHO
 70
     1
  9
$DIMPOST
  1
<>
  9
$DIMAPOST
  1
[]mm
  9
$DIMALT
 70
     0
  9
$DIMALTD
 70
     1
  9
$DIMALTF
 40
1.0
  9
$DIMLFAC
 40
1.0
  9
$DIMTOFL
 70
     1
  9
$DIMTVP
 40
0.0
  9
$DIMTIX
 70
     1
  9
$DIMSOXD
 70
     0
  9
$DIMSAH
 70
     0
  9
$DIMBLK1
  1
VW_SLASH
  9
$DIMBLK2
  1
VW_SLASH
  9
$DIMSTYLE
  2
SCHREINERHLVAR_1_10
  9
$DIMCLRD
 70
     0
  9
$DIMCLRE
 70
     0
  9
$DIMCLRT
 70
     0
  9
$DIMTFAC
 40
0.8
  9
$DIMGAP
 40
0.5
  9
$LUNITS
 70
     2
  9
$LUPREC
 70
     4
  9
$SKETCHINC
 40
0.1
  9
$FILLETRAD
 40
0.5
  9
$AUNITS
 70
     0
  9
$AUPREC
 70
     0
  9
$MENU
  1
.
  9
$ELEVATION
 40
0.0
  9
$PELEVATION
 40
0.0
  9
$THICKNESS
 40
0.0
  9
$LIMCHECK
 70
     0
  9
$BLIPMODE
 70
     0
  9
$CHAMFERA
 40
0.5
  9
$CHAMFERB
 40
0.5
  9
$SKPOLY
 70
     0
  9
$TDCREATE
 40
2456107.4674295601
  9
$TDUPDATE
 40
2456107.6304814811
  9
$TDINDWG
 40
0.0029197917
  9
$TDUSRTIMER
 40
0.0029197917
  9
$USRTIMER
 70
     1
  9
$ANGBASE
 50
0.0
  9
$ANGDIR
 70
     0
  9
$PDMODE
 70
     1
  9
$PDSIZE
 40
-2.0
  9
$PLINEWID
 40
0.0
  9
$COORDS
 70
     1
  9
$SPLFRAME
 70
     0
  9
$SPLINETYPE
 70
     6
  9
$SPLINESEGS
 70
     8
  9
$ATTDIA
 70
     0
  9
$ATTREQ
 70
     1
  9
$HANDLING
 70
     1
  9
$HANDSEED
  5
3AC
  9
$SURFTAB1
 70
     6
  9
$SURFTAB2
 70
     6
  9
$SURFTYPE
 70
     6
  9
$SURFU
 70
     6
  9
$SURFV
 70
     6
  9
$UCSNAME
  2

  9
$UCSORG
 10
0.0
 20
0.0
 30
0.0
  9
$UCSXDIR
 10
1.0
 20
0.0
 30
0.0
  9
$UCSYDIR
 10
0.0
 20
1.0
 30
0.0
  9
$PUCSNAME
  2

  9
$PUCSORG
 10
0.0
 20
0.0
 30
0.0
  9
$PUCSXDIR
 10
1.0
 20
0.0
 30
0.0
  9
$PUCSYDIR
 10
0.0
 20
1.0
 30
0.0
  9
$USERI1
 70
     0
  9
$USERI2
 70
     0
  9
$USERI3
 70
     0
  9
$USERI4
 70
     0
  9
$USERI5
 70
     0
  9
$USERR1
 40
0.0
  9
$USERR2
 40
0.0
  9
$USERR3
 40
0.0
  9
$USERR4
 40
0.0
  9
$USERR5
 40
0.0
  9
$WORLDVIEW
 70
     1
  9
$SHADEDGE
 70
     3
  9
$SHADEDIF
 70
    70
  9
$TILEMODE
 70
     1
  9
$MAXACTVP
 70
    64
  9
$PLIMCHECK
 70
     0
  9
$PEXTMIN
 10
1.0000000000000000E+020
 20
1.0000000000000000E+020
 30
1.0000000000000000E+020
  9
$PEXTMAX
 10
-1.0000000000000000E+020
 20
-1.0000000000000000E+020
 30
-1.0000000000000000E+020
  9
$PLIMMIN
 10
-20.0
 20
-7.5
  9
$PLIMMAX
 10
277.0
 20
202.5
  9
$UNITMODE
 70
     0
  9
$VISRETAIN
 70
     1
  9
$PLINEGEN
 70
     0
  9
$PSLTSCALE
 70
     1
  0
ENDSEC
  0
SECTION
  2
TABLES
  0
TABLE
  2
VPORT
 70
     3
  0
VPORT
  2
*ACTIVE
 70
     0
 10
0.0
 20
0.0
 11
1.0
 21
1.0
 12
504.45500617689288
 22
3942.044760418612
 13
0.0
 23
0.0
 14
0.5
 24
0.5
 15
0.5
 25
0.5
 16
0.0
 26
0.0
 36
1.0
 17
0.0
 27
0.0
 37
0.0
 40
1555.758539322233
 41
1.4302083333333331
 42
2000.0
 43
0.0
 44
0.0
 50
0.0
 51
0.0
 71
     0
 72
   100
 73
     1
 74
     3
 75
     0
 76
     0
 77
     0
 78
     0
  0
ENDTAB
  0
TABLE
  2
LTYPE
 70
    23
  0
LTYPE
  2
CONTINUOUS
 70
     0
  3
Solid line
 72
    65
 73
     0
 40
0.0
  0
LTYPE
  2
OHNE_TITEL-1
 70
     0
  3

 72
    65
 73
     2
 40
0.39368
 49
0.19684
 49
-0.19684
  0
LTYPE
  2
OHNE_TITEL-2
 70
     0
  3

 72
    65
 73
     2
 40
0.590515
 49
0.393675
 49
-0.19684
  0
LTYPE
  2
OHNE_TITEL-3
 70
     0
  3

 72
    65
 73
     2
 40
0.787355
 49
0.590515
 49
-0.19684
  0
LTYPE
  2
OHNE_TITEL-4
 70
     0
  3

 72
    65
 73
     2
 40
1.18103
 49
0.98419
 49
-0.1968399999999999
  0
LTYPE
  2
OHNE_TITEL-5
 70
     0
  3

 72
    65
 73
     2
 40
0.19684
 49
0.069505
 49
-0.127335
  0
LTYPE
  2
OHNE_TITEL-6
 70
     0
  3

 72
    65
 73
     4
 40
1.0537000000000001
 49
0.590515
 49
-0.19684
 49
0.069505
 49
-0.1968400000000001
  0
LTYPE
  2
OHNE_TITEL-7
 70
     0
  3

 72
    65
 73
     6
 40
1.841054999999999
 49
0.590515
 49
-0.19684
 49
0.5905149999999999
 49
-0.1968400000000001
 49
0.069505
 49
-0.1968400000000001
  0
LTYPE
  2
OHNE_TITEL-8
 70
     0
  3

 72
    65
 73
     6
 40
1.3200449999999999
 49
0.590515
 49
-0.19684
 49
0.069505
 49
-0.1968400000000001
 49
0.069505
 49
-0.1968399999999999
  0
LTYPE
  2
OHNE_TITEL-9
 70
     0
  3

 72
    65
 73
     4
 40
2.5589049999999989
 49
1.9683849999999989
 49
-0.1968400000000001
 49
0.1968400000000001
 49
-0.1968400000000001
  0
LTYPE
  2
OHNE_TITEL-10
 70
     0
  3

 72
    65
 73
     6
 40
2.952585
 49
1.9683849999999989
 49
-0.1968400000000001
 49
0.1968400000000001
 49
-0.1968400000000001
 49
0.1968399999999998
 49
-0.1968399999999998
  0
LTYPE
  2
OHNE_TITEL-11
 70
     0
  3

 72
    65
 73
     4
 40
1.5748031496062991
 49
0.7874015748031497
 49
-0.3937007874015748
 49
0.0004999999999999
 49
-0.3932007874015748
  0
LTYPE
  2
OHNE_TITEL-12
 70
     0
  3

 72
    65
 73
     2
 40
0.5905511811023622
 49
0.3937007874015748
 49
-0.1968503937007874
  0
LTYPE
  2
OHNE_TITEL-13
 70
     0
  3

 72
    65
 73
     2
 40
0.375
 49
0.25
 49
-0.125
  0
LTYPE
  2
OHNE_TITEL-14
 70
     0
  3

 72
    65
 73
     4
 40
0.5625
 49
0.375
 49
-0.0625
 49
0.0625
 49
-0.0625
  0
LTYPE
  2
OHNE_TITEL-15
 70
     0
  3

 72
    65
 73
     4
 40
1.0
 49
0.625
 49
-0.125
 49
0.125
 49
-0.125
  0
LTYPE
  2
OHNE_TITEL-16
 70
     0
  3

 72
    65
 73
     6
 40
1.1000000000000001
 49
0.6
 49
-0.15
 49
0.025
 49
-0.15
 49
0.025
 49
-0.15
  0
LTYPE
  2
OHNE_TITEL-17
 70
     0
  3

 72
    65
 73
     4
 40
1.8
 49
1.1999999999999991
 49
-0.1500000000000001
 49
0.3
 49
-0.1499999999999999
  0
LTYPE
  2
OHNE_TITEL-18
 70
     0
  3

 72
    65
 73
     2
 40
3.75
 49
2.5
 49
-1.25
  0
LTYPE
  2
OHNE_TITEL-19
 70
     0
  3

 72
    65
 73
     2
 40
7.381889763779526
 49
4.9212598425196843
 49
-2.460629921259843
  0
LTYPE
  2
ACAD_ISO02W100
 70
     0
  3

 72
    65
 73
     2
 40
2.9527559055118102
 49
2.3622047244094491
 49
-0.5905511811023622
  0
LTYPE
  2
STYLE_21
 70
     0
  3

 72
    65
 73
     2
 40
0.1973503937007874
 49
0.1968503937007874
 49
-0.0005
  0
LTYPE
  2
DASHED
 70
     0
  3

 72
    65
 73
     2
 40
1.1811023622047241
 49
0.7874015748031497
 49
-0.3937007874015748
  0
ENDTAB
  0
TABLE
  2
LAYER
 70
    32
  0
LAYER
  2
0
 70
     0
 62
     7
  6
STYLE_21
  0
LAYER
  2
KEINE
 70
     0
 62
     7
  6
CONTINUOUS
  0
LAYER
  2
BEMAŠUNG
 70
     0
 62
     1
  6
CONTINUOUS
  0
LAYER
  2
DETAIL-AUSF_HRUNG
 70
     0
 62
     7
  6
CONTINUOUS
  0
LAYER
  2
10_ZEICHNUNG-DETAIL
 70
     0
 62
     7
  6
CONTINUOUS
  0
LAYER
  2
10_ZEICHNUNG-GRAUE_LINIE
 70
     0
 62
     8
  6
CONTINUOUS
  0
LAYER
  2
30_BESCHL_GE-HILFSLINIEN
 70
     0
 62
     5
  6
OHNE_TITEL-1
  0
LAYER
  2
30_BESCHL_GE-ZEICHNUNG
 70
     0
 62
     7
  6
CONTINUOUS
  0
LAYER
  2
10_ZEICHNUNG-WERKZEICHNUNG
 70
     0
 62
     7
  6
CONTINUOUS
  0
LAYER
  2
30_BESCHL_GE-NAME
 70
     0
 62
     7
  6
CONTINUOUS
  0
LAYER
  2
30_BESCHL_GE-BEMASSUNG
 70
     0
 62
     1
  6
CONTINUOUS
  0
LAYER
  2
10_ZEICHNUNG-SCHNITTFL_CHE
 70
     0
 62
     7
  6
CONTINUOUS
  0
LAYER
  2
10_ZEICHNUNG-BESCHRIFTUNG
 70
     0
 62
     7
  6
CONTINUOUS
  0
LAYER
  2
50_MATERIAL-GLAS
 70
     0
 62
     7
  6
CONTINUOUS
  0
LAYER
  2
HILFSKONSTRUKTIONEN
 70
     0
 62
     6
  6
OHNE_TITEL-1
  0
LAYER
  2
10_ZEICHNUNG-VERDECKT__GES
 70
     0
 62
     7
  6
OHNE_TITEL-1
  0
LAYER
  2
70_ARCHITEKTUR-W_NDE
 70
     0
 62
     7
  6
CONTINUOUS
  0
LAYER
  2
70_ARCHITEKTUR-BODEN__DECK
 70
     0
 62
     7
  6
CONTINUOUS
  0
LAYER
  2
ATTRIBUTKLASSE-03
 70
     0
 62
     7
  6
CONTINUOUS
  0
LAYER
  2
ATTRIBUTKLASSE-02
 70
     0
 62
     7
  6
CONTINUOUS
  0
LAYER
  2
ATTRIBUTKLASSE-04
 70
     0
 62
     7
  6
CONTINUOUS
  0
LAYER
  2
ATTRIBUTKLASSE-01
 70
     0
 62
     7
  6
CONTINUOUS
  0
LAYER
  2
70_ARCHITEKTUR-GEB_UDELINI
 70
     0
 62
     7
  6
CONTINUOUS
  0
LAYER
  2
CW-UNSICHTBAR
 70
     1
 62
     7
  6
CONTINUOUS
  0
LAYER
  2
10_ZEICHNUNG-SCHNITTACHSEN
 70
     0
 62
     7
  6
OHNE_TITEL-6
  0
LAYER
  2
20_BEMASSUNG-ERG_NZUNGEN
 70
     0
 62
     7
  6
CONTINUOUS
  0
LAYER
  2
BESCHLƒGE-2
 70
     0
 62
   150
  6
CONTINUOUS
  0
LAYER
  2
LINIE_SS
 70
     0
 62
     4
  6
ACAD_ISO02W100
  0
LAYER
  2
SCHIENEN___PROFILE
 70
     0
 62
     1
  6
CONTINUOUS
  0
LAYER
  2
EKU-BESCHLAG
 70
     0
 62
     7
  6
CONTINUOUS
  0
LAYER
  2
10_ZEICHNUNG-HILFSKONSTRUK
 70
     0
 62
     5
  6
OHNE_TITEL-1
  0
LAYER
  2
DEFPOINTS
 70
     0
 62
     7
  6
CONTINUOUS
  0
ENDTAB
  0
TABLE
  2
STYLE
 70
     2
  0
STYLE
  2
STANDARD
 70
     0
 40
0.0
 41
1.0
 50
0.0
 71
     0
 42
0.2
  3
txt
  4

  0
STYLE
  2
ARIAL
 70
     0
 40
0.0
 41
1.0
 50
0.0
 71
     0
 42
0.0
  3
txt
  4

  0
ENDTAB
  0
TABLE
  2
VIEW
 70
     0
  0
ENDTAB
  0
TABLE
  2
UCS
 70
     0
  0
ENDTAB
  0
TABLE
  2
APPID
 70
     1
  0
APPID
  2
ACAD
 70
     0
  0
ENDTAB
  0
TABLE
  2
DIMSTYLE
 70
     2
  0
DIMSTYLE
  2
STANDARD
 70
     0
  3

  4

  5

  6

  7

 40
1.0
 41
0.18
 42
0.0625
 43
0.38
 44
0.18
 45
0.0
 46
0.0
 47
0.0
 48
0.0
140
0.18
141
0.09
142
0.0
143
25.399999999999999
144
1.0
145
0.0
146
1.0
147
0.09
 71
     0
 72
     0
 73
     1
 74
     1
 75
     0
 76
     0
 77
     0
 78
     0
170
     0
171
     2
172
     0
173
     0
174
     0
175
     0
176
     0
177
     0
178
     0
  0
DIMSTYLE
  2
SCHREINERHLVAR_1_10
 70
     0
  3
<>
  4
[]mm
  5
VW_SLASH
  6
VW_SLASH
  7
VW_SLASH
 40
1.0
 41
14.138671875
 42
30.0
 43
10.16
 44
20.0
 45
0.0
 46
20.0
 47
0.0
 48
0.0
140
35.36964699074074
141
0.0
142
0.0
143
1.0
144
1.0
145
0.0
146
0.8
147
0.5
 71
     0
 72
     0
 73
     0
 74
     0
 75
     0
 76
     0
 77
     1
 78
     8
170
     0
171
     1
172
     1
173
     0
174
     1
175
     0
176
     0
177
     0
178
     0
  0
ENDTAB
  0
ENDSEC
  0
SECTION
  2
BLOCKS
  0
BLOCK
  8
0
  2
$MODEL_SPACE
 70
     0
 10
0.0
 20
0.0
 30
0.0
  3
$MODEL_SPACE
  1

  0
ENDBLK
  5
21
  8
0
  0
BLOCK
 67
     1
  8
0
  2
$PAPER_SPACE
 70
     0
 10
0.0
 20
0.0
 30
0.0
  3
$PAPER_SPACE
  1

  0
ENDBLK
  5
1D
 67
     1
  8
0
  0
BLOCK
  8
0
  2
GRUPPE-1
 70
     0
 10
0.0
 20
0.0
 30
0.0
  3
GRUPPE-1
  1

  0
POLYLINE
  5
AC
  8
10_ZEICHNUNG-WERKZEICHNUNG
  6
CONTINUOUS
 62
     7
 66
     1
 10
0.0
 20
0.0
 30
0.0
 70
   128
  0
VERTEX
  5
AD
  8
10_ZEICHNUNG-WERKZEICHNUNG
  6
CONTINUOUS
 62
     7
 10
22.975900705362509
 20
3676.8496358397229
 30
0.0
  0
VERTEX
  5
AE
  8
10_ZEICHNUNG-WERKZEICHNUNG
  6
CONTINUOUS
 62
     7
 10
22.65473197712663
 20
3676.8591578711498
 30
0.0
  0
VERTEX
  5
AF
  8
10_ZEICHNUNG-WERKZEICHNUNG
  6
CONTINUOUS
 62
     7
 10
22.333563815874982
 20
3676.8692886527888
 30
0.0
  0
VERTEX
  5
B0
  8
10_ZEICHNUNG-WERKZEICHNUNG
  6
CONTINUOUS
 62
     7
 10
22.01239625673281
 20
3676.8800281835279
 30
0.0
  0
VERTEX
  5
B1
  8
10_ZEICHNUNG-WERKZEICHNUNG
  6
CONTINUOUS
 62
     7
 10
21.69122933482538
 20
3676.891376462193
 30
0.0
  0
VERTEX
  5
B2
  8
10_ZEICHNUNG-WERKZEICHNUNG
  6
CONTINUOUS
 62
     7
 10
21.37006308527646
 20
3676.9033334875448
 30
0.0
  0
VERTEX
  5
B3
  8
10_ZEICHNUNG-WERKZEICHNUNG
  6
CONTINUOUS
 62
     7
 10
21.04889754321141
 20
3676.9158992582738
 30
0.0
  0
VERTEX
  5
B4
  8
10_ZEICHNUNG-WERKZEICHNUNG
  6
CONTINUOUS
 62
     7
 10
20.727732743755269
 20
3676.929073773008
 30
0.0
  0
VERTEX
  5
B5
  8
10_ZEICHNUNG-WERKZEICHNUNG
  6
CONTINUOUS
 62
     7
 10
20.406568722031469
 20
3676.942857030303
 30
0.0
  0
VERTEX
  5
B6
  8
10_ZEICHNUNG-WERKZEICHNUNG
  6
CONTINUOUS
 62
     7
 10
20.085405513165139
 20
3676.957249028655
 30
0.0
  0
VERTEX
  5
B7
  8
10_ZEICHNUNG-WERKZEICHNUNG
  6
CONTINUOUS
 62
     7
 10
19.7642431522811
 20
3676.9722497664889
 30
0.0
  0
VERTEX
  5
B8
  8
10_ZEICHNUNG-WERKZEICHNUNG
  6
CONTINUOUS
 62
     7
 10
19.44308167450242
 20
3676.9878592421642
 30
0.0
  0
VERTEX
  5
B9
  8
10_ZEICHNUNG-WERKZEICHNUNG
  6
CONTINUOUS
 62
     7
 10
19.121921114954141
 20
3677.0040774539721
 30
0.0
  0
VERTEX
  5
BA
  8
10_ZEICHNUNG-WERKZEICHNUNG
  6
CONTINUOUS
 62
     7
 10
18.800761508760619
 20
3677.020904400139
 30
0.0
  0
VERTEX
  5
BB
  8
10_ZEICHNUNG-WERKZEICHNUNG
  6
CONTINUOUS
 62
     7
 10
18.479602891044919
 20
3677.0383400788269
 30
0.0
  0
VERTEX
  5
BC
  8
10_ZEICHNUNG-WERKZEICHNUNG
  6
CONTINUOUS
 62
     7
 10
18.15844529693118
 20
3677.0563844881272
 30
0.0
  0
VERTEX
  5
BD
  8
10_ZEICHNUNG-WERKZEICHNUNG
  6
CONTINUOUS
 62
     7
 10
17.837288761543959
 20
3677.0750376260671
 30
0.0
  0
VERTEX
  5
BE
  8
10_ZEICHNUNG-WERKZEICHNUNG
  6
CONTINUOUS
 62
     7
 10
17.51613332000635
 20
3677.0942994906072
 30
0.0
  0
VERTEX
  5
BF
  8
10_ZEICHNUNG-WERKZEICHNUNG
  6
CONTINUOUS
 62
     7
 10
17.19497900744113
 20
3677.1141700796388
 30
0.0
  0
VERTEX
  5
C0
  8
10_ZEICHNUNG-WERKZEICHNUNG
  6
CONTINUOUS
 62
     7
 10
16.873825858972509
 20
3677.1346493909919
 30
0.0
  0
VERTEX
  5
C1
  8
10_ZEICHNUNG-WERKZEICHNUNG
  6
CONTINUOUS
 62
     7
 10
16.552673909724039
 20
3677.155737422423
 30
0.0
  0
VERTEX
  5
C2
  8
10_ZEICHNUNG-WERKZEICHNUNG
  6
CONTINUOUS
 62
     7
 10
16.2315231948179
 20
3677.1774341716282
 30
0.0
  0
VERTEX
  5
C3
  8
10_ZEICHNUNG-WERKZEICHNUNG
  6
CONTINUOUS
 62
     7
 10
15.910373749377531
 20
3677.1997396362349
 30
0.0
  0
VERTEX
  5
C4
  8
10_ZEICHNUNG-WERKZEICHNUNG
  6
CONTINUOUS
 62
     7
 10
15.58922560852659
 20
3677.2226538138029
 30
0.0
  0
VERTEX
  5
C5
  8
10_ZEICHNUNG-WERKZEICHNUNG
  6
CONTINUOUS
 62
     7
 10
15.26807880738647
 20
3677.2461767018249
 30
0.0
  0
VERTEX
  5
C6
  8
10_ZEICHNUNG-WERKZEICHNUNG
  6
CONTINUOUS
 62
     7
 10
14.946933381080379
 20
3677.27030829773
 30
0.0
  0
VERTEX
  5
C7
  8
10_ZEICHNUNG-WERKZEICHNUNG
  6
CONTINUOUS
 62
     7
 10
14.62578936473119
 20
3677.295048598879
 30
0.0
  0
VERTEX
  5
C8
  8
10_ZEICHNUNG-WERKZEICHNUNG
  6
CONTINUOUS
 62
     7
 10
14.30464679346017
 20
3677.3203976025661
 30
0.0
  0
VERTEX
  5
C9
  8
10_ZEICHNUNG-WERKZEICHNUNG
  6
CONTINUOUS
 62
     7
 10
13.98350570239006
 20
3677.3463553060178
 30
0.0
  0
VERTEX
  5
CA
  8
10_ZEICHNUNG-WERKZEICHNUNG
  6
CONTINUOUS
 62
     7
 10
13.66236612664329
 20
3677.372921706396
 30
0.0
  0
VERTEX
  5
CB
  8
10_ZEICHNUNG-WERKZEICHNUNG
  6
CONTINUOUS
 62
     7
 10
13.34122810134045
 20
3677.4000968007958
 30
0.0
  0
VERTEX
  5
CC
  8
10_ZEICHNUNG-WERKZEICHNUNG
  6
CONTINUOUS
 62
     7
 10
13.020091661603709
 20
3677.427880586245
 30
0.0
  0
VERTEX
  5
CD
  8
10_ZEICHNUNG-WERKZEICHNUNG
  6
CONTINUOUS
 62
     7
 10
12.698956842555161
 20
3677.4562730597031
 30
0.0
  0
VERTEX
  5
CE
  8
10_ZEICHNUNG-WERKZEICHNUNG
  6
CONTINUOUS
 62
     7
 10
12.377823679315499
 20
3677.485274218066
 30
0.0
  0
VERTEX
  5
CF
  8
10_ZEICHNUNG-WERKZEICHNUNG
  6
CONTINUOUS
 62
     7
 10
12.056692207005311
 20
3677.5148840581642
 30
0.0
  0
VERTEX
  5
D0
  8
10_ZEICHNUNG-WERKZEICHNUNG
  6
CONTINUOUS
 62
     7
 10
11.735562460745999
 20
3677.5451025767579
 30
0.0
  0
VERTEX
  5
D1
  8
10_ZEICHNUNG-WERKZEICHNUNG
  6
CONTINUOUS
 62
     7
 10
11.4144344756586
 20
3677.575929770539
 30
0.0
  0
VERTEX
  5
D2
  8
10_ZEICHNUNG-WERKZEICHNUNG
  6
CONTINUOUS
 62
     7
 10
11.09330828686279
 20
3677.60736563614
 30
0.0
  0
VERTEX
  5
D3
  8
10_ZEICHNUNG-WERKZEICHNUNG
  6
CONTINUOUS
 62
     7
 10
10.772183929479411
 20
3677.6394101701239
 30
0.0
  0
VERTEX
  5
D4
  8
10_ZEICHNUNG-WERKZEICHNUNG
  6
CONTINUOUS
 62
     7
 10
10.45106143862904
 20
3677.6720633689811
 30
0.0
  0
VERTEX
  5
D5
  8
10_ZEICHNUNG-WERKZEICHNUNG
  6
CONTINUOUS
 62
     7
 10
10.12994084943068
 20
3677.7053252291448
 30
0.0
  0
VERTEX
  5
D6
  8
10_ZEICHNUNG-WERKZEICHNUNG
  6
CONTINUOUS
 62
     7
 10
9.8088221970043605
 20
3677.7391957469749
 30
0.0
  0
VERTEX
  5
D7
  8
10_ZEICHNUNG-WERKZEICHNUNG
  6
CONTINUOUS
 62
     7
 10
9.4877055164702124
 20
3677.7736749187688
 30
0.0
  0
VERTEX
  5
D8
  8
10_ZEICHNUNG-WERKZEICHNUNG
  6
CONTINUOUS
 62
     7
 10
9.1665908429465635
 20
3677.8087627407549
 30
0.0
  0
VERTEX
  5
D9
  8
10_ZEICHNUNG-WERKZEICHNUNG
  6
CONTINUOUS
 62
     7
 10
8.8454782115527433
 20
3677.8444592090968
 30
0.0
  0
VERTEX
  5
DA
  8
10_ZEICHNUNG-WERKZEICHNUNG
  6
CONTINUOUS
 62
     7
 10
8.5243676574083338
 20
3677.880764319887
 30
0.0
  0
VERTEX
  5
DB
  8
10_ZEICHNUNG-WERKZEICHNUNG
  6
CONTINUOUS
 62
     7
 10
8.2032592156307373
 20
3677.917678069161
 30
0.0
  0
VERTEX
  5
DC
  8
10_ZEICHNUNG-WERKZEICHNUNG
  6
CONTINUOUS
 62
     7
 10
7.8821529213389567
 20
3677.955200452875
 30
0.0
  0
VERTEX
  5
DD
  8
10_ZEICHNUNG-WERKZEICHNUNG
  6
CONTINUOUS
 62
     7
 10
7.5610488096517674
 20
3677.9933314669288
 30
0.0
  0
VERTEX
  5
DE
  8
10_ZEICHNUNG-WERKZEICHNUNG
  6
CONTINUOUS
 62
     7
 10
7.2399469156861178
 20
3678.032071107154
 30
0.0
  0
VERTEX
  5
DF
  8
10_ZEICHNUNG-WERKZEICHNUNG
  6
CONTINUOUS
 62
     7
 10
6.9188472745597656
 20
3678.0714193693102
 30
0.0
  0
VERTEX
  5
E0
  8
10_ZEICHNUNG-WERKZEICHNUNG
  6
CONTINUOUS
 62
     7
 10
6.5977499213903457
 20
3678.1113762490941
 30
0.0
  0
VERTEX
  5
E1
  8
10_ZEICHNUNG-WERKZEICHNUNG
  6
CONTINUOUS
 62
     7
 10
6.2766548912952649
 20
3678.1519417421391
 30
0.0
  0
VERTEX
  5
E2
  8
10_ZEICHNUNG-WERKZEICHNUNG
  6
CONTINUOUS
 62
     7
 10
5.9555622193909121
 20
3678.1931158440061
 30
0.0
  0
VERTEX
  5
E3
  8
10_ZEICHNUNG-WERKZEICHNUNG
  6
CONTINUOUS
 62
     7
 10
5.6344719407941284
 20
3678.2348985501922
 30
0.0
  0
VERTEX
  5
E4
  8
10_ZEICHNUNG-WERKZEICHNUNG
  6
CONTINUOUS
 62
     7
 10
5.3133840906219802
 20
3678.2772898561288
 30
0.0
  0
VERTEX
  5
E5
  8
10_ZEICHNUNG-WERKZEICHNUNG
  6
CONTINUOUS
 62
     7
 10
4.992298703989376
 20
3678.3202897571791
 30
0.0
  0
VERTEX
  5
E6
  8
10_ZEICHNUNG-WERKZEICHNUNG
  6
CONTINUOUS
 62
     7
 10
4.6712158160128183
 20
3678.36389824864
 30
0.0
  0
VERTEX
  5
E7
  8
10_ZEICHNUNG-WERKZEICHNUNG
  6
CONTINUOUS
 62
     7
 10
4.3501354618083488
 20
3678.408115325743
 30
0.0
  0
VERTEX
  5
E8
  8
10_ZEICHNUNG-WERKZEICHNUNG
  6
CONTINUOUS
 62
     7
 10
4.0290576764904227
 20
3678.4529409836518
 30
0.0
  0
VERTEX
  5
E9
  8
10_ZEICHNUNG-WERKZEICHNUNG
  6
CONTINUOUS
 62
     7
 10
3.7079824951744058
 20
3678.4983752174639
 30
0.0
  0
VERTEX
  5
EA
  8
10_ZEICHNUNG-WERKZEICHNUNG
  6
CONTINUOUS
 62
     7
 10
3.3869099529755431
 20
3678.5444180222121
 30
0.0
  0
VERTEX
  5
EB
  8
10_ZEICHNUNG-WERKZEICHNUNG
  6
CONTINUOUS
 62
     7
 10
3.0658400850074932
 20
3678.5910693928572
 30
0.0
  0
VERTEX
  5
EC
  8
10_ZEICHNUNG-WERKZEICHNUNG
  6
CONTINUOUS
 62
     7
 10
2.744772926384599
 20
3678.6383293242989
 30
0.0
  0
VERTEX
  5
ED
  8
10_ZEICHNUNG-WERKZEICHNUNG
  6
CONTINUOUS
 62
     7
 10
2.423708512222674
 20
3678.6861978113711
 30
0.0
  0
SEQEND
  5
EE
  8
10_ZEICHNUNG-WERKZEICHNUNG
  6
CONTINUOUS
 62
     7
  0
ENDBLK
  5
41
  8
0
  0
BLOCK
  8
0
  2
GRUPPE-2-1
 70
     0
 10
0.0
 20
0.0
 30
0.0
  3
GRUPPE-2-1
  1

  0
POLYLINE
  5
EF
  8
10_ZEICHNUNG-WERKZEICHNUNG
  6
CONTINUOUS
 62
     7
 66
     1
 10
0.0
 20
0.0
 30
0.0
 70
   128
  0
VERTEX
  5
F0
  8
10_ZEICHNUNG-WERKZEICHNUNG
  6
CONTINUOUS
 62
     7
 10
127.67123471130419
 20
3676.8496358397229
 30
0.0
  0
VERTEX
  5
F1
  8
10_ZEICHNUNG-WERKZEICHNUNG
  6
CONTINUOUS
 62
     7
 10
127.9924034395401
 20
3676.8591578711498
 30
0.0
  0
VERTEX
  5
F2
  8
10_ZEICHNUNG-WERKZEICHNUNG
  6
CONTINUOUS
 62
     7
 10
128.31357160079179
 20
3676.8692886527888
 30
0.0
  0
VERTEX
  5
F3
  8
10_ZEICHNUNG-WERKZEICHNUNG
  6
CONTINUOUS
 62
     7
 10
128.6347391599339
 20
3676.8800281835279
 30
0.0
  0
VERTEX
  5
F4
  8
10_ZEICHNUNG-WERKZEICHNUNG
  6
CONTINUOUS
 62
     7
 10
128.95590608184139
 20
3676.891376462193
 30
0.0
  0
VERTEX
  5
F5
  8
10_ZEICHNUNG-WERKZEICHNUNG
  6
CONTINUOUS
 62
     7
 10
129.27707233139029
 20
3676.9033334875448
 30
0.0
  0
VERTEX
  5
F6
  8
10_ZEICHNUNG-WERKZEICHNUNG
  6
CONTINUOUS
 62
     7
 10
129.5982378734553
 20
3676.9158992582738
 30
0.0
  0
VERTEX
  5
F7
  8
10_ZEICHNUNG-WERKZEICHNUNG
  6
CONTINUOUS
 62
     7
 10
129.9194026729115
 20
3676.929073773008
 30
0.0
  0
VERTEX
  5
F8
  8
10_ZEICHNUNG-WERKZEICHNUNG
  6
CONTINUOUS
 62
     7
 10
130.24056669463531
 20
3676.942857030303
 30
0.0
  0
VERTEX
  5
F9
  8
10_ZEICHNUNG-WERKZEICHNUNG
  6
CONTINUOUS
 62
     7
 10
130.5617299035016
 20
3676.957249028655
 30
0.0
  0
VERTEX
  5
FA
  8
10_ZEICHNUNG-WERKZEICHNUNG
  6
CONTINUOUS
 62
     7
 10
130.88289226438559
 20
3676.9722497664889
 30
0.0
  0
VERTEX
  5
FB
  8
10_ZEICHNUNG-WERKZEICHNUNG
  6
CONTINUOUS
 62
     7
 10
131.20405374216429
 20
3676.9878592421642
 30
0.0
  0
VERTEX
  5
FC
  8
10_ZEICHNUNG-WERKZEICHNUNG
  6
CONTINUOUS
 62
     7
 10
131.52521430171259
 20
3677.0040774539721
 30
0.0
  0
VERTEX
  5
FD
  8
10_ZEICHNUNG-WERKZEICHNUNG
  6
CONTINUOUS
 62
     7
 10
131.8463739079061
 20
3677.020904400139
 30
0.0
  0
VERTEX
  5
FE
  8
10_ZEICHNUNG-WERKZEICHNUNG
  6
CONTINUOUS
 62
     7
 10
132.16753252562179
 20
3677.0383400788269
 30
0.0
  0
VERTEX
  5
FF
  8
10_ZEICHNUNG-WERKZEICHNUNG
  6
CONTINUOUS
 62
     7
 10
132.48869011973559
 20
3677.0563844881272
 30
0.0
  0
VERTEX
  5
100
  8
10_ZEICHNUNG-WERKZEICHNUNG
  6
CONTINUOUS
 62
     7
 10
132.80984665512281
 20
3677.0750376260671
 30
0.0
  0
VERTEX
  5
101
  8
10_ZEICHNUNG-WERKZEICHNUNG
  6
CONTINUOUS
 62
     7
 10
133.13100209666041
 20
3677.0942994906072
 30
0.0
  0
VERTEX
  5
102
  8
10_ZEICHNUNG-WERKZEICHNUNG
  6
CONTINUOUS
 62
     7
 10
133.45215640922561
 20
3677.1141700796388
 30
0.0
  0
VERTEX
  5
103
  8
10_ZEICHNUNG-WERKZEICHNUNG
  6
CONTINUOUS
 62
     7
 10
133.7733095576942
 20
3677.1346493909919
 30
0.0
  0
VERTEX
  5
104
  8
10_ZEICHNUNG-WERKZEICHNUNG
  6
CONTINUOUS
 62
     7
 10
134.09446150694271
 20
3677.155737422423
 30
0.0
  0
VERTEX
  5
105
  8
10_ZEICHNUNG-WERKZEICHNUNG
  6
CONTINUOUS
 62
     7
 10
134.41561222184879
 20
3677.1774341716282
 30
0.0
  0
VERTEX
  5
106
  8
10_ZEICHNUNG-WERKZEICHNUNG
  6
CONTINUOUS
 62
     7
 10
134.73676166728919
 20
3677.1997396362349
 30
0.0
  0
VERTEX
  5
107
  8
10_ZEICHNUNG-WERKZEICHNUNG
  6
CONTINUOUS
 62
     7
 10
135.05790980814021
 20
3677.2226538138029
 30
0.0
  0
VERTEX
  5
108
  8
10_ZEICHNUNG-WERKZEICHNUNG
  6
CONTINUOUS
 62
     7
 10
135.3790566092803
 20
3677.2461767018249
 30
0.0
  0
VERTEX
  5
109
  8
10_ZEICHNUNG-WERKZEICHNUNG
  6
CONTINUOUS
 62
     7
 10
135.70020203558639
 20
3677.27030829773
 30
0.0
  0
VERTEX
  5
10A
  8
10_ZEICHNUNG-WERKZEICHNUNG
  6
CONTINUOUS
 62
     7
 10
136.02134605193561
 20
3677.295048598879
 30
0.0
  0
VERTEX
  5
10B
  8
10_ZEICHNUNG-WERKZEICHNUNG
  6
CONTINUOUS
 62
     7
 10
136.34248862320661
 20
3677.3203976025661
 30
0.0
  0
VERTEX
  5
10C
  8
10_ZEICHNUNG-WERKZEICHNUNG
  6
CONTINUOUS
 62
     7
 10
136.66362971427671
 20
3677.3463553060178
 30
0.0
  0
VERTEX
  5
10D
  8
10_ZEICHNUNG-WERKZEICHNUNG
  6
CONTINUOUS
 62
     7
 10
136.98476929002351
 20
3677.372921706396
 30
0.0
  0
VERTEX
  5
10E
  8
10_ZEICHNUNG-WERKZEICHNUNG
  6
CONTINUOUS
 62
     7
 10
137.30590731532629
 20
3677.4000968007958
 30
0.0
  0
VERTEX
  5
10F
  8
10_ZEICHNUNG-WERKZEICHNUNG
  6
CONTINUOUS
 62
     7
 10
137.627043755063
 20
3677.427880586245
 30
0.0
  0
VERTEX
  5
110
  8
10_ZEICHNUNG-WERKZEICHNUNG
  6
CONTINUOUS
 62
     7
 10
137.94817857411161
 20
3677.4562730597031
 30
0.0
  0
VERTEX
  5
111
  8
10_ZEICHNUNG-WERKZEICHNUNG
  6
CONTINUOUS
 62
     7
 10
138.26931173735119
 20
3677.485274218066
 30
0.0
  0
VERTEX
  5
112
  8
10_ZEICHNUNG-WERKZEICHNUNG
  6
CONTINUOUS
 62
     7
 10
138.5904432096614
 20
3677.5148840581642
 30
0.0
  0
VERTEX
  5
113
  8
10_ZEICHNUNG-WERKZEICHNUNG
  6
CONTINUOUS
 62
     7
 10
138.91157295592069
 20
3677.5451025767579
 30
0.0
  0
VERTEX
  5
114
  8
10_ZEICHNUNG-WERKZEICHNUNG
  6
CONTINUOUS
 62
     7
 10
139.23270094100809
 20
3677.575929770539
 30
0.0
  0
VERTEX
  5
115
  8
10_ZEICHNUNG-WERKZEICHNUNG
  6
CONTINUOUS
 62
     7
 10
139.55382712980389
 20
3677.60736563614
 30
0.0
  0
VERTEX
  5
116
  8
10_ZEICHNUNG-WERKZEICHNUNG
  6
CONTINUOUS
 62
     7
 10
139.8749514871873
 20
3677.6394101701239
 30
0.0
  0
VERTEX
  5
117
  8
10_ZEICHNUNG-WERKZEICHNUNG
  6
CONTINUOUS
 62
     7
 10
140.1960739780377
 20
3677.6720633689811
 30
0.0
  0
VERTEX
  5
118
  8
10_ZEICHNUNG-WERKZEICHNUNG
  6
CONTINUOUS
 62
     7
 10
140.51719456723609
 20
3677.7053252291448
 30
0.0
  0
VERTEX
  5
119
  8
10_ZEICHNUNG-WERKZEICHNUNG
  6
CONTINUOUS
 62
     7
 10
140.83831321966241
 20
3677.7391957469749
 30
0.0
  0
VERTEX
  5
11A
  8
10_ZEICHNUNG-WERKZEICHNUNG
  6
CONTINUOUS
 62
     7
 10
141.1594299001965
 20
3677.7736749187688
 30
0.0
  0
VERTEX
  5
11B
  8
10_ZEICHNUNG-WERKZEICHNUNG
  6
CONTINUOUS
 62
     7
 10
141.48054457372021
 20
3677.8087627407549
 30
0.0
  0
VERTEX
  5
11C
  8
10_ZEICHNUNG-WERKZEICHNUNG
  6
CONTINUOUS
 62
     7
 10
141.801657205114
 20
3677.8444592090968
 30
0.0
  0
VERTEX
  5
11D
  8
10_ZEICHNUNG-WERKZEICHNUNG
  6
CONTINUOUS
 62
     7
 10
142.12276775925841
 20
3677.880764319887
 30
0.0
  0
VERTEX
  5
11E
  8
10_ZEICHNUNG-WERKZEICHNUNG
  6
CONTINUOUS
 62
     7
 10
142.44387620103601
 20
3677.917678069161
 30
0.0
  0
VERTEX
  5
11F
  8
10_ZEICHNUNG-WERKZEICHNUNG
  6
CONTINUOUS
 62
     7
 10
142.76498249532781
 20
3677.955200452875
 30
0.0
  0
VERTEX
  5
120
  8
10_ZEICHNUNG-WERKZEICHNUNG
  6
CONTINUOUS
 62
     7
 10
143.08608660701501
 20
3677.9933314669288
 30
0.0
  0
VERTEX
  5
121
  8
10_ZEICHNUNG-WERKZEICHNUNG
  6
CONTINUOUS
 62
     7
 10
143.4071885009806
 20
3678.032071107154
 30
0.0
  0
VERTEX
  5
122
  8
10_ZEICHNUNG-WERKZEICHNUNG
  6
CONTINUOUS
 62
     7
 10
143.728288142107
 20
3678.0714193693102
 30
0.0
  0
VERTEX
  5
123
  8
10_ZEICHNUNG-WERKZEICHNUNG
  6
CONTINUOUS
 62
     7
 10
144.0493854952764
 20
3678.1113762490941
 30
0.0
  0
VERTEX
  5
124
  8
10_ZEICHNUNG-WERKZEICHNUNG
  6
CONTINUOUS
 62
     7
 10
144.37048052537151
 20
3678.1519417421391
 30
0.0
  0
VERTEX
  5
125
  8
10_ZEICHNUNG-WERKZEICHNUNG
  6
CONTINUOUS
 62
     7
 10
144.6915731972758
 20
3678.1931158440061
 30
0.0
  0
VERTEX
  5
126
  8
10_ZEICHNUNG-WERKZEICHNUNG
  6
CONTINUOUS
 62
     7
 10
145.01266347587261
 20
3678.2348985501922
 30
0.0
  0
VERTEX
  5
127
  8
10_ZEICHNUNG-WERKZEICHNUNG
  6
CONTINUOUS
 62
     7
 10
145.33375132604479
 20
3678.2772898561288
 30
0.0
  0
VERTEX
  5
128
  8
10_ZEICHNUNG-WERKZEICHNUNG
  6
CONTINUOUS
 62
     7
 10
145.65483671267739
 20
3678.3202897571791
 30
0.0
  0
VERTEX
  5
129
  8
10_ZEICHNUNG-WERKZEICHNUNG
  6
CONTINUOUS
 62
     7
 10
145.9759196006539
 20
3678.36389824864
 30
0.0
  0
VERTEX
  5
12A
  8
10_ZEICHNUNG-WERKZEICHNUNG
  6
CONTINUOUS
 62
     7
 10
146.29699995485839
 20
3678.408115325743
 30
0.0
  0
VERTEX
  5
12B
  8
10_ZEICHNUNG-WERKZEICHNUNG
  6
CONTINUOUS
 62
     7
 10
146.61807774017629
 20
3678.4529409836518
 30
0.0
  0
VERTEX
  5
12C
  8
10_ZEICHNUNG-WERKZEICHNUNG
  6
CONTINUOUS
 62
     7
 10
146.93915292149231
 20
3678.4983752174639
 30
0.0
  0
VERTEX
  5
12D
  8
10_ZEICHNUNG-WERKZEICHNUNG
  6
CONTINUOUS
 62
     7
 10
147.2602254636912
 20
3678.5444180222121
 30
0.0
  0
VERTEX
  5
12E
  8
10_ZEICHNUNG-WERKZEICHNUNG
  6
CONTINUOUS
 62
     7
 10
147.58129533165919
 20
3678.5910693928572
 30
0.0
  0
VERTEX
  5
12F
  8
10_ZEICHNUNG-WERKZEICHNUNG
  6
CONTINUOUS
 62
     7
 10
147.902362490282
 20
3678.6383293242989
 30
0.0
  0
VERTEX
  5
130
  8
10_ZEICHNUNG-WERKZEICHNUNG
  6
CONTINUOUS
 62
     7
 10
148.2234269044441
 20
3678.6861978113711
 30
0.0
  0
SEQEND
  5
131
  8
10_ZEICHNUNG-WERKZEICHNUNG
  6
CONTINUOUS
 62
     7
  0
ENDBLK
  5
44
  8
0
  0
BLOCK
  8
0
  2
*D2
 70
     1
 10
0.0
 20
0.0
 30
0.0
  3
*D2
  1

  0
LINE
  5
33C
  8
BEMAŠUNG
  6
CONTINUOUS
 62
     0
 10
157.8235677083334
 20
4277.0500740653488
 30
0.0
 11
157.8235677083334
 21
4359.2509589908504
 31
0.0
  0
LINE
  5
33D
  8
BEMAŠUNG
  6
CONTINUOUS
 62
     0
 10
-7.1764322916668553
 20
4277.0500740653488
 30
0.0
 11
-7.176432291666849
 21
4359.2509589908504
 31
0.0
  0
LINE
  5
33E
  8
BEMAŠUNG
  6
CONTINUOUS
 62
     0
 10
143.6848958333334
 20
4339.2509589908514
 30
0.0
 11
6.9622395833331483
 21
4339.2509589908514
 31
0.0
  0
INSERT
  5
33F
  8
BEMAŠUNG
  6
CONTINUOUS
 62
     0
  2
VW_SLASH
 10
157.8235677083334
 20
4339.2509589908514
 30
0.0
 41
14.138671875
 42
14.138671875
 43
14.138671875
  0
INSERT
  5
340
  8
BEMAŠUNG
  6
CONTINUOUS
 62
     0
  2
VW_SLASH
 10
-7.1764322916668508
 20
4339.2509589908514
 30
0.0
 41
14.138671875
 42
14.138671875
 43
14.138671875
 50
180.0
  0
TEXT
  8
BEMAŠUNG
  40
35.3696
  5
3A2
  62
0
  72
0
  71
0
 10
4.58427
 20
4297.21
 30
0.000000
  1
165
  7
ARIAL
  0
POINT
  5
342
  8
DEFPOINTS
  6
CONTINUOUS
 62
     0
 10
157.8235677083334
 20
4247.0500740653488
 30
0.0
  0
POINT
  5
343
  8
DEFPOINTS
  6
CONTINUOUS
 62
     0
 10
-7.176432291666857
 20
4247.0500740653488
 30
0.0
  0
POINT
  5
344
  8
DEFPOINTS
  6
CONTINUOUS
 62
     0
 10
-7.1764322916668508
 20
4339.2509589908514
 30
0.0
  0
ENDBLK
  5
47
  8
0
  0
BLOCK
  8
0
  2
*D3
 70
     1
 10
0.0
 20
0.0
 30
0.0
  3
*D3
  1

  0
LINE
  5
345
  8
BEMAŠUNG
  6
CONTINUOUS
 62
     0
 10
169.8235677083334
 20
4246.49120771459
 30
0.0
 11
169.8235677083334
 21
4420.7027777777757
 31
0.0
  0
LINE
  5
346
  8
BEMAŠUNG
  6
CONTINUOUS
 62
     0
 10
-19.176432291666622
 20
4246.49120771459
 30
0.0
 11
-19.176432291666611
 21
4420.7027777777757
 31
0.0
  0
LINE
  5
347
  8
BEMAŠUNG
  6
CONTINUOUS
 62
     0
 10
155.6848958333334
 20
4400.7027777777757
 30
0.0
 11
115.26810531381059
 21
4400.7027777777757
 31
0.0
  0
LINE
  5
348
  8
BEMAŠUNG
  6
CONTINUOUS
 62
     0
 10
-5.0377604166666181
 20
4400.7027777777757
 30
0.0
 11
35.379030102856142
 21
4400.7027777777757
 31
0.0
  0
TEXT
  8
BEMAŠUNG
  40
35.3696
  5
3A3
  62
0
  72
0
  71
0
 10
4.58427
 20
4340.60
 30
0.000000
  1
189
  7
ARIAL
  0
INSERT
  5
34A
  8
BEMAŠUNG
  6
CONTINUOUS
 62
     0
  2
VW_SLASH
 10
169.8235677083334
 20
4400.7027777777757
 30
0.0
 41
14.138671875
 42
14.138671875
 43
14.138671875
  0
INSERT
  5
34B
  8
BEMAŠUNG
  6
CONTINUOUS
 62
     0
  2
VW_SLASH
 10
-19.176432291666622
 20
4400.7027777777757
 30
0.0
 41
14.138671875
 42
14.138671875
 43
14.138671875
 50
180.0
  0
POINT
  5
34C
  8
DEFPOINTS
  6
CONTINUOUS
 62
     0
 10
169.8235677083334
 20
4216.4912077145891
 30
0.0
  0
POINT
  5
34D
  8
DEFPOINTS
  6
CONTINUOUS
 62
     0
 10
-19.176432291666629
 20
4216.4912077145891
 30
0.0
  0
POINT
  5
34E
  8
DEFPOINTS
  6
CONTINUOUS
 62
     0
 10
-19.176432291666622
 20
4400.7027777777757
 30
0.0
  0
ENDBLK
  5
4A
  8
0
  0
BLOCK
  8
0
  2
*D4
 70
     1
 10
0.0
 20
0.0
 30
0.0
  3
*D4
  1

  0
LINE
  5
34F
  8
BEMAŠUNG
  6
CONTINUOUS
 62
     0
 10
187.82356770833329
 20
3962.4518439163498
 30
0.0
 11
285.91584446436701
 21
3962.4518439163498
 31
0.0
  0
LINE
  5
350
  8
BEMAŠUNG
  6
CONTINUOUS
 62
     0
 10
199.8235677083334
 20
4266.4518439163503
 30
0.0
 11
285.91584446436713
 21
4266.4518439163503
 31
0.0
  0
LINE
  5
351
  8
BEMAŠUNG
  6
CONTINUOUS
 62
     0
 10
265.91584446436713
 20
3976.5905157913498
 30
0.0
 11
265.91584446436713
 21
4252.3131720413503
 31
0.0
  0
INSERT
  5
352
  8
BEMAŠUNG
  6
CONTINUOUS
 62
     0
  2
VW_SLASH
 10
265.91584446436701
 20
3962.4518439163498
 30
0.0
 41
14.138671875
 42
14.138671875
 43
14.138671875
 50
270.0
  0
INSERT
  5
353
  8
BEMAŠUNG
  6
CONTINUOUS
 62
     0
  2
VW_SLASH
 10
265.91584446436713
 20
4266.4518439163503
 30
0.0
 41
14.138671875
 42
14.138671875
 43
14.138671875
 50
90.0
  0
TEXT
  8
BEMAŠUNG
  40
35.3696
  5
3A4
  62
0
  72
0
  71
0
 10
174.606
 20
4051.85
 30
0.000000
  1
304
  7
ARIAL
  0
POINT
  5
355
  8
DEFPOINTS
  6
CONTINUOUS
 62
     0
 10
157.82356770833329
 20
3962.4518439163498
 30
0.0
  0
POINT
  5
356
  8
DEFPOINTS
  6
CONTINUOUS
 62
     0
 10
169.8235677083334
 20
4266.4518439163503
 30
0.0
  0
POINT
  5
357
  8
DEFPOINTS
  6
CONTINUOUS
 62
     0
 10
265.91584446436713
 20
4266.4518439163503
 30
0.0
  0
ENDBLK
  5
4D
  8
0
  0
BLOCK
  8
0
  2
*D5
 70
     1
 10
0.0
 20
0.0
 30
0.0
  3
*D5
  1

  0
LINE
  5
358
  8
BEMAŠUNG
  6
CONTINUOUS
 62
     0
 10
168.65710578910961
 20
3950.4518439163512
 30
0.0
 11
342.91584446436701
 21
3950.4518439163512
 31
0.0
  0
LINE
  5
359
  8
BEMAŠUNG
  6
CONTINUOUS
 62
     0
 10
199.8235677083334
 20
4278.4518439163503
 30
0.0
 11
342.91584446436713
 21
4278.4518439163503
 31
0.0
  0
LINE
  5
35A
  8
BEMAŠUNG
  6
CONTINUOUS
 62
     0
 10
322.91584446436701
 20
3964.5905157913498
 30
0.0
 11
322.91584446436713
 21
4264.3131720413503
 31
0.0
  0
INSERT
  5
35B
  8
BEMAŠUNG
  6
CONTINUOUS
 62
     0
  2
VW_SLASH
 10
322.91584446436701
 20
3950.4518439163512
 30
0.0
 41
14.138671875
 42
14.138671875
 43
14.138671875
 50
270.0
  0
INSERT
  5
35C
  8
BEMAŠUNG
  6
CONTINUOUS
 62
     0
  2
VW_SLASH
 10
322.91584446436713
 20
4278.4518439163503
 30
0.0
 41
14.138671875
 42
14.138671875
 43
14.138671875
 50
90.0
  0
TEXT
  8
BEMAŠUNG
  40
35.3696
  5
3A5
  62
0
  72
0
  71
0
 10
231.606
 20
4051.85
 30
0.000000
  1
328
  7
ARIAL
  0
POINT
  5
35E
  8
DEFPOINTS
  6
CONTINUOUS
 62
     0
 10
138.65710578910961
 20
3950.4518439163512
 30
0.0
  0
POINT
  5
35F
  8
DEFPOINTS
  6
CONTINUOUS
 62
     0
 10
169.8235677083334
 20
4278.4518439163503
 30
0.0
  0
POINT
  5
360
  8
DEFPOINTS
  6
CONTINUOUS
 62
     0
 10
322.91584446436713
 20
4278.4518439163503
 30
0.0
  0
ENDBLK
  5
50
  8
0
  0
BLOCK
  8
0
  2
*D6
 70
     1
 10
0.0
 20
0.0
 30
0.0
  3
*D6
  1

  0
LINE
  5
361
  8
BEMAŠUNG
  6
CONTINUOUS
 62
     0
 10
129.65631440047781
 20
4088.6717645569652
 30
0.0
 11
142.43000649571471
 21
4082.6108378419322
 31
0.0
  0
LINE
  5
362
  8
BEMAŠUNG
  6
CONTINUOUS
 62
     0
 10
20.99082101618842
 20
4140.2319232757336
 30
0.0
 11
-19.13696111671652
 21
4159.2719584457564
 31
0.0
  0
LINE
  5
363
  8
BEMAŠUNG
  6
CONTINUOUS
 62
     0
 10
-19.13696111671652
 20
4159.2719584457564
 30
0.0
 11
-110.4229781193944
 21
4159.2719584457564
 31
0.0
  0
LINE
  5
364
  8
BEMAŠUNG
  6
CONTINUOUS
 62
     0
 10
116.882622305241
 20
4094.7326912719982
 30
0.0
 11
33.764513111425231
 21
4134.1709965606997
 31
0.0
  0
INSERT
  5
365
  8
BEMAŠUNG
  6
CONTINUOUS
 62
     0
  2
VW_EMPTYARROW
 10
116.882622305241
 20
4094.7326912719982
 30
0.0
 41
14.138671875
 42
14.138671875
 43
14.138671875
 50
154.61635682256511
  0
INSERT
  5
366
  8
BEMAŠUNG
  6
CONTINUOUS
 62
     0
  2
VW_EMPTYARROW
 10
33.764513111425231
 20
4134.1709965606997
 30
0.0
 41
14.138671875
 42
14.138671875
 43
14.138671875
 50
334.61635682256519
  0
TEXT
  8
BEMAŠUNG
  40
35.3696
  5
3A6
  62
0
  72
0
  71
0
 10
-136.769
 20
4118.22
 30
0.000000
  1
?92
  7
ARIAL
  0
POINT
  5
368
  8
DEFPOINTS
  6
CONTINUOUS
 62
     0
 10
33.764513111425231
 20
4134.1709965606997
 30
0.0
  0
POINT
  5
369
  8
DEFPOINTS
  6
CONTINUOUS
 62
     0
 10
116.882622305241
 20
4094.7326912719982
 30
0.0
  0
ENDBLK
  5
53
  8
0
  0
BLOCK
  8
0
  2
*D7
 70
     1
 10
0.0
 20
0.0
 30
0.0
  3
*D7
  1

  0
LINE
  5
36A
  8
BEMAŠUNG
  6
CONTINUOUS
 62
     0
 10
105.3235677083333
 20
4114.4518439163503
 30
0.0
 11
111.61916915059361
 21
4114.4518439163503
 31
0.0
  0
LINE
  5
36B
  8
BEMAŠUNG
  6
CONTINUOUS
 62
     0
 10
105.3235677083335
 20
4266.4518439163503
 30
0.0
 11
111.61916915059361
 21
4266.4518439163503
 31
0.0
  0
LINE
  5
36C
  8
BEMAŠUNG
  6
CONTINUOUS
 62
     0
 10
91.619169150593592
 20
4128.5905157913503
 30
0.0
 11
91.619169150593592
 21
4175.960906293978
 31
0.0
  0
LINE
  5
36D
  8
BEMAŠUNG
  6
CONTINUOUS
 62
     0
 10
91.619169150593606
 20
4252.3131720413503
 30
0.0
 11
91.619169150593606
 21
4204.9427815387216
 31
0.0
  0
TEXT
  8
BEMAŠUNG
  40
35.3696
  5
3A7
  62
0
  72
0
  71
0
 10
23.3799
 20
4127.85
 30
0.000000
  1
x
  7
ARIAL
  0
INSERT
  5
36F
  8
BEMAŠUNG
  6
CONTINUOUS
 62
     0
  2
VW_SLASH
 10
91.619169150593564
 20
4114.4518439163503
 30
0.0
 41
14.138671875
 42
14.138671875
 43
14.138671875
 50
270.0
  0
INSERT
  5
370
  8
BEMAŠUNG
  6
CONTINUOUS
 62
     0
  2
VW_SLASH
 10
91.619169150593635
 20
4266.4518439163503
 30
0.0
 41
14.138671875
 42
14.138671875
 43
14.138671875
 50
90.0
  0
POINT
  5
371
  8
DEFPOINTS
  6
CONTINUOUS
 62
     0
 10
75.323567708333371
 20
4114.4518439163503
 30
0.0
  0
POINT
  5
372
  8
DEFPOINTS
  6
CONTINUOUS
 62
     0
 10
75.323567708333485
 20
4266.4518439163503
 30
0.0
  0
POINT
  5
373
  8
DEFPOINTS
  6
CONTINUOUS
 62
     0
 10
91.619169150593635
 20
4266.4518439163503
 30
0.0
  0
ENDBLK
  5
56
  8
0
  0
BLOCK
  8
0
  2
*D8
 70
     1
 10
0.0
 20
0.0
 30
0.0
  3
*D8
  1

  0
LINE
  5
374
  8
BEMAŠUNG
  6
CONTINUOUS
 62
     0
 10
102.8235677083335
 20
3962.4518439163498
 30
0.0
 11
111.61916915059361
 21
3962.4518439163498
 31
0.0
  0
LINE
  5
375
  8
BEMAŠUNG
  6
CONTINUOUS
 62
     0
 10
105.3235677083333
 20
4114.4518439163503
 30
0.0
 11
111.61916915059361
 21
4114.4518439163503
 31
0.0
  0
LINE
  5
376
  8
BEMAŠUNG
  6
CONTINUOUS
 62
     0
 10
91.619169150593592
 20
3976.5905157913498
 30
0.0
 11
91.619169150593635
 21
4100.3131720413503
 31
0.0
  0
INSERT
  5
377
  8
BEMAŠUNG
  6
CONTINUOUS
 62
     0
  2
VW_SLASH
 10
91.619169150593592
 20
3962.4518439163498
 30
0.0
 41
14.138671875
 42
14.138671875
 43
14.138671875
 50
270.0
  0
INSERT
  5
378
  8
BEMAŠUNG
  6
CONTINUOUS
 62
     0
  2
VW_SLASH
 10
91.619169150593635
 20
4114.4518439163503
 30
0.0
 41
14.138671875
 42
14.138671875
 43
14.138671875
 50
90.0
  0
TEXT
  8
BEMAŠUNG
  40
35.3696
  5
3A8
  62
0
  72
0
  71
0
 10
0.695052
 20
3975.85
 30
0.000000
  1
x
  7
ARIAL
  0
POINT
  5
37A
  8
DEFPOINTS
  6
CONTINUOUS
 62
     0
 10
72.823567708333485
 20
3962.4518439163498
 30
0.0
  0
POINT
  5
37B
  8
DEFPOINTS
  6
CONTINUOUS
 62
     0
 10
75.323567708333371
 20
4114.4518439163503
 30
0.0
  0
POINT
  5
37C
  8
DEFPOINTS
  6
CONTINUOUS
 62
     0
 10
91.619169150593635
 20
4114.4518439163503
 30
0.0
  0
ENDBLK
  5
59
  8
0
  0
BLOCK
  8
0
  2
*D9
 70
     1
 10
0.0
 20
0.0
 30
0.0
  3
*D9
  1

  0
LINE
  5
37D
  8
BEMAŠUNG
  6
CONTINUOUS
 62
     0
 10
199.8235677083334
 20
3662.286338615254
 30
0.0
 11
270.68180933623921
 21
3662.286338615254
 31
0.0
  0
LINE
  5
37E
  8
BEMAŠUNG
  6
CONTINUOUS
 62
     0
 10
199.8235677083334
 20
3793.286338615253
 30
0.0
 11
270.68180933623921
 21
3793.286338615253
 31
0.0
  0
LINE
  5
37F
  8
BEMAŠUNG
  6
CONTINUOUS
 62
     0
 10
250.68180933623921
 20
3676.425010490254
 30
0.0
 11
250.68180933623921
 21
3779.147666740254
 31
0.0
  0
INSERT
  5
380
  8
BEMAŠUNG
  6
CONTINUOUS
 62
     0
  2
VW_SLASH
 10
250.68180933623921
 20
3662.286338615254
 30
0.0
 41
14.138671875
 42
14.138671875
 43
14.138671875
 50
270.0
  0
INSERT
  5
381
  8
BEMAŠUNG
  6
CONTINUOUS
 62
     0
  2
VW_SLASH
 10
250.68180933623921
 20
3793.286338615253
 30
0.0
 41
14.138671875
 42
14.138671875
 43
14.138671875
 50
90.0
  0
TEXT
  8
BEMAŠUNG
  40
35.3696
  5
3A9
  62
0
  72
0
  71
0
 10
159.372
 20
3665.18
 30
0.000000
  1
131
  7
ARIAL
  0
POINT
  5
383
  8
DEFPOINTS
  6
CONTINUOUS
 62
     0
 10
169.8235677083334
 20
3662.286338615254
 30
0.0
  0
POINT
  5
384
  8
DEFPOINTS
  6
CONTINUOUS
 62
     0
 10
169.8235677083334
 20
3793.286338615253
 30
0.0
  0
POINT
  5
385
  8
DEFPOINTS
  6
CONTINUOUS
 62
     0
 10
250.68180933623921
 20
3793.286338615253
 30
0.0
  0
ENDBLK
  5
5C
  8
0
  0
BLOCK
  8
0
  2
*D10
 70
     1
 10
0.0
 20
0.0
 30
0.0
  3
*D10
  1

  0
LINE
  5
386
  8
BEMAŠUNG
  6
CONTINUOUS
 62
     0
 10
157.67123471130421
 20
3676.8496358397229
 30
0.0
 11
161.99878419114731
 21
3676.8496358397229
 31
0.0
  0
LINE
  5
387
  8
BEMAŠUNG
  6
CONTINUOUS
 62
     0
 10
153.76895661025671
 20
3793.286338615253
 30
0.0
 11
161.99878419114739
 21
3793.286338615253
 31
0.0
  0
LINE
  5
388
  8
BEMAŠUNG
  6
CONTINUOUS
 62
     0
 10
141.99878419114731
 20
3662.7109639647229
 30
0.0
 11
141.99878419114731
 21
3648.5722920897229
 31
0.0
  0
LINE
  5
389
  8
BEMAŠUNG
  6
CONTINUOUS
 62
     0
 10
141.99878419114739
 20
3807.425010490254
 30
0.0
 11
141.99878419114739
 21
3821.563682365254
 31
0.0
  0
TEXT
  8
BEMAŠUNG
  40
35.3696
  5
3AA
  62
0
  72
0
  71
0
 10
64.5313
 20
3672.46
 30
0.000000
  1
116
  7
ARIAL
  0
LINE
  5
38B
  8
BEMAŠUNG
  6
CONTINUOUS
 62
     0
 10
141.99878419114731
 20
3676.8496358397229
 30
0.0
 11
141.99878419114739
 21
3793.286338615253
 31
0.0
  0
INSERT
  5
38C
  8
BEMAŠUNG
  6
CONTINUOUS
 62
     0
  2
VW_SLASH
 10
141.99878419114731
 20
3676.8496358397229
 30
0.0
 41
14.138671875
 42
14.138671875
 43
14.138671875
 50
90.0
  0
INSERT
  5
38D
  8
BEMAŠUNG
  6
CONTINUOUS
 62
     0
  2
VW_SLASH
 10
141.99878419114739
 20
3793.286338615253
 30
0.0
 41
14.138671875
 42
14.138671875
 43
14.138671875
 50
270.0
  0
POINT
  5
38E
  8
DEFPOINTS
  6
CONTINUOUS
 62
     0
 10
127.67123471130419
 20
3676.8496358397229
 30
0.0
  0
POINT
  5
38F
  8
DEFPOINTS
  6
CONTINUOUS
 62
     0
 10
123.76895661025669
 20
3793.286338615253
 30
0.0
  0
POINT
  5
390
  8
DEFPOINTS
  6
CONTINUOUS
 62
     0
 10
141.99878419114739
 20
3793.286338615253
 30
0.0
  0
ENDBLK
  5
5F
  8
0
  0
BLOCK
  8
0
  2
*D11
 70
     1
 10
0.0
 20
0.0
 30
0.0
  3
*D11
  1

  0
LINE
  5
391
  8
BEMAŠUNG
  6
CONTINUOUS
 62
     0
 10
6.2801810753537657
 20
3975.8630517828219
 30
0.0
 11
-7.1218819697980962
 21
3962.4518439163498
 31
0.0
  0
LINE
  5
392
  8
BEMAŠUNG
  6
CONTINUOUS
 62
     0
 10
-7.1218819697980962
 20
3962.4518439163498
 30
0.0
 11
-94.016851392452494
 21
3962.4518439163498
 31
0.0
  0
INSERT
  5
393
  8
BEMAŠUNG
  6
CONTINUOUS
 62
     0
  2
VW_EMPTYARROW
 10
16.274321531300981
 20
3985.8640116835368
 30
0.0
 41
14.138671875
 42
14.138671875
 43
14.138671875
 50
45.019541056645849
  0
TEXT
  8
BEMAŠUNG
  40
35.3696
  5
3AB
  62
0
  72
0
  71
0
 10
-122.559
 20
3920.41
 30
0.000000
  1
R80
  7
ARIAL
  0
POINT
  5
395
  8
DEFPOINTS
  6
CONTINUOUS
 62
     0
 10
16.274321531300981
 20
3985.8640116835368
 30
0.0
  0
POINT
  5
396
  8
DEFPOINTS
  6
CONTINUOUS
 62
     0
 10
72.82356770833394
 20
4042.4518439163412
 30
0.0
  0
ENDBLK
  5
62
  8
0
  0
BLOCK
  8
0
  2
VW_SLASH
 70
     0
 10
0.0
 20
0.0
 30
0.0
  3
VW_SLASH
  1

  0
LINE
  5
9E
  8
0
  6
BYBLOCK
 62
     0
 10
0.0
 20
0.0
 30
0.0
 11
-1.0
 21
0.0
 31
0.0
  0
POLYLINE
  5
9F
  8
10_ZEICHNUNG-WERKZEICHNUNG
 62
     0
 66
     1
 10
0.0
 20
0.0
 30
0.0
 70
   128
  0
VERTEX
  5
A0
  8
10_ZEICHNUNG-WERKZEICHNUNG
 62
     0
 10
0.4987813153181721
 20
0.4987813153181719
 30
0.0
  0
VERTEX
  5
A1
  8
10_ZEICHNUNG-WERKZEICHNUNG
 62
     0
 10
-0.4987813153181719
 20
-0.4987813153181721
 30
0.0
  0
SEQEND
  5
A2
  8
10_ZEICHNUNG-WERKZEICHNUNG
 62
     0
  0
ENDBLK
  5
9D
  8
0
  0
BLOCK
  8
0
  2
VW_EMPTYARROW
 70
     0
 10
0.0
 20
0.0
 30
0.0
  3
VW_EMPTYARROW
  1

  0
LINE
  5
A6
  8
0
  6
BYBLOCK
 62
     0
 10
0.0
 20
0.0
 30
0.0
 11
-1.0
 21
0.0
 31
0.0
  0
POLYLINE
  5
A7
  8
10_ZEICHNUNG-WERKZEICHNUNG
 62
     0
 66
     1
 10
0.0
 20
0.0
 30
0.0
 70
   128
  0
VERTEX
  5
A8
  8
10_ZEICHNUNG-WERKZEICHNUNG
 62
     0
 10
-0.6976318359375
 20
0.1869298870536946
 30
0.0
  0
VERTEX
  5
A9
  8
10_ZEICHNUNG-WERKZEICHNUNG
 62
     0
 10
0.0
 20
0.0
 30
0.0
  0
VERTEX
  5
AA
  8
10_ZEICHNUNG-WERKZEICHNUNG
 62
     0
 10
-0.6976318359375
 20
-0.1869298870536948
 30
0.0
  0
SEQEND
  5
AB
  8
10_ZEICHNUNG-WERKZEICHNUNG
 62
     0
  0
ENDBLK
  5
A5
  8
0
  0
BLOCK
  8
0
  2
*U14
 70
     1
 10
0.0
 20
0.0
 30
0.0
  3
*U14
  1

  0
TEXT
  5
300
  8
BEMAŠUNG
 62
     0
 10
32.402283945353922
 20
4342.42392322244
 30
0.0
 40
35.36964699074074
  1
165
  7
ARIAL
  0
ENDBLK
  5
302
  8
0
  0
BLOCK
  8
0
  2
*U15
 70
     1
 10
0.0
 20
0.0
 30
0.0
  3
*U15
  1

  0
TEXT
  5
304
  8
BEMAŠUNG
 62
     0
 10
32.49879048557429
 20
4385.8195372205937
 30
0.0
 40
35.36964699074074
  1
189
  7
ARIAL
  0
ENDBLK
  5
306
  8
0
  0
BLOCK
  8
0
  2
*U16
 70
     1
 10
0.0
 20
0.0
 30
0.0
  3
*U16
  1

  0
TEXT
  5
308
  8
BEMAŠUNG
 62
     0
 10
262.73081691524811
 20
4073.3883110526108
 30
0.0
 40
35.36964699074074
  1
304
 50
90.0
  7
ARIAL
  0
ENDBLK
  5
30A
  8
0
  0
BLOCK
  8
0
  2
*U17
 70
     1
 10
0.0
 20
0.0
 30
0.0
  3
*U17
  1

  0
TEXT
  5
30C
  8
BEMAŠUNG
 62
     0
 10
319.730816915248
 20
4073.2797411948641
 30
0.0
 40
35.36964699074074
  1
328
 50
90.0
  7
ARIAL
  0
ENDBLK
  5
30E
  8
0
  0
BLOCK
  8
0
  2
*U18
 70
     1
 10
0.0
 20
0.0
 30
0.0
  3
*U18
  1

  0
TEXT
  5
310
  8
BEMAŠUNG
 62
     0
 10
-110.4229781193947
 20
4163.8277407655278
 30
0.0
 40
35.36964699074074
  1
\U+2205
  7
ARIAL
  0
TEXT
  5
311
  8
BEMAŠUNG
 62
     0
 10
-71.989248476659384
 20
4163.8277407655278
 30
0.0
 40
35.36964699074074
  1
92
  7
ARIAL
  0
ENDBLK
  5
313
  8
0
  0
BLOCK
  8
0
  2
*U19
 70
     1
 10
0.0
 20
0.0
 30
0.0
  3
*U19
  1

  0
TEXT
  5
315
  8
BEMAŠUNG
 62
     0
 10
111.803992645964
 20
4178.0990067681523
 30
0.0
 40
35.36964699074074
  1
x
 50
90.0
  7
ARIAL
  0
ENDBLK
  5
317
  8
0
  0
BLOCK
  8
0
  2
*U20
 70
     1
 10
0.0
 20
0.0
 30
0.0
  3
*U20
  1

  0
TEXT
  5
319
  8
BEMAŠUNG
 62
     0
 10
89.119169150593564
 20
4026.099006768151
 30
0.0
 40
35.36964699074074
  1
x
 50
90.0
  7
ARIAL
  0
ENDBLK
  5
31B
  8
0
  0
BLOCK
  8
0
  2
*U21
 70
     1
 10
0.0
 20
0.0
 30
0.0
  3
*U21
  1

  0
TEXT
  5
31D
  8
BEMAŠUNG
 62
     0
 10
247.4967817871202
 20
3688.4116702053711
 30
0.0
 40
35.36964699074074
  1
131
 50
90.0
  7
ARIAL
  0
ENDBLK
  5
31F
  8
0
  0
BLOCK
  8
0
  2
*U22
 70
     1
 10
0.0
 20
0.0
 30
0.0
  3
*U22
  1

  0
TEXT
  5
321
  8
BEMAŠUNG
 62
     0
 10
152.653786523051
 20
3692.2914632748389
 30
0.0
 40
35.36964699074074
  1
116
 50
90.0
  7
ARIAL
  0
ENDBLK
  5
323
  8
0
  0
BLOCK
  8
0
  2
*U23
 70
     1
 10
0.0
 20
0.0
 30
0.0
  3
*U23
  1

  0
TEXT
  5
325
  8
BEMAŠUNG
 62
     0
 10
-97.901239636319644
 20
3965.6248081479421
 30
0.0
 40
35.36964699074074
  1
R80
  7
ARIAL
  0
ENDBLK
  5
327
  8
0
  0
ENDSEC
  0
SECTION
  2
ENTITIES
  0
POLYLINE
  5
1D4
  8
10_ZEICHNUNG-WERKZEICHNUNG
  6
CONTINUOUS
 62
     7
 66
     1
 10
0.0
 20
0.0
 30
0.0
 70
     1
  0
VERTEX
  5
328
  8
10_ZEICHNUNG-WERKZEICHNUNG
  6
CONTINUOUS
 62
     7
 10
72.823567708333485
 20
4266.4518439163503
 30
0.0
  0
VERTEX
  5
329
  8
10_ZEICHNUNG-WERKZEICHNUNG
  6
CONTINUOUS
 62
     7
 10
77.823567708333485
 20
4266.4518439163503
 30
0.0
 42
-0.4142135623730951
  0
VERTEX
  5
32A
  8
10_ZEICHNUNG-WERKZEICHNUNG
  6
CONTINUOUS
 62
     7
 10
157.82356770833351
 20
4186.4518439163503
 30
0.0
  0
VERTEX
  5
32B
  8
10_ZEICHNUNG-WERKZEICHNUNG
  6
CONTINUOUS
 62
     7
 10
157.8235677083334
 20
4042.4518439163498
 30
0.0
 42
-0.4142135623730971
  0
VERTEX
  5
32C
  8
10_ZEICHNUNG-WERKZEICHNUNG
  6
CONTINUOUS
 62
     7
 10
77.823567708332803
 20
3962.4518439163498
 30
0.0
  0
VERTEX
  5
32D
  8
10_ZEICHNUNG-WERKZEICHNUNG
  6
CONTINUOUS
 62
     7
 10
72.823567708333485
 20
3962.4518439163498
 30
0.0
 42
-0.4142135623731062
  0
VERTEX
  5
32E
  8
10_ZEICHNUNG-WERKZEICHNUNG
  6
CONTINUOUS
 62
     7
 10
-7.1764322916609267
 20
4042.4518439163412
 30
0.0
  0
VERTEX
  5
32F
  8
10_ZEICHNUNG-WERKZEICHNUNG
  6
CONTINUOUS
 62
     7
 10
-7.1764322916666288
 20
4186.4518439163503
 30
0.0
 42
-0.4142135623730955
  0
VERTEX
  5
330
  8
10_ZEICHNUNG-WERKZEICHNUNG
  6
CONTINUOUS
 62
     7
 10
72.823567708333485
 20
4266.4518439163503
 30
0.0
  0
SEQEND
  5
331
  8
10_ZEICHNUNG-WERKZEICHNUNG
  6
CONTINUOUS
 62
     7
  0
POLYLINE
  5
1D5
  8
10_ZEICHNUNG-WERKZEICHNUNG
  6
CONTINUOUS
 62
     7
 66
     1
 10
0.0
 20
0.0
 30
0.0
 70
     1
  0
VERTEX
  5
332
  8
10_ZEICHNUNG-WERKZEICHNUNG
  6
CONTINUOUS
 62
     7
 10
72.823567708333371
 20
4278.4518439163503
 30
0.0
  0
VERTEX
  5
333
  8
10_ZEICHNUNG-WERKZEICHNUNG
  6
CONTINUOUS
 62
     7
 10
77.823567708333371
 20
4278.4518439163503
 30
0.0
 42
-0.4142135623730951
  0
VERTEX
  5
334
  8
10_ZEICHNUNG-WERKZEICHNUNG
  6
CONTINUOUS
 62
     7
 10
169.8235677083334
 20
4186.4518439163503
 30
0.0
  0
VERTEX
  5
335
  8
10_ZEICHNUNG-WERKZEICHNUNG
  6
CONTINUOUS
 62
     7
 10
169.8235677083334
 20
4042.4518439163498
 30
0.0
 42
-0.4142135623730936
  0
VERTEX
  5
336
  8
10_ZEICHNUNG-WERKZEICHNUNG
  6
CONTINUOUS
 62
     7
 10
77.823567708333826
 20
3950.4518439163512
 30
0.0
  0
VERTEX
  5
337
  8
10_ZEICHNUNG-WERKZEICHNUNG
  6
CONTINUOUS
 62
     7
 10
72.823567708333371
 20
3950.4518439163512
 30
0.0
 42
-0.4142135623730951
  0
VERTEX
  5
338
  8
10_ZEICHNUNG-WERKZEICHNUNG
  6
CONTINUOUS
 62
     7
 10
-19.176432291666629
 20
4042.4518439163498
 30
0.0
  0
VERTEX
  5
339
  8
10_ZEICHNUNG-WERKZEICHNUNG
  6
CONTINUOUS
 62
     7
 10
-19.176432291666629
 20
4186.4518439163503
 30
0.0
 42
-0.4142135623730951
  0
VERTEX
  5
33A
  8
10_ZEICHNUNG-WERKZEICHNUNG
  6
CONTINUOUS
 62
     7
 10
72.823567708333371
 20
4278.4518439163503
 30
0.0
  0
SEQEND
  5
33B
  8
10_ZEICHNUNG-WERKZEICHNUNG
  6
CONTINUOUS
 62
     7
  0
CIRCLE
  5
1D6
  8
10_ZEICHNUNG-WERKZEICHNUNG
  6
CONTINUOUS
 62
     7
 10
75.323567708333371
 20
4114.4518439163503
 30
0.0
 40
56.0
  0
CIRCLE
  5
1D7
  8
10_ZEICHNUNG-WERKZEICHNUNG
  6
CONTINUOUS
 62
     7
 10
75.323567708333371
 20
4114.4518439163503
 30
0.0
 40
46.0
  0
ARC
  5
1EF
  8
10_ZEICHNUNG-WERKZEICHNUNG
  6
CONTINUOUS
 62
     7
 10
-89.176432291666416
 20
12985.13452518255
 30
0.0
 40
9314.6185618791405
 50
271.5933577626023
 51
271.59338664009442
  0
INSERT
  5
1F1
  8
10_ZEICHNUNG-WERKZEICHNUNG
 62
     7
  2
GRUPPE-1
 10
0.0
 20
0.0
 30
0.0
  0
CIRCLE
  5
200
  8
10_ZEICHNUNG-WERKZEICHNUNG
  6
CONTINUOUS
 62
     7
 10
75.323567708333371
 20
3763.286338615254
 30
0.0
 40
18.0
  0
CIRCLE
  5
201
  8
10_ZEICHNUNG-WERKZEICHNUNG
  6
CONTINUOUS
 62
     7
 10
75.323567708333371
 20
3763.286338615254
 30
0.0
 40
16.0
  0
INSERT
  5
207
  8
10_ZEICHNUNG-WERKZEICHNUNG
 62
     7
  2
GRUPPE-2-1
 10
0.0
 20
0.0
 30
0.0
  0
DIMENSION
  5
20C
  8
BEMAŠUNG
  6
CONTINUOUS
 62
     7
  2
*D2
 10
-7.1764322916668508
 20
4339.2509589908514
 30
0.0
 11
75.323567708333272
 21
4359.8097453295741
 31
0.0
 70
     0
 13
157.8235677083334
 23
4247.0500740653488
 33
0.0
 14
-7.176432291666857
 24
4247.0500740653488
 34
0.0
1001
ACAD
1000
DSTYLE
1002
{
1070
   287
1070
     5
1070
   147
1040
2.5
1070
   340
1005
64
1070
   279
1070
     2
1002
}
  0
DIMENSION
  5
20D
  8
BEMAŠUNG
  6
CONTINUOUS
 62
     7
  2
*D3
 10
-19.176432291666622
 20
4400.7027777777757
 30
0.0
 11
75.323567708333371
 21
4403.2027777777766
 31
0.0
 70
   128
 13
169.8235677083334
 23
4216.4912077145891
 33
0.0
 14
-19.176432291666629
 24
4216.4912077145891
 34
0.0
1001
ACAD
1000
DSTYLE
1002
{
1070
   287
1070
     5
1070
   147
1040
2.5
1070
   340
1005
64
1070
   279
1070
     2
1002
}
  0
DIMENSION
  5
20E
  8
BEMAŠUNG
  6
CONTINUOUS
 62
     7
  2
*D4
 10
265.91584446436713
 20
4266.4518439163503
 30
0.0
 11
245.34499480811479
 21
4114.4518439163503
 31
0.0
 70
     0
 13
157.82356770833329
 23
3962.4518439163498
 33
0.0
 14
169.8235677083334
 24
4266.4518439163503
 34
0.0
 50
-90.0
1001
ACAD
1000
DSTYLE
1002
{
1070
   287
1070
     5
1070
   147
1040
2.5
1070
   340
1005
64
1070
   279
1070
     2
1002
}
  0
DIMENSION
  5
20F
  8
BEMAŠUNG
  6
CONTINUOUS
 62
     7
  2
*D5
 10
322.91584446436713
 20
4278.4518439163503
 30
0.0
 11
302.34499480811479
 21
4114.4518439163503
 31
0.0
 70
     0
 13
138.65710578910961
 23
3950.4518439163512
 33
0.0
 14
169.8235677083334
 24
4278.4518439163503
 34
0.0
 50
-90.0
1001
ACAD
1000
DSTYLE
1002
{
1070
   287
1070
     5
1070
   147
1040
2.5
1070
   340
1005
64
1070
   279
1070
     2
1002
}
  0
DIMENSION
  5
210
  8
BEMAŠUNG
  6
CONTINUOUS
 62
     7
  2
*D6
 10
116.882622305241
 20
4094.7326912719982
 30
0.0
 11
-66.029969618055929
 21
4159.2719584457564
 31
0.0
 70
   131
 15
33.764513111425231
 25
4134.1709965606997
 35
0.0
 40
0.0
1001
ACAD
1000
DSTYLE
1002
{
1070
   147
1040
2.5
1070
   174
1070
     0
1070
     3
1000

1070
    76
1070
     1
1070
    75
1070
     1
1070
    74
1070
     1
1070
    73
1070
     1
1070
   340
1005
64
1070
     5
1000
VW_EMPTYARROW
1070
   289
1070
     0
1002
}
  0
DIMENSION
  5
212
  8
BEMAŠUNG
  6
CONTINUOUS
 62
     7
  2
*D7
 10
91.619169150593635
 20
4266.4518439163503
 30
0.0
 11
94.119169150593635
 21
4190.4518439163503
 31
0.0
 70
   128
  1
x
 13
75.323567708333371
 23
4114.4518439163503
 33
0.0
 14
75.323567708333485
 24
4266.4518439163503
 34
0.0
 50
-90.0
1001
ACAD
1000
DSTYLE
1002
{
1070
   287
1070
     5
1070
   147
1040
2.5
1070
   340
1005
64
1070
   279
1070
     2
1002
}
  0
DIMENSION
  5
213
  8
BEMAŠUNG
  6
CONTINUOUS
 62
     7
  2
*D8
 10
91.619169150593635
 20
4114.4518439163503
 30
0.0
 11
71.434345655222586
 21
4038.4518439163512
 31
0.0
 70
     0
  1
x
 13
72.823567708333485
 23
3962.4518439163498
 33
0.0
 14
75.323567708333371
 24
4114.4518439163503
 34
0.0
 50
-90.0
1001
ACAD
1000
DSTYLE
1002
{
1070
   287
1070
     5
1070
   147
1040
2.5
1070
   340
1005
64
1070
   279
1070
     2
1002
}
  0
DIMENSION
  5
214
  8
BEMAŠUNG
  6
CONTINUOUS
 62
     7
  2
*D9
 10
250.68180933623921
 20
3793.286338615253
 30
0.0
 11
230.11095967998699
 21
3727.786338615254
 31
0.0
 70
     0
 13
169.8235677083334
 23
3662.286338615254
 33
0.0
 14
169.8235677083334
 24
3793.286338615253
 34
0.0
 50
-90.0
1001
ACAD
1000
DSTYLE
1002
{
1070
   287
1070
     5
1070
   147
1040
2.5
1070
   340
1005
64
1070
   279
1070
     2
1002
}
  0
DIMENSION
  5
215
  8
BEMAŠUNG
  6
CONTINUOUS
 62
     7
  2
*D10
 10
141.99878419114739
 20
3793.286338615253
 30
0.0
 11
135.2705459658691
 21
3735.0679872274882
 31
0.0
 70
   128
  1
116
 13
127.67123471130419
 23
3676.8496358397229
 33
0.0
 14
123.76895661025669
 24
3793.286338615253
 34
0.0
 50
-90.0
1001
ACAD
1000
DSTYLE
1002
{
1070
   287
1070
     5
1070
   147
1040
6.7282382252782309
1070
   340
1005
64
1070
   279
1070
     2
1002
}
  0
DIMENSION
  5
216
  8
BEMAŠUNG
  6
CONTINUOUS
 62
     7
  2
*D11
 10
72.82356770833394
 20
4042.4518439163412
 30
0.0
 11
-51.81936668112553
 21
3962.4518439163512
 31
0.0
 70
   132
 15
16.274321531300981
 25
3985.8640116835368
 35
0.0
 40
0.0
1001
ACAD
1000
DSTYLE
1002
{
1070
   147
1040
2.5
1070
   174
1070
     0
1070
     3
1000

1070
    76
1070
     1
1070
    75
1070
     1
1070
    74
1070
     1
1070
    73
1070
     1
1070
   340
1005
64
1070
     5
1000
VW_EMPTYARROW
1070
   289
1070
     0
1070
   172
1070
     0
1002
}
  0
LINE
  5
249
  8
10_ZEICHNUNG-WERKZEICHNUNG
  6
CONTINUOUS
 62
     7
 10
-19.176432291666622
 20
3692.286338615253
 30
0.0
 11
-19.176432291666629
 21
3793.286338615253
 31
0.0
  0
LINE
  5
24A
  8
10_ZEICHNUNG-WERKZEICHNUNG
  6
CONTINUOUS
 62
     7
 10
-19.176432291666629
 20
3793.286338615253
 30
0.0
 11
-7.1764322916666288
 21
3793.286338615253
 31
0.0
  0
LINE
  5
24B
  8
10_ZEICHNUNG-WERKZEICHNUNG
  6
CONTINUOUS
 62
     7
 10
-7.1764322916666288
 20
3793.286338615253
 30
0.0
 11
-7.1764322916666288
 21
3685.9927555557911
 31
0.0
  0
LINE
  5
252
  8
10_ZEICHNUNG-WERKZEICHNUNG
  6
CONTINUOUS
 62
     7
 10
169.8235677083334
 20
3692.286338615254
 30
0.0
 11
169.8235677083334
 21
3793.286338615253
 31
0.0
  0
LINE
  5
253
  8
10_ZEICHNUNG-WERKZEICHNUNG
  6
CONTINUOUS
 62
     7
 10
169.8235677083334
 20
3793.286338615253
 30
0.0
 11
157.8235677083334
 21
3793.286338615253
 31
0.0
  0
LINE
  5
254
  8
10_ZEICHNUNG-WERKZEICHNUNG
  6
CONTINUOUS
 62
     7
 10
157.8235677083334
 20
3793.286338615253
 30
0.0
 11
157.8235677083334
 21
3685.9927555557911
 31
0.0
  0
LINE
  5
25A
  8
10_ZEICHNUNG-WERKZEICHNUNG
  6
CONTINUOUS
 62
     7
 10
-19.176432291666629
 20
3692.286338615253
 30
0.0
 11
-19.176432291666629
 21
3793.286338615253
 31
0.0
  0
LINE
  5
25B
  8
10_ZEICHNUNG-WERKZEICHNUNG
  6
CONTINUOUS
 62
     7
 10
-19.176432291666629
 20
3793.286338615253
 30
0.0
 11
169.8235677083334
 21
3793.286338615253
 31
0.0
  0
LINE
  5
25C
  8
10_ZEICHNUNG-WERKZEICHNUNG
  6
CONTINUOUS
 62
     7
 10
169.8235677083334
 20
3793.286338615253
 30
0.0
 11
169.8235677083334
 21
3692.286338615254
 31
0.0
  0
LINE
  5
289
  8
10_ZEICHNUNG-WERKZEICHNUNG
 10
127.17123471130429
 20
3671.5615191345369
 30
0.0
 11
127.67123471130429
 21
3672.0615191345369
 31
0.0
  0
LINE
  5
28A
  8
10_ZEICHNUNG-WERKZEICHNUNG
 10
22.975900705362509
 20
3672.0615191345369
 30
0.0
 11
23.475900705362498
 21
3671.5615191345369
 31
0.0
  0
LINE
  5
28B
  8
10_ZEICHNUNG-WERKZEICHNUNG
 10
127.67123471130429
 20
3676.8496358397229
 30
0.0
 11
127.67123471130429
 21
3672.0615191345369
 31
0.0
  0
LINE
  5
28C
  8
10_ZEICHNUNG-WERKZEICHNUNG
 10
22.975900705362509
 20
3676.8496358397229
 30
0.0
 11
22.975900705362509
 21
3672.0615191345369
 31
0.0
  0
LINE
  5
28D
  8
10_ZEICHNUNG-WERKZEICHNUNG
  6
CONTINUOUS
 62
     7
 10
169.8235677083334
 20
3692.286338615253
 30
0.0
 11
172.82356770833329
 21
3692.286338615253
 31
0.0
  0
LINE
  5
28E
  8
10_ZEICHNUNG-WERKZEICHNUNG
  6
CONTINUOUS
 62
     7
 10
172.8235677083334
 20
3662.286338615253
 30
0.0
 11
172.8235677083334
 21
3692.286338615253
 31
0.0
  0
ARC
  5
28F
  8
10_ZEICHNUNG-WERKZEICHNUNG
  6
CONTINUOUS
 62
     7
 10
148.2234269044516
 20
3688.286338615253
 30
0.0
 40
9.6001408038818763
 50
270.00000000000648
 51
314.9999999999954
  0
LINE
  5
290
  8
10_ZEICHNUNG-WERKZEICHNUNG
  6
CONTINUOUS
 62
     7
 10
156.63355970178239
 20
3683.1198220870428
 30
0.0
 11
155.01175156722289
 21
3681.4980139524828
 31
0.0
  0
ARC
  5
291
  8
10_ZEICHNUNG-WERKZEICHNUNG
  6
CONTINUOUS
 62
     7
 10
153.7606262330338
 20
3685.9927555557911
 30
0.0
 40
4.0629414752995103
 50
314.99999999999312
 51
0.0
  0
LINE
  5
292
  8
10_ZEICHNUNG-WERKZEICHNUNG
  6
CONTINUOUS
 62
     7
 10
-19.176432291666629
 20
3692.286338615253
 30
0.0
 11
-22.176432291666519
 21
3692.286338615253
 31
0.0
  0
LINE
  5
293
  8
10_ZEICHNUNG-WERKZEICHNUNG
  6
CONTINUOUS
 62
     7
 10
-22.176432291666629
 20
3662.286338615253
 30
0.0
 11
-22.176432291666629
 21
3692.286338615253
 31
0.0
  0
LINE
  5
294
  8
10_ZEICHNUNG-WERKZEICHNUNG
  6
CONTINUOUS
 62
     7
 10
121.3235677083333
 20
3656.2863386152521
 30
0.0
 11
121.3235677083333
 21
3671.561519134536
 31
0.0
  0
LINE
  5
295
  8
10_ZEICHNUNG-WERKZEICHNUNG
  6
CONTINUOUS
 62
     7
 10
146.32356770833329
 20
3656.2863386152521
 30
0.0
 11
121.3235677083333
 21
3656.2863386152521
 31
0.0
  0
LINE
  5
296
  8
10_ZEICHNUNG-WERKZEICHNUNG
  6
CONTINUOUS
 62
     7
 10
146.32356770833329
 20
3662.286338615253
 30
0.0
 11
146.32356770833329
 21
3656.286338615253
 31
0.0
  0
LINE
  5
297
  8
10_ZEICHNUNG-WERKZEICHNUNG
  6
CONTINUOUS
 62
     7
 10
121.3235677083333
 20
3662.286338615253
 30
0.0
 11
146.32356770833329
 21
3662.286338615253
 31
0.0
  0
LINE
  5
298
  8
10_ZEICHNUNG-WERKZEICHNUNG
  6
CONTINUOUS
 62
     7
 10
29.323567708333371
 20
3656.2863386152521
 30
0.0
 11
29.323567708333371
 21
3671.5615191345369
 31
0.0
  0
LINE
  5
299
  8
10_ZEICHNUNG-WERKZEICHNUNG
  6
CONTINUOUS
 62
     7
 10
4.3235677083333712
 20
3656.2863386152521
 30
0.0
 11
29.323567708333371
 21
3656.2863386152521
 31
0.0
  0
LINE
  5
29A
  8
10_ZEICHNUNG-WERKZEICHNUNG
  6
CONTINUOUS
 62
     7
 10
4.3235677083333712
 20
3662.286338615253
 30
0.0
 11
4.3235677083333712
 21
3656.2863386152512
 31
0.0
  0
LINE
  5
29B
  8
10_ZEICHNUNG-WERKZEICHNUNG
  6
CONTINUOUS
 62
     7
 10
29.323567708333371
 20
3662.286338615253
 30
0.0
 11
4.3235677083333712
 21
3662.286338615253
 31
0.0
  0
LINE
  5
29C
  8
10_ZEICHNUNG-WERKZEICHNUNG
  6
CONTINUOUS
 62
     7
 10
172.8235677083334
 20
3662.286338615253
 30
0.0
 11
121.3235677083334
 21
3662.286338615254
 31
0.0
  0
ARC
  5
29E
  8
10_ZEICHNUNG-WERKZEICHNUNG
  6
CONTINUOUS
 62
     7
 10
2.423708512215057
 20
3688.2863386152521
 30
0.0
 40
9.600140803881489
 50
225.0000000000046
 51
269.99999999999352
  0
LINE
  5
29F
  8
10_ZEICHNUNG-WERKZEICHNUNG
  6
CONTINUOUS
 62
     7
 10
-5.9864242851156169
 20
3683.1198220870428
 30
0.0
 11
-4.3646161505561158
 21
3681.4980139524828
 31
0.0
  0
ARC
  5
2A0
  8
10_ZEICHNUNG-WERKZEICHNUNG
  6
CONTINUOUS
 62
     7
 10
-3.1134908163672881
 20
3685.9927555557911
 30
0.0
 40
4.0629414752993434
 50
180.0
 51
225.00000000000691
  0
LINE
  5
2A1
  8
10_ZEICHNUNG-WERKZEICHNUNG
  6
CONTINUOUS
 62
     7
 10
-22.176432291666629
 20
3668.2863386152521
 30
0.0
 11
-22.176432291666629
 21
3678.2863386152521
 31
0.0
  0
LINE
  5
2A2
  8
10_ZEICHNUNG-WERKZEICHNUNG
  6
CONTINUOUS
 62
     7
 10
127.17123471130429
 20
3671.5615191345369
 30
0.0
 11
23.475900705362498
 21
3671.5615191345369
 31
0.0
  0
LINE
  5
2A3
  8
10_ZEICHNUNG-WERKZEICHNUNG
  6
CONTINUOUS
 62
     7
 10
22.975900705362509
 20
3676.8496358397229
 30
0.0
 11
127.67123471130429
 21
3676.8496358397229
 31
0.0
  0
LINE
  5
2A6
  8
10_ZEICHNUNG-WERKZEICHNUNG
  6
CONTINUOUS
 62
     7
 10
121.3235677083333
 20
3656.2863386152521
 30
0.0
 11
29.323567708333371
 21
3656.2863386152521
 31
0.0
  0
LINE
  5
2E6
  8
10_ZEICHNUNG-WERKZEICHNUNG
  6
CONTINUOUS
 62
     7
 10
29.323567708333378
 20
3662.286338615254
 30
0.0
 11
-22.176432291666629
 21
3662.286338615253
 31
0.0
  0
POLYLINE
  5
2EF
  8
10_ZEICHNUNG-WERKZEICHNUNG
  6
CONTINUOUS
 62
     7
 66
     1
 10
0.0
 20
0.0
 30
0.0
 70
     1
  0
VERTEX
  5
399
  8
10_ZEICHNUNG-WERKZEICHNUNG
  6
CONTINUOUS
 62
     7
 10
72.823567708333314
 20
4281.4518439163503
 30
0.0
  0
VERTEX
  5
39A
  8
10_ZEICHNUNG-WERKZEICHNUNG
  6
CONTINUOUS
 62
     7
 10
77.823567708333371
 20
4281.4518439163503
 30
0.0
 42
-0.4142135623730951
  0
VERTEX
  5
39B
  8
10_ZEICHNUNG-WERKZEICHNUNG
  6
CONTINUOUS
 62
     7
 10
172.8235677083334
 20
4186.4518439163503
 30
0.0
  0
VERTEX
  5
39C
  8
10_ZEICHNUNG-WERKZEICHNUNG
  6
CONTINUOUS
 62
     7
 10
172.8235677083334
 20
4042.4518439163498
 30
0.0
 42
-0.4142135623730935
  0
VERTEX
  5
39D
  8
10_ZEICHNUNG-WERKZEICHNUNG
  6
CONTINUOUS
 62
     7
 10
77.823567708333883
 20
3947.4518439163512
 30
0.0
  0
VERTEX
  5
39E
  8
10_ZEICHNUNG-WERKZEICHNUNG
  6
CONTINUOUS
 62
     7
 10
72.823567708333371
 20
3947.4518439163512
 30
0.0
 42
-0.414213562373095
  0
VERTEX
  5
39F
  8
10_ZEICHNUNG-WERKZEICHNUNG
  6
CONTINUOUS
 62
     7
 10
-22.176432291666622
 20
4042.4518439163498
 30
0.0
  0
VERTEX
  5
3A0
  8
10_ZEICHNUNG-WERKZEICHNUNG
  6
CONTINUOUS
 62
     7
 10
-22.176432291666629
 20
4186.4518439163503
 30
0.0
 42
-0.4142135623730949
  0
SEQEND
  5
3A1
  8
10_ZEICHNUNG-WERKZEICHNUNG
  6
CONTINUOUS
 62
     7
  0
VIEWPORT
  5
217
 67
     1
  8
0
 10
128.5
 20
97.5
 30
0.0
 40
314.226
 41
222.18000000000001
 68
     1
 69
     1
1001
ACAD
1000
MVIEW
1002
{
1070
    16
1010
0.0
1020
0.0
1030
0.0
1010
0.0
1020
0.0
1030
1.0
1040
0.0
1040
222.18000000000001
1040
128.5
1040
97.5
1040
50.0
1040
0.0
1040
0.0
1070
     0
1070
   100
1070
     1
1070
     3
1070
     0
1070
     0
1070
     0
1070
     0
1040
0.0
1040
0.0
1040
0.0
1040
10.0
1040
10.0
1040
10.0
1040
10.0
1070
     0
1002
{
1002
}
1002
}
  0
ENDSEC
  0
EOF
