  0
SECTION
  2
HEADER
  9
$ACADVER
  1
AC1009
  9
$INSBASE
 10
0.0
 20
0.0
 30
0.0
  9
$EXTMIN
 10
-273.05210535466449
 20
3102.939917489552
 30
0.0
  9
$EXTMAX
 10
488.99136601934151
 20
4272.6065234014804
 30
0.0
  9
$LIMMIN
 10
0.0
 20
0.0
  9
$LIMMAX
 10
12.0
 20
9.0
  9
$ORTHOMODE
 70
     1
  9
$REGENMODE
 70
     1
  9
$FILLMODE
 70
     1
  9
$QTEXTMODE
 70
     0
  9
$MIRRTEXT
 70
     1
  9
$DRAGMODE
 70
     2
  9
$LTSCALE
 40
50.799999999999997
  9
$OSMODE
 70
   439
  9
$ATTMODE
 70
     1
  9
$TEXTSIZE
 40
0.2
  9
$TRACEWID
 40
1.0
  9
$TEXTSTYLE
  7
STANDARD
  9
$CLAYER
  8
10_ZEICHNUNG-WERKZEICHNUNG
  9
$CELTYPE
  6
BYLAYER
  9
$CECOLOR
 62
   256
  9
$DIMSCALE
 40
1.0
  9
$DIMASZ
 40
14.138671875
  9
$DIMEXO
 40
30.0
  9
$DIMDLI
 40
10.16
  9
$DIMRND
 40
0.0
  9
$DIMDLE
 40
20.0
  9
$DIMEXE
 40
20.0
  9
$DIMTP
 40
0.0
  9
$DIMTM
 40
0.0
  9
$DIMTXT
 40
35.36964699074074
  9
$DIMCEN
 40
0.0
  9
$DIMTSZ
 40
0.0
  9
$DIMTOL
 70
     0
  9
$DIMLIM
 70
     0
  9
$DIMTIH
 70
     0
  9
$DIMTOH
 70
     0
  9
$DIMSE1
 70
     0
  9
$DIMSE2
 70
     0
  9
$DIMTAD
 70
     1
  9
$DIMZIN
 70
     8
  9
$DIMBLK
  1
VW_SLASH
  9
$DIMASO
 70
     1
  9
$DIMSHO
 70
     1
  9
$DIMPOST
  1
<>
  9
$DIMAPOST
  1
[]mm
  9
$DIMALT
 70
     0
  9
$DIMALTD
 70
     1
  9
$DIMALTF
 40
1.0
  9
$DIMLFAC
 40
1.0
  9
$DIMTOFL
 70
     1
  9
$DIMTVP
 40
0.0
  9
$DIMTIX
 70
     1
  9
$DIMSOXD
 70
     0
  9
$DIMSAH
 70
     0
  9
$DIMBLK1
  1
VW_SLASH
  9
$DIMBLK2
  1
VW_SLASH
  9
$DIMSTYLE
  2
SCHREINERHLVAR_1_10
  9
$DIMCLRD
 70
     0
  9
$DIMCLRE
 70
     0
  9
$DIMCLRT
 70
     0
  9
$DIMTFAC
 40
0.8
  9
$DIMGAP
 40
0.5
  9
$LUNITS
 70
     2
  9
$LUPREC
 70
     4
  9
$SKETCHINC
 40
0.1
  9
$FILLETRAD
 40
0.5
  9
$AUNITS
 70
     0
  9
$AUPREC
 70
     0
  9
$MENU
  1
.
  9
$ELEVATION
 40
0.0
  9
$PELEVATION
 40
0.0
  9
$THICKNESS
 40
0.0
  9
$LIMCHECK
 70
     0
  9
$BLIPMODE
 70
     0
  9
$CHAMFERA
 40
0.5
  9
$CHAMFERB
 40
0.5
  9
$SKPOLY
 70
     0
  9
$TDCREATE
 40
2456107.4709558911
  9
$TDUPDATE
 40
2456107.6148154051
  9
$TDINDWG
 40
0.0018998148
  9
$TDUSRTIMER
 40
0.0018998148
  9
$USRTIMER
 70
     1
  9
$ANGBASE
 50
0.0
  9
$ANGDIR
 70
     0
  9
$PDMODE
 70
     1
  9
$PDSIZE
 40
-2.0
  9
$PLINEWID
 40
0.0
  9
$COORDS
 70
     1
  9
$SPLFRAME
 70
     0
  9
$SPLINETYPE
 70
     6
  9
$SPLINESEGS
 70
     8
  9
$ATTDIA
 70
     0
  9
$ATTREQ
 70
     1
  9
$HANDLING
 70
     1
  9
$HANDSEED
  5
3CC
  9
$SURFTAB1
 70
     6
  9
$SURFTAB2
 70
     6
  9
$SURFTYPE
 70
     6
  9
$SURFU
 70
     6
  9
$SURFV
 70
     6
  9
$UCSNAME
  2

  9
$UCSORG
 10
0.0
 20
0.0
 30
0.0
  9
$UCSXDIR
 10
1.0
 20
0.0
 30
0.0
  9
$UCSYDIR
 10
0.0
 20
1.0
 30
0.0
  9
$PUCSNAME
  2

  9
$PUCSORG
 10
0.0
 20
0.0
 30
0.0
  9
$PUCSXDIR
 10
1.0
 20
0.0
 30
0.0
  9
$PUCSYDIR
 10
0.0
 20
1.0
 30
0.0
  9
$USERI1
 70
     0
  9
$USERI2
 70
     0
  9
$USERI3
 70
     0
  9
$USERI4
 70
     0
  9
$USERI5
 70
     0
  9
$USERR1
 40
0.0
  9
$USERR2
 40
0.0
  9
$USERR3
 40
0.0
  9
$USERR4
 40
0.0
  9
$USERR5
 40
0.0
  9
$WORLDVIEW
 70
     1
  9
$SHADEDGE
 70
     3
  9
$SHADEDIF
 70
    70
  9
$TILEMODE
 70
     1
  9
$MAXACTVP
 70
    64
  9
$PLIMCHECK
 70
     0
  9
$PEXTMIN
 10
1.0000000000000000E+020
 20
1.0000000000000000E+020
 30
1.0000000000000000E+020
  9
$PEXTMAX
 10
-1.0000000000000000E+020
 20
-1.0000000000000000E+020
 30
-1.0000000000000000E+020
  9
$PLIMMIN
 10
-20.0
 20
-7.5
  9
$PLIMMAX
 10
277.0
 20
202.5
  9
$UNITMODE
 70
     0
  9
$VISRETAIN
 70
     1
  9
$PLINEGEN
 70
     0
  9
$PSLTSCALE
 70
     1
  0
ENDSEC
  0
SECTION
  2
TABLES
  0
TABLE
  2
VPORT
 70
     3
  0
VPORT
  2
*ACTIVE
 70
     0
 10
0.0
 20
0.0
 11
1.0
 21
1.0
 12
122.2950052398288
 22
3906.6556295490668
 13
0.0
 23
0.0
 14
0.5
 24
0.5
 15
0.5
 25
0.5
 16
0.0
 26
0.0
 36
1.0
 17
0.0
 27
0.0
 37
0.0
 40
1170.4881083593041
 41
1.4302083333333331
 42
2000.0
 43
0.0
 44
0.0
 50
0.0
 51
0.0
 71
     0
 72
   100
 73
     1
 74
     3
 75
     0
 76
     0
 77
     0
 78
     0
  0
ENDTAB
  0
TABLE
  2
LTYPE
 70
    23
  0
LTYPE
  2
CONTINUOUS
 70
     0
  3
Solid line
 72
    65
 73
     0
 40
0.0
  0
LTYPE
  2
OHNE_TITEL-1
 70
     0
  3

 72
    65
 73
     2
 40
0.39368
 49
0.19684
 49
-0.19684
  0
LTYPE
  2
OHNE_TITEL-2
 70
     0
  3

 72
    65
 73
     2
 40
0.590515
 49
0.393675
 49
-0.19684
  0
LTYPE
  2
OHNE_TITEL-3
 70
     0
  3

 72
    65
 73
     2
 40
0.787355
 49
0.590515
 49
-0.19684
  0
LTYPE
  2
OHNE_TITEL-4
 70
     0
  3

 72
    65
 73
     2
 40
1.18103
 49
0.98419
 49
-0.1968399999999999
  0
LTYPE
  2
OHNE_TITEL-5
 70
     0
  3

 72
    65
 73
     2
 40
0.19684
 49
0.069505
 49
-0.127335
  0
LTYPE
  2
OHNE_TITEL-6
 70
     0
  3

 72
    65
 73
     4
 40
1.0537000000000001
 49
0.590515
 49
-0.19684
 49
0.069505
 49
-0.1968400000000001
  0
LTYPE
  2
OHNE_TITEL-7
 70
     0
  3

 72
    65
 73
     6
 40
1.841054999999999
 49
0.590515
 49
-0.19684
 49
0.5905149999999999
 49
-0.1968400000000001
 49
0.069505
 49
-0.1968400000000001
  0
LTYPE
  2
OHNE_TITEL-8
 70
     0
  3

 72
    65
 73
     6
 40
1.3200449999999999
 49
0.590515
 49
-0.19684
 49
0.069505
 49
-0.1968400000000001
 49
0.069505
 49
-0.1968399999999999
  0
LTYPE
  2
OHNE_TITEL-9
 70
     0
  3

 72
    65
 73
     4
 40
2.5589049999999989
 49
1.9683849999999989
 49
-0.1968400000000001
 49
0.1968400000000001
 49
-0.1968400000000001
  0
LTYPE
  2
OHNE_TITEL-10
 70
     0
  3

 72
    65
 73
     6
 40
2.952585
 49
1.9683849999999989
 49
-0.1968400000000001
 49
0.1968400000000001
 49
-0.1968400000000001
 49
0.1968399999999998
 49
-0.1968399999999998
  0
LTYPE
  2
OHNE_TITEL-11
 70
     0
  3

 72
    65
 73
     4
 40
1.5748031496062991
 49
0.7874015748031497
 49
-0.3937007874015748
 49
0.0004999999999999
 49
-0.3932007874015748
  0
LTYPE
  2
OHNE_TITEL-12
 70
     0
  3

 72
    65
 73
     2
 40
0.5905511811023622
 49
0.3937007874015748
 49
-0.1968503937007874
  0
LTYPE
  2
OHNE_TITEL-13
 70
     0
  3

 72
    65
 73
     2
 40
0.375
 49
0.25
 49
-0.125
  0
LTYPE
  2
OHNE_TITEL-14
 70
     0
  3

 72
    65
 73
     4
 40
0.5625
 49
0.375
 49
-0.0625
 49
0.0625
 49
-0.0625
  0
LTYPE
  2
OHNE_TITEL-15
 70
     0
  3

 72
    65
 73
     4
 40
1.0
 49
0.625
 49
-0.125
 49
0.125
 49
-0.125
  0
LTYPE
  2
OHNE_TITEL-16
 70
     0
  3

 72
    65
 73
     6
 40
1.1000000000000001
 49
0.6
 49
-0.15
 49
0.025
 49
-0.15
 49
0.025
 49
-0.15
  0
LTYPE
  2
OHNE_TITEL-17
 70
     0
  3

 72
    65
 73
     4
 40
1.8
 49
1.1999999999999991
 49
-0.1500000000000001
 49
0.3
 49
-0.1499999999999999
  0
LTYPE
  2
OHNE_TITEL-18
 70
     0
  3

 72
    65
 73
     2
 40
3.75
 49
2.5
 49
-1.25
  0
LTYPE
  2
OHNE_TITEL-19
 70
     0
  3

 72
    65
 73
     2
 40
7.381889763779526
 49
4.9212598425196843
 49
-2.460629921259843
  0
LTYPE
  2
ACAD_ISO02W100
 70
     0
  3

 72
    65
 73
     2
 40
2.9527559055118102
 49
2.3622047244094491
 49
-0.5905511811023622
  0
LTYPE
  2
STYLE_21
 70
     0
  3

 72
    65
 73
     2
 40
0.1973503937007874
 49
0.1968503937007874
 49
-0.0005
  0
LTYPE
  2
DASHED
 70
     0
  3

 72
    65
 73
     2
 40
1.1811023622047241
 49
0.7874015748031497
 49
-0.3937007874015748
  0
ENDTAB
  0
TABLE
  2
LAYER
 70
    32
  0
LAYER
  2
0
 70
     0
 62
     7
  6
STYLE_21
  0
LAYER
  2
KEINE
 70
     0
 62
     7
  6
CONTINUOUS
  0
LAYER
  2
BEMAŠUNG
 70
     0
 62
     1
  6
CONTINUOUS
  0
LAYER
  2
DETAIL-AUSF_HRUNG
 70
     0
 62
     7
  6
CONTINUOUS
  0
LAYER
  2
10_ZEICHNUNG-DETAIL
 70
     0
 62
     7
  6
CONTINUOUS
  0
LAYER
  2
10_ZEICHNUNG-GRAUE_LINIE
 70
     0
 62
     8
  6
CONTINUOUS
  0
LAYER
  2
30_BESCHL_GE-HILFSLINIEN
 70
     0
 62
     5
  6
OHNE_TITEL-1
  0
LAYER
  2
30_BESCHL_GE-ZEICHNUNG
 70
     0
 62
     7
  6
CONTINUOUS
  0
LAYER
  2
10_ZEICHNUNG-WERKZEICHNUNG
 70
     0
 62
     7
  6
CONTINUOUS
  0
LAYER
  2
30_BESCHL_GE-NAME
 70
     0
 62
     7
  6
CONTINUOUS
  0
LAYER
  2
30_BESCHL_GE-BEMASSUNG
 70
     0
 62
     1
  6
CONTINUOUS
  0
LAYER
  2
10_ZEICHNUNG-SCHNITTFL_CHE
 70
     0
 62
     7
  6
CONTINUOUS
  0
LAYER
  2
10_ZEICHNUNG-BESCHRIFTUNG
 70
     0
 62
     7
  6
CONTINUOUS
  0
LAYER
  2
50_MATERIAL-GLAS
 70
     0
 62
     7
  6
CONTINUOUS
  0
LAYER
  2
HILFSKONSTRUKTIONEN
 70
     0
 62
     6
  6
OHNE_TITEL-1
  0
LAYER
  2
10_ZEICHNUNG-VERDECKT__GES
 70
     0
 62
     7
  6
OHNE_TITEL-1
  0
LAYER
  2
70_ARCHITEKTUR-W_NDE
 70
     0
 62
     7
  6
CONTINUOUS
  0
LAYER
  2
70_ARCHITEKTUR-BODEN__DECK
 70
     0
 62
     7
  6
CONTINUOUS
  0
LAYER
  2
ATTRIBUTKLASSE-03
 70
     0
 62
     7
  6
CONTINUOUS
  0
LAYER
  2
ATTRIBUTKLASSE-02
 70
     0
 62
     7
  6
CONTINUOUS
  0
LAYER
  2
ATTRIBUTKLASSE-04
 70
     0
 62
     7
  6
CONTINUOUS
  0
LAYER
  2
ATTRIBUTKLASSE-01
 70
     0
 62
     7
  6
CONTINUOUS
  0
LAYER
  2
70_ARCHITEKTUR-GEB_UDELINI
 70
     0
 62
     7
  6
CONTINUOUS
  0
LAYER
  2
CW-UNSICHTBAR
 70
     1
 62
     7
  6
CONTINUOUS
  0
LAYER
  2
10_ZEICHNUNG-SCHNITTACHSEN
 70
     0
 62
     7
  6
OHNE_TITEL-6
  0
LAYER
  2
20_BEMASSUNG-ERG_NZUNGEN
 70
     0
 62
     7
  6
CONTINUOUS
  0
LAYER
  2
BESCHLƒGE-2
 70
     0
 62
   150
  6
CONTINUOUS
  0
LAYER
  2
LINIE_SS
 70
     0
 62
     4
  6
ACAD_ISO02W100
  0
LAYER
  2
SCHIENEN___PROFILE
 70
     0
 62
     1
  6
CONTINUOUS
  0
LAYER
  2
EKU-BESCHLAG
 70
     0
 62
     7
  6
CONTINUOUS
  0
LAYER
  2
10_ZEICHNUNG-HILFSKONSTRUK
 70
     0
 62
     5
  6
OHNE_TITEL-1
  0
LAYER
  2
DEFPOINTS
 70
     0
 62
     7
  6
CONTINUOUS
  0
ENDTAB
  0
TABLE
  2
STYLE
 70
     2
  0
STYLE
  2
STANDARD
 70
     0
 40
0.0
 41
1.0
 50
0.0
 71
     0
 42
0.2
  3
txt
  4

  0
STYLE
  2
ARIAL
 70
     0
 40
0.0
 41
1.0
 50
0.0
 71
     0
 42
0.0
  3
Arial
  4

  0
ENDTAB
  0
TABLE
  2
VIEW
 70
     0
  0
ENDTAB
  0
TABLE
  2
UCS
 70
     0
  0
ENDTAB
  0
TABLE
  2
APPID
 70
     1
  0
APPID
  2
ACAD
 70
     0
  0
ENDTAB
  0
TABLE
  2
DIMSTYLE
 70
     2
  0
DIMSTYLE
  2
STANDARD
 70
     0
  3

  4

  5

  6

  7

 40
1.0
 41
0.18
 42
0.0625
 43
0.38
 44
0.18
 45
0.0
 46
0.0
 47
0.0
 48
0.0
140
0.18
141
0.09
142
0.0
143
25.399999999999999
144
1.0
145
0.0
146
1.0
147
0.09
 71
     0
 72
     0
 73
     1
 74
     1
 75
     0
 76
     0
 77
     0
 78
     0
170
     0
171
     2
172
     0
173
     0
174
     0
175
     0
176
     0
177
     0
178
     0
  0
DIMSTYLE
  2
SCHREINERHLVAR_1_10
 70
     0
  3
<>
  4
[]mm
  5
VW_SLASH
  6
VW_SLASH
  7
VW_SLASH
 40
1.0
 41
14.138671875
 42
30.0
 43
10.16
 44
20.0
 45
0.0
 46
20.0
 47
0.0
 48
0.0
140
35.36964699074074
141
0.0
142
0.0
143
1.0
144
1.0
145
0.0
146
0.8
147
0.5
 71
     0
 72
     0
 73
     0
 74
     0
 75
     0
 76
     0
 77
     1
 78
     8
170
     0
171
     1
172
     1
173
     0
174
     1
175
     0
176
     0
177
     0
178
     0
  0
ENDTAB
  0
ENDSEC
  0
SECTION
  2
BLOCKS
  0
BLOCK
  8
0
  2
$MODEL_SPACE
 70
     0
 10
0.0
 20
0.0
 30
0.0
  3
$MODEL_SPACE
  1

  0
ENDBLK
  5
21
  8
0
  0
BLOCK
 67
     1
  8
0
  2
$PAPER_SPACE
 70
     0
 10
0.0
 20
0.0
 30
0.0
  3
$PAPER_SPACE
  1

  0
ENDBLK
  5
1D
 67
     1
  8
0
  0
BLOCK
  8
0
  2
GRUPPE-1
 70
     0
 10
0.0
 20
0.0
 30
0.0
  3
GRUPPE-1
  1

  0
POLYLINE
  5
A9
  8
10_ZEICHNUNG-WERKZEICHNUNG
  6
CONTINUOUS
 62
     7
 66
     1
 10
0.0
 20
0.0
 30
0.0
 70
   128
  0
VERTEX
  5
AA
  8
10_ZEICHNUNG-WERKZEICHNUNG
  6
CONTINUOUS
 62
     7
 10
-60.0
 20
3243.995436117546
 30
0.0
  0
VERTEX
  5
AB
  8
10_ZEICHNUNG-WERKZEICHNUNG
  6
CONTINUOUS
 62
     7
 10
-62.881613197672323
 20
3244.0298588893479
 30
0.0
  0
VERTEX
  5
AC
  8
10_ZEICHNUNG-WERKZEICHNUNG
  6
CONTINUOUS
 62
     7
 10
-65.763221308208813
 20
3244.0664823333218
 30
0.0
  0
VERTEX
  5
AD
  8
10_ZEICHNUNG-WERKZEICHNUNG
  6
CONTINUOUS
 62
     7
 10
-68.644824016455914
 20
3244.1053064454559
 30
0.0
  0
VERTEX
  5
AE
  8
10_ZEICHNUNG-WERKZEICHNUNG
  6
CONTINUOUS
 62
     7
 10
-71.52642100725916
 20
3244.1463312215092
 30
0.0
  0
VERTEX
  5
AF
  8
10_ZEICHNUNG-WERKZEICHNUNG
  6
CONTINUOUS
 62
     7
 10
-74.408011965478195
 20
3244.1895566569892
 30
0.0
  0
VERTEX
  5
B0
  8
10_ZEICHNUNG-WERKZEICHNUNG
  6
CONTINUOUS
 62
     7
 10
-77.289596575960331
 20
3244.2349827471721
 30
0.0
  0
VERTEX
  5
B1
  8
10_ZEICHNUNG-WERKZEICHNUNG
  6
CONTINUOUS
 62
     7
 10
-80.171174523553404
 20
3244.2826094870902
 30
0.0
  0
VERTEX
  5
B2
  8
10_ZEICHNUNG-WERKZEICHNUNG
  6
CONTINUOUS
 62
     7
 10
-83.052745493119787
 20
3244.3324368715312
 30
0.0
  0
VERTEX
  5
B3
  8
10_ZEICHNUNG-WERKZEICHNUNG
  6
CONTINUOUS
 62
     7
 10
-85.934309169508197
 20
3244.3844648950462
 30
0.0
  0
VERTEX
  5
B4
  8
10_ZEICHNUNG-WERKZEICHNUNG
  6
CONTINUOUS
 62
     7
 10
-88.815865237568687
 20
3244.4386935519528
 30
0.0
  0
VERTEX
  5
B5
  8
10_ZEICHNUNG-WERKZEICHNUNG
  6
CONTINUOUS
 62
     7
 10
-91.697413382166786
 20
3244.4951228363111
 30
0.0
  0
VERTEX
  5
B6
  8
10_ZEICHNUNG-WERKZEICHNUNG
  6
CONTINUOUS
 62
     7
 10
-94.578953288152675
 20
3244.5537527419542
 30
0.0
  0
VERTEX
  5
B7
  8
10_ZEICHNUNG-WERKZEICHNUNG
  6
CONTINUOUS
 62
     7
 10
-97.460484640380855
 20
3244.6145832624661
 30
0.0
  0
VERTEX
  5
B8
  8
10_ZEICHNUNG-WERKZEICHNUNG
  6
CONTINUOUS
 62
     7
 10
-100.3420071237169
 20
3244.6776143911989
 30
0.0
  0
VERTEX
  5
B9
  8
10_ZEICHNUNG-WERKZEICHNUNG
  6
CONTINUOUS
 62
     7
 10
-103.2235204230165
 20
3244.7428461212562
 30
0.0
  0
VERTEX
  5
BA
  8
10_ZEICHNUNG-WERKZEICHNUNG
  6
CONTINUOUS
 62
     7
 10
-106.1050242231349
 20
3244.8102784455009
 30
0.0
  0
VERTEX
  5
BB
  8
10_ZEICHNUNG-WERKZEICHNUNG
  6
CONTINUOUS
 62
     7
 10
-108.9865182089375
 20
3244.879911356566
 30
0.0
  0
VERTEX
  5
BC
  8
10_ZEICHNUNG-WERKZEICHNUNG
  6
CONTINUOUS
 62
     7
 10
-111.86800206529099
 20
3244.9517448468318
 30
0.0
  0
VERTEX
  5
BD
  8
10_ZEICHNUNG-WERKZEICHNUNG
  6
CONTINUOUS
 62
     7
 10
-114.7494754770551
 20
3245.0257789084449
 30
0.0
  0
VERTEX
  5
BE
  8
10_ZEICHNUNG-WERKZEICHNUNG
  6
CONTINUOUS
 62
     7
 10
-117.6309381290889
 20
3245.1020135332969
 30
0.0
  0
VERTEX
  5
BF
  8
10_ZEICHNUNG-WERKZEICHNUNG
  6
CONTINUOUS
 62
     7
 10
-120.5123897062676
 20
3245.1804487130639
 30
0.0
  0
VERTEX
  5
C0
  8
10_ZEICHNUNG-WERKZEICHNUNG
  6
CONTINUOUS
 62
     7
 10
-123.3938298934527
 20
3245.2610844391638
 30
0.0
  0
VERTEX
  5
C1
  8
10_ZEICHNUNG-WERKZEICHNUNG
  6
CONTINUOUS
 62
     7
 10
-126.2752583755091
 20
3245.3439207027768
 30
0.0
  0
VERTEX
  5
C2
  8
10_ZEICHNUNG-WERKZEICHNUNG
  6
CONTINUOUS
 62
     7
 10
-129.15667483731431
 20
3245.428957494843
 30
0.0
  0
VERTEX
  5
C3
  8
10_ZEICHNUNG-WERKZEICHNUNG
  6
CONTINUOUS
 62
     7
 10
-132.03807896373431
 20
3245.516194806064
 30
0.0
  0
VERTEX
  5
C4
  8
10_ZEICHNUNG-WERKZEICHNUNG
  6
CONTINUOUS
 62
     7
 10
-134.91947043963771
 20
3245.6056326268972
 30
0.0
  0
VERTEX
  5
C5
  8
10_ZEICHNUNG-WERKZEICHNUNG
  6
CONTINUOUS
 62
     7
 10
-137.80084894990611
 20
3245.6972709475622
 30
0.0
  0
VERTEX
  5
C6
  8
10_ZEICHNUNG-WERKZEICHNUNG
  6
CONTINUOUS
 62
     7
 10
-140.68221417941001
 20
3245.7911097580341
 30
0.0
  0
VERTEX
  5
C7
  8
10_ZEICHNUNG-WERKZEICHNUNG
  6
CONTINUOUS
 62
     7
 10
-143.56356581302131
 20
3245.8871490480551
 30
0.0
  0
VERTEX
  5
C8
  8
10_ZEICHNUNG-WERKZEICHNUNG
  6
CONTINUOUS
 62
     7
 10
-146.44490353562739
 20
3245.9853888071189
 30
0.0
  0
VERTEX
  5
C9
  8
10_ZEICHNUNG-WERKZEICHNUNG
  6
CONTINUOUS
 62
     7
 10
-149.326227032102
 20
3246.0858290244801
 30
0.0
  0
VERTEX
  5
CA
  8
10_ZEICHNUNG-WERKZEICHNUNG
  6
CONTINUOUS
 62
     7
 10
-152.20753598732199
 20
3246.1884696891561
 30
0.0
  0
VERTEX
  5
CB
  8
10_ZEICHNUNG-WERKZEICHNUNG
  6
CONTINUOUS
 62
     7
 10
-155.0888300861748
 20
3246.2933107899212
 30
0.0
  0
VERTEX
  5
CC
  8
10_ZEICHNUNG-WERKZEICHNUNG
  6
CONTINUOUS
 62
     7
 10
-157.97010901354821
 20
3246.4003523153069
 30
0.0
  0
VERTEX
  5
CD
  8
10_ZEICHNUNG-WERKZEICHNUNG
  6
CONTINUOUS
 62
     7
 10
-160.85137245432361
 20
3246.5095942536132
 30
0.0
  0
VERTEX
  5
CE
  8
10_ZEICHNUNG-WERKZEICHNUNG
  6
CONTINUOUS
 62
     7
 10
-163.7326200933849
 20
3246.6210365928841
 30
0.0
  0
VERTEX
  5
CF
  8
10_ZEICHNUNG-WERKZEICHNUNG
  6
CONTINUOUS
 62
     7
 10
-166.6138516156293
 20
3246.7346793209372
 30
0.0
  0
VERTEX
  5
D0
  8
10_ZEICHNUNG-WERKZEICHNUNG
  6
CONTINUOUS
 62
     7
 10
-169.4950667059434
 20
3246.850522425339
 30
0.0
  0
VERTEX
  5
D1
  8
10_ZEICHNUNG-WERKZEICHNUNG
  6
CONTINUOUS
 62
     7
 10
-172.37626504921539
 20
3246.9685658934268
 30
0.0
  0
VERTEX
  5
D2
  8
10_ZEICHNUNG-WERKZEICHNUNG
  6
CONTINUOUS
 62
     7
 10
-175.2574463303495
 20
3247.0888097122879
 30
0.0
  0
VERTEX
  5
D3
  8
10_ZEICHNUNG-WERKZEICHNUNG
  6
CONTINUOUS
 62
     7
 10
-178.13861023423661
 20
3247.2112538687679
 30
0.0
  0
VERTEX
  5
D4
  8
10_ZEICHNUNG-WERKZEICHNUNG
  6
CONTINUOUS
 62
     7
 10
-181.01975644577121
 20
3247.33589834948
 30
0.0
  0
VERTEX
  5
D5
  8
10_ZEICHNUNG-WERKZEICHNUNG
  6
CONTINUOUS
 62
     7
 10
-183.90088464986269
 20
3247.4627431407921
 30
0.0
  0
VERTEX
  5
D6
  8
10_ZEICHNUNG-WERKZEICHNUNG
  6
CONTINUOUS
 62
     7
 10
-186.78199453140849
 20
3247.5917882288331
 30
0.0
  0
VERTEX
  5
D7
  8
10_ZEICHNUNG-WERKZEICHNUNG
  6
CONTINUOUS
 62
     7
 10
-189.66308577530799
 20
3247.7230335994818
 30
0.0
  0
VERTEX
  5
D8
  8
10_ZEICHNUNG-WERKZEICHNUNG
  6
CONTINUOUS
 62
     7
 10
-192.54415806647739
 20
3247.856479238395
 30
0.0
  0
VERTEX
  5
D9
  8
10_ZEICHNUNG-WERKZEICHNUNG
  6
CONTINUOUS
 62
     7
 10
-195.42521108981961
 20
3247.9921251309688
 30
0.0
  0
VERTEX
  5
DA
  8
10_ZEICHNUNG-WERKZEICHNUNG
  6
CONTINUOUS
 62
     7
 10
-198.30624453024171
 20
3248.1299712623741
 30
0.0
  0
VERTEX
  5
DB
  8
10_ZEICHNUNG-WERKZEICHNUNG
  6
CONTINUOUS
 62
     7
 10
-201.18725807265989
 20
3248.2700176175358
 30
0.0
  0
VERTEX
  5
DC
  8
10_ZEICHNUNG-WERKZEICHNUNG
  6
CONTINUOUS
 62
     7
 10
-204.06825140199359
 20
3248.4122641811359
 30
0.0
  0
VERTEX
  5
DD
  8
10_ZEICHNUNG-WERKZEICHNUNG
  6
CONTINUOUS
 62
     7
 10
-206.9492242031547
 20
3248.5567109376129
 30
0.0
  0
VERTEX
  5
DE
  8
10_ZEICHNUNG-WERKZEICHNUNG
  6
CONTINUOUS
 62
     7
 10
-209.8301761610596
 20
3248.7033578711748
 30
0.0
  0
VERTEX
  5
DF
  8
10_ZEICHNUNG-WERKZEICHNUNG
  6
CONTINUOUS
 62
     7
 10
-212.71110696063721
 20
3248.8522049657849
 30
0.0
  0
VERTEX
  5
E0
  8
10_ZEICHNUNG-WERKZEICHNUNG
  6
CONTINUOUS
 62
     7
 10
-215.59201628680779
 20
3249.0032522051579
 30
0.0
  0
VERTEX
  5
E1
  8
10_ZEICHNUNG-WERKZEICHNUNG
  6
CONTINUOUS
 62
     7
 10
-218.47290382449231
 20
3249.1564995727808
 30
0.0
  0
VERTEX
  5
E2
  8
10_ZEICHNUNG-WERKZEICHNUNG
  6
CONTINUOUS
 62
     7
 10
-221.35376925862869
 20
3249.3119470518891
 30
0.0
  0
VERTEX
  5
E3
  8
10_ZEICHNUNG-WERKZEICHNUNG
  6
CONTINUOUS
 62
     7
 10
-224.2346122741437
 20
3249.469594625481
 30
0.0
  0
VERTEX
  5
E4
  8
10_ZEICHNUNG-WERKZEICHNUNG
  6
CONTINUOUS
 62
     7
 10
-227.11543255596641
 20
3249.6294422763181
 30
0.0
  0
VERTEX
  5
E5
  8
10_ZEICHNUNG-WERKZEICHNUNG
  6
CONTINUOUS
 62
     7
 10
-229.9962297890406
 20
3249.7914899869252
 30
0.0
  0
VERTEX
  5
E6
  8
10_ZEICHNUNG-WERKZEICHNUNG
  6
CONTINUOUS
 62
     7
 10
-232.87700365830099
 20
3249.9557377395649
 30
0.0
  0
VERTEX
  5
E7
  8
10_ZEICHNUNG-WERKZEICHNUNG
  6
CONTINUOUS
 62
     7
 10
-235.75775384868481
 20
3250.122185516288
 30
0.0
  0
VERTEX
  5
E8
  8
10_ZEICHNUNG-WERKZEICHNUNG
  6
CONTINUOUS
 62
     7
 10
-238.63848004514281
 20
3250.2908332988791
 30
0.0
  0
VERTEX
  5
E9
  8
10_ZEICHNUNG-WERKZEICHNUNG
  6
CONTINUOUS
 62
     7
 10
-241.5191819326183
 20
3250.461681068899
 30
0.0
  0
VERTEX
  5
EA
  8
10_ZEICHNUNG-WERKZEICHNUNG
  6
CONTINUOUS
 62
     7
 10
-244.3998591960426
 20
3250.634728807669
 30
0.0
  0
SEQEND
  5
EB
  8
10_ZEICHNUNG-WERKZEICHNUNG
  6
CONTINUOUS
 62
     7
  0
ENDBLK
  5
41
  8
0
  0
BLOCK
  8
0
  2
GRUPPE-2-1
 70
     0
 10
0.0
 20
0.0
 30
0.0
  3
GRUPPE-2-1
  1

  0
POLYLINE
  5
EC
  8
10_ZEICHNUNG-WERKZEICHNUNG
  6
CONTINUOUS
 62
     7
 66
     1
 10
0.0
 20
0.0
 30
0.0
 70
   128
  0
VERTEX
  5
ED
  8
10_ZEICHNUNG-WERKZEICHNUNG
  6
CONTINUOUS
 62
     7
 10
52.0
 20
3243.995436117546
 30
0.0
  0
VERTEX
  5
EE
  8
10_ZEICHNUNG-WERKZEICHNUNG
  6
CONTINUOUS
 62
     7
 10
54.881613197672777
 20
3244.0298588893479
 30
0.0
  0
VERTEX
  5
EF
  8
10_ZEICHNUNG-WERKZEICHNUNG
  6
CONTINUOUS
 62
     7
 10
57.763221308209722
 20
3244.0664823333218
 30
0.0
  0
VERTEX
  5
F0
  8
10_ZEICHNUNG-WERKZEICHNUNG
  6
CONTINUOUS
 62
     7
 10
60.644824016456369
 20
3244.1053064454559
 30
0.0
  0
VERTEX
  5
F1
  8
10_ZEICHNUNG-WERKZEICHNUNG
  6
CONTINUOUS
 62
     7
 10
63.526421007259607
 20
3244.1463312215092
 30
0.0
  0
VERTEX
  5
F2
  8
10_ZEICHNUNG-WERKZEICHNUNG
  6
CONTINUOUS
 62
     7
 10
66.408011965478636
 20
3244.1895566569892
 30
0.0
  0
VERTEX
  5
F3
  8
10_ZEICHNUNG-WERKZEICHNUNG
  6
CONTINUOUS
 62
     7
 10
69.289596575960786
 20
3244.2349827471721
 30
0.0
  0
VERTEX
  5
F4
  8
10_ZEICHNUNG-WERKZEICHNUNG
  6
CONTINUOUS
 62
     7
 10
72.171174523553873
 20
3244.2826094870902
 30
0.0
  0
VERTEX
  5
F5
  8
10_ZEICHNUNG-WERKZEICHNUNG
  6
CONTINUOUS
 62
     7
 10
75.052745493119787
 20
3244.3324368715312
 30
0.0
  0
VERTEX
  5
F6
  8
10_ZEICHNUNG-WERKZEICHNUNG
  6
CONTINUOUS
 62
     7
 10
77.934309169508197
 20
3244.3844648950462
 30
0.0
  0
VERTEX
  5
F7
  8
10_ZEICHNUNG-WERKZEICHNUNG
  6
CONTINUOUS
 62
     7
 10
80.815865237569597
 20
3244.4386935519528
 30
0.0
  0
VERTEX
  5
F8
  8
10_ZEICHNUNG-WERKZEICHNUNG
  6
CONTINUOUS
 62
     7
 10
83.697413382166815
 20
3244.4951228363111
 30
0.0
  0
VERTEX
  5
F9
  8
10_ZEICHNUNG-WERKZEICHNUNG
  6
CONTINUOUS
 62
     7
 10
86.578953288153556
 20
3244.5537527419542
 30
0.0
  0
VERTEX
  5
FA
  8
10_ZEICHNUNG-WERKZEICHNUNG
  6
CONTINUOUS
 62
     7
 10
89.460484640381324
 20
3244.6145832624661
 30
0.0
  0
VERTEX
  5
FB
  8
10_ZEICHNUNG-WERKZEICHNUNG
  6
CONTINUOUS
 62
     7
 10
92.342007123717408
 20
3244.6776143911989
 30
0.0
  0
VERTEX
  5
FC
  8
10_ZEICHNUNG-WERKZEICHNUNG
  6
CONTINUOUS
 62
     7
 10
95.223520423016936
 20
3244.7428461212562
 30
0.0
  0
VERTEX
  5
FD
  8
10_ZEICHNUNG-WERKZEICHNUNG
  6
CONTINUOUS
 62
     7
 10
98.105024223134919
 20
3244.8102784455009
 30
0.0
  0
VERTEX
  5
FE
  8
10_ZEICHNUNG-WERKZEICHNUNG
  6
CONTINUOUS
 62
     7
 10
100.98651820893789
 20
3244.879911356566
 30
0.0
  0
VERTEX
  5
FF
  8
10_ZEICHNUNG-WERKZEICHNUNG
  6
CONTINUOUS
 62
     7
 10
103.8680020652919
 20
3244.9517448468318
 30
0.0
  0
VERTEX
  5
100
  8
10_ZEICHNUNG-WERKZEICHNUNG
  6
CONTINUOUS
 62
     7
 10
106.7494754770555
 20
3245.0257789084449
 30
0.0
  0
VERTEX
  5
101
  8
10_ZEICHNUNG-WERKZEICHNUNG
  6
CONTINUOUS
 62
     7
 10
109.6309381290894
 20
3245.1020135332969
 30
0.0
  0
VERTEX
  5
102
  8
10_ZEICHNUNG-WERKZEICHNUNG
  6
CONTINUOUS
 62
     7
 10
112.5123897062676
 20
3245.1804487130639
 30
0.0
  0
VERTEX
  5
103
  8
10_ZEICHNUNG-WERKZEICHNUNG
  6
CONTINUOUS
 62
     7
 10
115.3938298934531
 20
3245.2610844391638
 30
0.0
  0
VERTEX
  5
104
  8
10_ZEICHNUNG-WERKZEICHNUNG
  6
CONTINUOUS
 62
     7
 10
118.2752583755091
 20
3245.3439207027768
 30
0.0
  0
VERTEX
  5
105
  8
10_ZEICHNUNG-WERKZEICHNUNG
  6
CONTINUOUS
 62
     7
 10
121.1566748373143
 20
3245.428957494843
 30
0.0
  0
VERTEX
  5
106
  8
10_ZEICHNUNG-WERKZEICHNUNG
  6
CONTINUOUS
 62
     7
 10
124.0380789637347
 20
3245.516194806064
 30
0.0
  0
VERTEX
  5
107
  8
10_ZEICHNUNG-WERKZEICHNUNG
  6
CONTINUOUS
 62
     7
 10
126.91947043963771
 20
3245.6056326268972
 30
0.0
  0
VERTEX
  5
108
  8
10_ZEICHNUNG-WERKZEICHNUNG
  6
CONTINUOUS
 62
     7
 10
129.80084894990611
 20
3245.6972709475622
 30
0.0
  0
VERTEX
  5
109
  8
10_ZEICHNUNG-WERKZEICHNUNG
  6
CONTINUOUS
 62
     7
 10
132.68221417941001
 20
3245.7911097580341
 30
0.0
  0
VERTEX
  5
10A
  8
10_ZEICHNUNG-WERKZEICHNUNG
  6
CONTINUOUS
 62
     7
 10
135.5635658130218
 20
3245.8871490480551
 30
0.0
  0
VERTEX
  5
10B
  8
10_ZEICHNUNG-WERKZEICHNUNG
  6
CONTINUOUS
 62
     7
 10
138.44490353562739
 20
3245.9853888071189
 30
0.0
  0
VERTEX
  5
10C
  8
10_ZEICHNUNG-WERKZEICHNUNG
  6
CONTINUOUS
 62
     7
 10
141.326227032102
 20
3246.0858290244801
 30
0.0
  0
VERTEX
  5
10D
  8
10_ZEICHNUNG-WERKZEICHNUNG
  6
CONTINUOUS
 62
     7
 10
144.20753598732239
 20
3246.1884696891561
 30
0.0
  0
VERTEX
  5
10E
  8
10_ZEICHNUNG-WERKZEICHNUNG
  6
CONTINUOUS
 62
     7
 10
147.08883008617519
 20
3246.2933107899212
 30
0.0
  0
VERTEX
  5
10F
  8
10_ZEICHNUNG-WERKZEICHNUNG
  6
CONTINUOUS
 62
     7
 10
149.97010901354861
 20
3246.4003523153069
 30
0.0
  0
VERTEX
  5
110
  8
10_ZEICHNUNG-WERKZEICHNUNG
  6
CONTINUOUS
 62
     7
 10
152.85137245432449
 20
3246.5095942536132
 30
0.0
  0
VERTEX
  5
111
  8
10_ZEICHNUNG-WERKZEICHNUNG
  6
CONTINUOUS
 62
     7
 10
155.73262009338529
 20
3246.6210365928841
 30
0.0
  0
VERTEX
  5
112
  8
10_ZEICHNUNG-WERKZEICHNUNG
  6
CONTINUOUS
 62
     7
 10
158.61385161562981
 20
3246.7346793209372
 30
0.0
  0
VERTEX
  5
113
  8
10_ZEICHNUNG-WERKZEICHNUNG
  6
CONTINUOUS
 62
     7
 10
161.4950667059438
 20
3246.850522425339
 30
0.0
  0
VERTEX
  5
114
  8
10_ZEICHNUNG-WERKZEICHNUNG
  6
CONTINUOUS
 62
     7
 10
164.3762650492163
 20
3246.9685658934268
 30
0.0
  0
VERTEX
  5
115
  8
10_ZEICHNUNG-WERKZEICHNUNG
  6
CONTINUOUS
 62
     7
 10
167.25744633034989
 20
3247.0888097122879
 30
0.0
  0
VERTEX
  5
116
  8
10_ZEICHNUNG-WERKZEICHNUNG
  6
CONTINUOUS
 62
     7
 10
170.13861023423709
 20
3247.2112538687679
 30
0.0
  0
VERTEX
  5
117
  8
10_ZEICHNUNG-WERKZEICHNUNG
  6
CONTINUOUS
 62
     7
 10
173.01975644577209
 20
3247.33589834948
 30
0.0
  0
VERTEX
  5
118
  8
10_ZEICHNUNG-WERKZEICHNUNG
  6
CONTINUOUS
 62
     7
 10
175.9008846498632
 20
3247.4627431407921
 30
0.0
  0
VERTEX
  5
119
  8
10_ZEICHNUNG-WERKZEICHNUNG
  6
CONTINUOUS
 62
     7
 10
178.78199453140849
 20
3247.5917882288331
 30
0.0
  0
VERTEX
  5
11A
  8
10_ZEICHNUNG-WERKZEICHNUNG
  6
CONTINUOUS
 62
     7
 10
181.6630857753089
 20
3247.7230335994818
 30
0.0
  0
VERTEX
  5
11B
  8
10_ZEICHNUNG-WERKZEICHNUNG
  6
CONTINUOUS
 62
     7
 10
184.54415806647779
 20
3247.856479238395
 30
0.0
  0
VERTEX
  5
11C
  8
10_ZEICHNUNG-WERKZEICHNUNG
  6
CONTINUOUS
 62
     7
 10
187.42521108982061
 20
3247.9921251309688
 30
0.0
  0
VERTEX
  5
11D
  8
10_ZEICHNUNG-WERKZEICHNUNG
  6
CONTINUOUS
 62
     7
 10
190.30624453024211
 20
3248.1299712623741
 30
0.0
  0
VERTEX
  5
11E
  8
10_ZEICHNUNG-WERKZEICHNUNG
  6
CONTINUOUS
 62
     7
 10
193.1872580726604
 20
3248.2700176175358
 30
0.0
  0
VERTEX
  5
11F
  8
10_ZEICHNUNG-WERKZEICHNUNG
  6
CONTINUOUS
 62
     7
 10
196.06825140199359
 20
3248.4122641811359
 30
0.0
  0
VERTEX
  5
120
  8
10_ZEICHNUNG-WERKZEICHNUNG
  6
CONTINUOUS
 62
     7
 10
198.94922420315561
 20
3248.5567109376129
 30
0.0
  0
VERTEX
  5
121
  8
10_ZEICHNUNG-WERKZEICHNUNG
  6
CONTINUOUS
 62
     7
 10
201.83017616106011
 20
3248.7033578711748
 30
0.0
  0
VERTEX
  5
122
  8
10_ZEICHNUNG-WERKZEICHNUNG
  6
CONTINUOUS
 62
     7
 10
204.71110696063761
 20
3248.8522049657849
 30
0.0
  0
VERTEX
  5
123
  8
10_ZEICHNUNG-WERKZEICHNUNG
  6
CONTINUOUS
 62
     7
 10
207.59201628680779
 20
3249.0032522051579
 30
0.0
  0
VERTEX
  5
124
  8
10_ZEICHNUNG-WERKZEICHNUNG
  6
CONTINUOUS
 62
     7
 10
210.4729038244927
 20
3249.1564995727808
 30
0.0
  0
VERTEX
  5
125
  8
10_ZEICHNUNG-WERKZEICHNUNG
  6
CONTINUOUS
 62
     7
 10
213.35376925862971
 20
3249.3119470518891
 30
0.0
  0
VERTEX
  5
126
  8
10_ZEICHNUNG-WERKZEICHNUNG
  6
CONTINUOUS
 62
     7
 10
216.23461227414461
 20
3249.469594625481
 30
0.0
  0
VERTEX
  5
127
  8
10_ZEICHNUNG-WERKZEICHNUNG
  6
CONTINUOUS
 62
     7
 10
219.11543255596689
 20
3249.6294422763181
 30
0.0
  0
VERTEX
  5
128
  8
10_ZEICHNUNG-WERKZEICHNUNG
  6
CONTINUOUS
 62
     7
 10
221.99622978904111
 20
3249.7914899869252
 30
0.0
  0
VERTEX
  5
129
  8
10_ZEICHNUNG-WERKZEICHNUNG
  6
CONTINUOUS
 62
     7
 10
224.8770036583019
 20
3249.9557377395649
 30
0.0
  0
VERTEX
  5
12A
  8
10_ZEICHNUNG-WERKZEICHNUNG
  6
CONTINUOUS
 62
     7
 10
227.75775384868481
 20
3250.122185516288
 30
0.0
  0
VERTEX
  5
12B
  8
10_ZEICHNUNG-WERKZEICHNUNG
  6
CONTINUOUS
 62
     7
 10
230.6384800451433
 20
3250.2908332988791
 30
0.0
  0
VERTEX
  5
12C
  8
10_ZEICHNUNG-WERKZEICHNUNG
  6
CONTINUOUS
 62
     7
 10
233.5191819326183
 20
3250.461681068899
 30
0.0
  0
VERTEX
  5
12D
  8
10_ZEICHNUNG-WERKZEICHNUNG
  6
CONTINUOUS
 62
     7
 10
236.39985919604311
 20
3250.634728807669
 30
0.0
  0
SEQEND
  5
12E
  8
10_ZEICHNUNG-WERKZEICHNUNG
  6
CONTINUOUS
 62
     7
  0
ENDBLK
  5
44
  8
0
  0
BLOCK
  8
0
  2
*D2
 70
     1
 10
0.0
 20
0.0
 30
0.0
  3
*D2
  1

  0
LINE
  5
372
  8
BEMAŠUNG
  6
CONTINUOUS
 62
     0
 10
288.0
 20
3234.2348696115509
 30
0.0
 11
402.71277583441179
 21
3234.2348696115509
 31
0.0
  0
LINE
  5
373
  8
BEMAŠUNG
  6
CONTINUOUS
 62
     0
 10
288.0
 20
3415.2348696115509
 30
0.0
 11
402.71277583441179
 21
3415.2348696115509
 31
0.0
  0
LINE
  5
374
  8
BEMAŠUNG
  6
CONTINUOUS
 62
     0
 10
382.7127758344119
 20
3248.3735414865509
 30
0.0
 11
382.7127758344119
 21
3401.0961977365509
 31
0.0
  0
INSERT
  5
375
  8
BEMAŠUNG
  6
CONTINUOUS
 62
     0
  2
VW_SLASH
 10
382.7127758344119
 20
3234.2348696115509
 30
0.0
 41
14.138671875
 42
14.138671875
 43
14.138671875
 50
270.0
  0
INSERT
  5
376
  8
BEMAŠUNG
  6
CONTINUOUS
 62
     0
  2
VW_SLASH
 10
382.7127758344119
 20
3415.2348696115509
 30
0.0
 41
14.138671875
 42
14.138671875
 43
14.138671875
 50
90.0
  0
TEXT
  8
BEMAŠUNG
  40
35.3696
  5
3C3
  62
0
  72
0
  71
0
 10
291.415
 20
3262.13
 30
0.000000
  1
181
  7
ARIAL
  0
POINT
  5
378
  8
DEFPOINTS
  6
CONTINUOUS
 62
     0
 10
258.0
 20
3234.2348696115509
 30
0.0
  0
POINT
  5
379
  8
DEFPOINTS
  6
CONTINUOUS
 62
     0
 10
258.0
 20
3415.2348696115509
 30
0.0
  0
POINT
  5
37A
  8
DEFPOINTS
  6
CONTINUOUS
 62
     0
 10
382.7127758344119
 20
3415.2348696115509
 30
0.0
  0
ENDBLK
  5
47
  8
0
  0
BLOCK
  8
0
  2
*D3
 70
     1
 10
0.0
 20
0.0
 30
0.0
  3
*D3
  1

  0
LINE
  5
37B
  8
BEMAŠUNG
  6
CONTINUOUS
 62
     0
 10
76.749475477055483
 20
3245.0257789084449
 30
0.0
 11
55.302845784024122
 21
3245.0257789084449
 31
0.0
  0
LINE
  5
37C
  8
BEMAŠUNG
  6
CONTINUOUS
 62
     0
 10
65.260834641995203
 20
3415.2348696115509
 30
0.0
 11
55.302845784024157
 21
3415.2348696115509
 31
0.0
  0
LINE
  5
37D
  8
BEMAŠUNG
  6
CONTINUOUS
 62
     0
 10
75.302845784024129
 20
3259.164450783444
 30
0.0
 11
75.302845784024143
 21
3401.0961977365509
 31
0.0
  0
INSERT
  5
37E
  8
BEMAŠUNG
  6
CONTINUOUS
 62
     0
  2
VW_SLASH
 10
75.302845784024129
 20
3245.0257789084449
 30
0.0
 41
14.138671875
 42
14.138671875
 43
14.138671875
 50
270.0
  0
INSERT
  5
37F
  8
BEMAŠUNG
  6
CONTINUOUS
 62
     0
  2
VW_SLASH
 10
75.302845784024143
 20
3415.2348696115509
 30
0.0
 41
14.138671875
 42
14.138671875
 43
14.138671875
 50
90.0
  0
TEXT
  8
BEMAŠUNG
  40
35.3696
  5
3C4
  62
0
  72
0
  71
0
 10
-15.9952
 20
3267.53
 30
0.000000
  1
170
  7
ARIAL
  0
POINT
  5
381
  8
DEFPOINTS
  6
CONTINUOUS
 62
     0
 10
106.7494754770555
 20
3245.0257789084449
 30
0.0
  0
POINT
  5
382
  8
DEFPOINTS
  6
CONTINUOUS
 62
     0
 10
95.260834641995217
 20
3415.2348696115509
 30
0.0
  0
POINT
  5
383
  8
DEFPOINTS
  6
CONTINUOUS
 62
     0
 10
75.302845784024143
 20
3415.2348696115509
 30
0.0
  0
ENDBLK
  5
4A
  8
0
  0
BLOCK
  8
0
  2
*D4
 70
     1
 10
0.0
 20
0.0
 30
0.0
  3
*D4
  1

  0
LINE
  5
384
  8
BEMAŠUNG
  6
CONTINUOUS
 62
     0
 10
246.0
 20
4058.5715537159631
 30
0.0
 11
246.0
 21
4165.5738793701976
 31
0.0
  0
LINE
  5
385
  8
BEMAŠUNG
  6
CONTINUOUS
 62
     0
 10
-254.0
 20
4058.5715537159631
 30
0.0
 11
-254.0
 21
4165.5738793701976
 31
0.0
  0
LINE
  5
386
  8
BEMAŠUNG
  6
CONTINUOUS
 62
     0
 10
231.861328125
 20
4145.5738793701967
 30
0.0
 11
-239.861328125
 21
4145.5738793701967
 31
0.0
  0
INSERT
  5
387
  8
BEMAŠUNG
  6
CONTINUOUS
 62
     0
  2
VW_SLASH
 10
246.0
 20
4145.5738793701967
 30
0.0
 41
14.138671875
 42
14.138671875
 43
14.138671875
  0
INSERT
  5
388
  8
BEMAŠUNG
  6
CONTINUOUS
 62
     0
  2
VW_SLASH
 10
-254.0
 20
4145.5738793701967
 30
0.0
 41
14.138671875
 42
14.138671875
 43
14.138671875
 50
180.0
  0
TEXT
  8
BEMAŠUNG
  40
35.3696
  5
3C5
  62
0
  72
0
  71
0
 10
-74.7393
 20
4103.53
 30
0.000000
  1
500
  7
ARIAL
  0
POINT
  5
38A
  8
DEFPOINTS
  6
CONTINUOUS
 62
     0
 10
246.0
 20
4028.5715537159631
 30
0.0
  0
POINT
  5
38B
  8
DEFPOINTS
  6
CONTINUOUS
 62
     0
 10
-254.0
 20
4028.5715537159631
 30
0.0
  0
POINT
  5
38C
  8
DEFPOINTS
  6
CONTINUOUS
 62
     0
 10
-254.0
 20
4145.5738793701967
 30
0.0
  0
ENDBLK
  5
4D
  8
0
  0
BLOCK
  8
0
  2
*D5
 70
     1
 10
0.0
 20
0.0
 30
0.0
  3
*D5
  1

  0
LINE
  5
38D
  8
BEMAŠUNG
  6
CONTINUOUS
 62
     0
 10
258.0
 20
4080.5715537159608
 30
0.0
 11
258.0
 21
4244.7027777777766
 31
0.0
  0
LINE
  5
38E
  8
BEMAŠUNG
  6
CONTINUOUS
 62
     0
 10
-266.0
 20
4080.5715537159608
 30
0.0
 11
-266.0
 21
4244.7027777777766
 31
0.0
  0
LINE
  5
38F
  8
BEMAŠUNG
  6
CONTINUOUS
 62
     0
 10
243.861328125
 20
4224.7027777777766
 30
0.0
 11
-251.861328125
 21
4224.7027777777766
 31
0.0
  0
INSERT
  5
390
  8
BEMAŠUNG
  6
CONTINUOUS
 62
     0
  2
VW_SLASH
 10
258.0
 20
4224.7027777777766
 30
0.0
 41
14.138671875
 42
14.138671875
 43
14.138671875
  0
INSERT
  5
391
  8
BEMAŠUNG
  6
CONTINUOUS
 62
     0
  2
VW_SLASH
 10
-266.0
 20
4224.7027777777766
 30
0.0
 41
14.138671875
 42
14.138671875
 43
14.138671875
 50
180.0
  0
TEXT
  8
BEMAŠUNG
  40
35.3696
  5
3C6
  62
0
  72
0
  71
0
 10
-74.7393
 20
4182.66
 30
0.000000
  1
524
  7
ARIAL
  0
POINT
  5
393
  8
DEFPOINTS
  6
CONTINUOUS
 62
     0
 10
258.0
 20
4050.5715537159608
 30
0.0
  0
POINT
  5
394
  8
DEFPOINTS
  6
CONTINUOUS
 62
     0
 10
-266.0
 20
4050.5715537159608
 30
0.0
  0
POINT
  5
395
  8
DEFPOINTS
  6
CONTINUOUS
 62
     0
 10
-266.0
 20
4224.7027777777766
 30
0.0
  0
ENDBLK
  5
50
  8
0
  0
BLOCK
  8
0
  2
*D6
 70
     1
 10
0.0
 20
0.0
 30
0.0
  3
*D6
  1

  0
LINE
  5
396
  8
BEMAŠUNG
  6
CONTINUOUS
 62
     0
 10
266.0
 20
3638.5715537159631
 30
0.0
 11
402.71277583441167
 21
3638.5715537159631
 31
0.0
  0
LINE
  5
397
  8
BEMAŠUNG
  6
CONTINUOUS
 62
     0
 10
266.0
 20
4038.5715537159631
 30
0.0
 11
402.71277583441179
 21
4038.5715537159631
 31
0.0
  0
LINE
  5
398
  8
BEMAŠUNG
  6
CONTINUOUS
 62
     0
 10
382.71277583441167
 20
3652.710225590964
 30
0.0
 11
382.7127758344119
 21
4024.4328818409631
 31
0.0
  0
INSERT
  5
399
  8
BEMAŠUNG
  6
CONTINUOUS
 62
     0
  2
VW_SLASH
 10
382.71277583441167
 20
3638.5715537159631
 30
0.0
 41
14.138671875
 42
14.138671875
 43
14.138671875
 50
270.0
  0
INSERT
  5
39A
  8
BEMAŠUNG
  6
CONTINUOUS
 62
     0
  2
VW_SLASH
 10
382.7127758344119
 20
4038.5715537159631
 30
0.0
 41
14.138671875
 42
14.138671875
 43
14.138671875
 50
90.0
  0
TEXT
  8
BEMAŠUNG
  40
35.3696
  5
3C7
  62
0
  72
0
  71
0
 10
291.415
 20
3775.97
 30
0.000000
  1
400
  7
ARIAL
  0
POINT
  5
39C
  8
DEFPOINTS
  6
CONTINUOUS
 62
     0
 10
236.0
 20
3638.5715537159631
 30
0.0
  0
POINT
  5
39D
  8
DEFPOINTS
  6
CONTINUOUS
 62
     0
 10
236.0
 20
4038.5715537159631
 30
0.0
  0
POINT
  5
39E
  8
DEFPOINTS
  6
CONTINUOUS
 62
     0
 10
382.7127758344119
 20
4038.5715537159631
 30
0.0
  0
ENDBLK
  5
53
  8
0
  0
BLOCK
  8
0
  2
*D7
 70
     1
 10
0.0
 20
0.0
 30
0.0
  3
*D7
  1

  0
LINE
  5
39F
  8
BEMAŠUNG
  6
CONTINUOUS
 62
     0
 10
288.0
 20
3626.5715537159622
 30
0.0
 11
488.99136601934129
 21
3626.5715537159622
 31
0.0
  0
LINE
  5
3A0
  8
BEMAŠUNG
  6
CONTINUOUS
 62
     0
 10
288.0
 20
4050.5715537159608
 30
0.0
 11
488.99136601934151
 21
4050.5715537159608
 31
0.0
  0
LINE
  5
3A1
  8
BEMAŠUNG
  6
CONTINUOUS
 62
     0
 10
468.9913660193414
 20
3640.7102255909622
 30
0.0
 11
468.99136601934151
 21
4036.4328818409608
 31
0.0
  0
INSERT
  5
3A2
  8
BEMAŠUNG
  6
CONTINUOUS
 62
     0
  2
VW_SLASH
 10
468.9913660193414
 20
3626.5715537159622
 30
0.0
 41
14.138671875
 42
14.138671875
 43
14.138671875
 50
270.0
  0
INSERT
  5
3A3
  8
BEMAŠUNG
  6
CONTINUOUS
 62
     0
  2
VW_SLASH
 10
468.99136601934151
 20
4050.5715537159608
 30
0.0
 41
14.138671875
 42
14.138671875
 43
14.138671875
 50
90.0
  0
TEXT
  8
BEMAŠUNG
  40
35.3696
  5
3C8
  62
0
  72
0
  71
0
 10
377.995
 20
3775.97
 30
0.000000
  1
424
  7
ARIAL
  0
POINT
  5
3A5
  8
DEFPOINTS
  6
CONTINUOUS
 62
     0
 10
258.0
 20
3626.5715537159622
 30
0.0
  0
POINT
  5
3A6
  8
DEFPOINTS
  6
CONTINUOUS
 62
     0
 10
258.0
 20
4050.5715537159608
 30
0.0
  0
POINT
  5
3A7
  8
DEFPOINTS
  6
CONTINUOUS
 62
     0
 10
468.99136601934151
 20
4050.5715537159608
 30
0.0
  0
ENDBLK
  5
56
  8
0
  0
BLOCK
  8
0
  2
*D8
 70
     1
 10
0.0
 20
0.0
 30
0.0
  3
*D8
  1

  0
LINE
  5
3A8
  8
BEMAŠUNG
  6
CONTINUOUS
 62
     0
 10
26.0
 20
3913.5715537159631
 30
0.0
 11
140.8405672248314
 21
3913.5715537159631
 31
0.0
  0
LINE
  5
3A9
  8
BEMAŠUNG
  6
CONTINUOUS
 62
     0
 10
87.381355720916844
 20
4038.5715537159631
 30
0.0
 11
140.8405672248314
 21
4038.5715537159631
 31
0.0
  0
LINE
  5
3AA
  8
BEMAŠUNG
  6
CONTINUOUS
 62
     0
 10
120.8405672248314
 20
3927.7102255909631
 30
0.0
 11
120.8405672248314
 21
4024.4328818409631
 31
0.0
  0
INSERT
  5
3AB
  8
BEMAŠUNG
  6
CONTINUOUS
 62
     0
  2
VW_SLASH
 10
120.8405672248314
 20
3913.5715537159631
 30
0.0
 41
14.138671875
 42
14.138671875
 43
14.138671875
 50
270.0
  0
INSERT
  5
3AC
  8
BEMAŠUNG
  6
CONTINUOUS
 62
     0
  2
VW_SLASH
 10
120.8405672248314
 20
4038.5715537159631
 30
0.0
 41
14.138671875
 42
14.138671875
 43
14.138671875
 50
90.0
  0
TEXT
  8
BEMAŠUNG
  40
35.3696
  5
3C9
  62
0
  72
0
  71
0
 10
29.5425
 20
3913.47
 30
0.000000
  1
125
  7
ARIAL
  0
POINT
  5
3AE
  8
DEFPOINTS
  6
CONTINUOUS
 62
     0
 10
-3.9999999999999991
 20
3913.5715537159631
 30
0.0
  0
POINT
  5
3AF
  8
DEFPOINTS
  6
CONTINUOUS
 62
     0
 10
57.381355720916858
 20
4038.5715537159631
 30
0.0
  0
POINT
  5
3B0
  8
DEFPOINTS
  6
CONTINUOUS
 62
     0
 10
120.8405672248314
 20
4038.5715537159631
 30
0.0
  0
ENDBLK
  5
59
  8
0
  0
BLOCK
  8
0
  2
*D9
 70
     1
 10
0.0
 20
0.0
 30
0.0
  3
*D9
  1

  0
LINE
  5
3B1
  8
BEMAŠUNG
  6
CONTINUOUS
 62
     0
 10
46.223464641725514
 20
3946.6512068923512
 30
0.0
 11
58.031059735793633
 21
3954.4282719225198
 31
0.0
  0
LINE
  5
3B2
  8
BEMAŠUNG
  6
CONTINUOUS
 62
     0
 10
-54.223464641725279
 20
3880.4919005395732
 30
0.0
 11
-70.216500256609152
 21
3869.9580977612891
 31
0.0
  0
LINE
  5
3B3
  8
BEMAŠUNG
  6
CONTINUOUS
 62
     0
 10
-70.216500256609152
 20
3869.9580977612891
 30
0.0
 11
-161.50251725928729
 21
3869.95809776129
 31
0.0
  0
LINE
  5
3B4
  8
BEMAŠUNG
  6
CONTINUOUS
 62
     0
 10
34.415869547657167
 20
3938.8741418621839
 30
0.0
 11
-42.415869547657167
 21
3888.26896556974
 31
0.0
  0
INSERT
  5
3B5
  8
BEMAŠUNG
  6
CONTINUOUS
 62
     0
  2
VW_EMPTYARROW
 10
34.415869547657167
 20
3938.8741418621839
 30
0.0
 41
14.138671875
 42
14.138671875
 43
14.138671875
 50
213.3708730033056
  0
INSERT
  5
3B6
  8
BEMAŠUNG
  6
CONTINUOUS
 62
     0
  2
VW_EMPTYARROW
 10
-42.415869547657167
 20
3888.26896556974
 30
0.0
 41
14.138671875
 42
14.138671875
 43
14.138671875
 50
33.370873003305633
  0
TEXT
  8
BEMAŠUNG
  40
35.3696
  5
3CA
  62
0
  72
0
  71
0
 10
-187.849
 20
3828.90
 30
0.000000
  1
%%c92
  7
ARIAL
  0
POINT
  5
3B8
  8
DEFPOINTS
  6
CONTINUOUS
 62
     0
 10
-42.415869547657167
 20
3888.26896556974
 30
0.0
  0
POINT
  5
3B9
  8
DEFPOINTS
  6
CONTINUOUS
 62
     0
 10
34.415869547657167
 20
3938.8741418621839
 30
0.0
  0
ENDBLK
  5
5C
  8
0
  0
BLOCK
  8
0
  2
*D10
 70
     1
 10
0.0
 20
0.0
 30
0.0
  3
*D10
  1

  0
LINE
  5
3BA
  8
BEMAŠUNG
  6
CONTINUOUS
 62
     0
 10
218.94860786842059
 20
3665.657381359481
 30
0.0
 11
208.961147099709
 21
3675.6650119373139
 31
0.0
  0
LINE
  5
3BB
  8
BEMAŠUNG
  6
CONTINUOUS
 62
     0
 10
208.961147099709
 20
3675.6650119373139
 30
0.0
 11
122.06617767705499
 21
3675.6650119373139
 31
0.0
  0
LINE
  5
3BC
  8
BEMAŠUNG
  6
CONTINUOUS
 62
     0
 10
235.9999999999998
 20
3648.571553715964
 30
0.0
 11
228.93606863713259
 21
3655.6497507816498
 31
0.0
  0
INSERT
  5
3BD
  8
BEMAŠUNG
  6
CONTINUOUS
 62
     0
  2
VW_EMPTYARROW
 10
228.93606863713259
 20
3655.6497507816498
 30
0.0
 41
14.138671875
 42
14.138671875
 43
14.138671875
 50
314.94220358766091
  0
TEXT
  8
BEMAŠUNG
  40
35.3696
  5
3CB
  62
0
  72
0
  71
0
 10
93.5244
 20
3633.62
 30
0.000000
  1
R10
  7
ARIAL
  0
POINT
  5
3BF
  8
DEFPOINTS
  6
CONTINUOUS
 62
     0
 10
228.93606863713259
 20
3655.6497507816498
 30
0.0
  0
POINT
  5
3C0
  8
DEFPOINTS
  6
CONTINUOUS
 62
     0
 10
235.9999999999998
 20
3648.571553715964
 30
0.0
  0
ENDBLK
  5
5F
  8
0
  0
BLOCK
  8
0
  2
VW_SLASH
 70
     0
 10
0.0
 20
0.0
 30
0.0
  3
VW_SLASH
  1

  0
LINE
  5
9B
  8
0
  6
BYBLOCK
 62
     0
 10
0.0
 20
0.0
 30
0.0
 11
-1.0
 21
0.0
 31
0.0
  0
POLYLINE
  5
9C
  8
10_ZEICHNUNG-WERKZEICHNUNG
 62
     0
 66
     1
 10
0.0
 20
0.0
 30
0.0
 70
   128
  0
VERTEX
  5
9D
  8
10_ZEICHNUNG-WERKZEICHNUNG
 62
     0
 10
0.4987813153181721
 20
0.4987813153181719
 30
0.0
  0
VERTEX
  5
9E
  8
10_ZEICHNUNG-WERKZEICHNUNG
 62
     0
 10
-0.4987813153181719
 20
-0.4987813153181721
 30
0.0
  0
SEQEND
  5
9F
  8
10_ZEICHNUNG-WERKZEICHNUNG
 62
     0
  0
ENDBLK
  5
9A
  8
0
  0
BLOCK
  8
0
  2
VW_EMPTYARROW
 70
     0
 10
0.0
 20
0.0
 30
0.0
  3
VW_EMPTYARROW
  1

  0
LINE
  5
A3
  8
0
  6
BYBLOCK
 62
     0
 10
0.0
 20
0.0
 30
0.0
 11
-1.0
 21
0.0
 31
0.0
  0
POLYLINE
  5
A4
  8
10_ZEICHNUNG-WERKZEICHNUNG
 62
     0
 66
     1
 10
0.0
 20
0.0
 30
0.0
 70
   128
  0
VERTEX
  5
A5
  8
10_ZEICHNUNG-WERKZEICHNUNG
 62
     0
 10
-0.6976318359375
 20
0.1869298870536946
 30
0.0
  0
VERTEX
  5
A6
  8
10_ZEICHNUNG-WERKZEICHNUNG
 62
     0
 10
0.0
 20
0.0
 30
0.0
  0
VERTEX
  5
A7
  8
10_ZEICHNUNG-WERKZEICHNUNG
 62
     0
 10
-0.6976318359375
 20
-0.1869298870536948
 30
0.0
  0
SEQEND
  5
A8
  8
10_ZEICHNUNG-WERKZEICHNUNG
 62
     0
  0
ENDBLK
  5
A2
  8
0
  0
BLOCK
  8
0
  2
*U14
 70
     1
 10
0.0
 20
0.0
 30
0.0
  3
*U14
  1

  0
TEXT
  5
34C
  8
BEMAŠUNG
 62
     0
 10
379.53981160282029
 20
3285.3602012016681
 30
0.0
 40
35.36964699074074
  1
181
 50
90.0
  7
ARIAL
  0
ENDBLK
  5
34E
  8
0
  0
BLOCK
  8
0
  2
*U15
 70
     1
 10
0.0
 20
0.0
 30
0.0
  3
*U15
  1

  0
TEXT
  5
350
  8
BEMAŠUNG
 62
     0
 10
72.129881552432721
 20
3287.4020535774589
 30
0.0
 40
35.36964699074074
  1
170
 50
90.0
  7
ARIAL
  0
ENDBLK
  5
352
  8
0
  0
BLOCK
  8
0
  2
*U16
 70
     1
 10
0.0
 20
0.0
 30
0.0
  3
*U16
  1

  0
TEXT
  5
354
  8
BEMAŠUNG
 62
     0
 10
-45.051469546211017
 20
4227.8757420093689
 30
0.0
 40
35.36964699074074
  1
524
  7
ARIAL
  0
ENDBLK
  5
356
  8
0
  0
BLOCK
  8
0
  2
*U17
 70
     1
 10
0.0
 20
0.0
 30
0.0
  3
*U17
  1

  0
TEXT
  5
358
  8
BEMAŠUNG
 62
     0
 10
466.42062672536019
 20
3798.231819903875
 30
0.0
 40
35.36964699074074
  1
424
 50
90.0
  7
ARIAL
  0
ENDBLK
  5
35A
  8
0
  0
BLOCK
  8
0
  2
*U18
 70
     1
 10
0.0
 20
0.0
 30
0.0
  3
*U18
  1

  0
TEXT
  5
35C
  8
BEMAŠUNG
 62
     0
 10
117.6676029932399
 20
3933.1502699529842
 30
0.0
 40
35.36964699074074
  1
125
 50
90.0
  7
ARIAL
  0
ENDBLK
  5
35E
  8
0
  0
BLOCK
  8
0
  2
*U19
 70
     1
 10
0.0
 20
0.0
 30
0.0
  3
*U19
  1

  0
TEXT
  5
360
  8
BEMAŠUNG
 62
     0
 10
-161.502517259287
 20
3874.5138800810619
 30
0.0
 40
35.36964699074074
  1
\U+2205
  7
ARIAL
  0
TEXT
  5
361
  8
BEMAŠUNG
 62
     0
 10
-123.0687876165517
 20
3874.5138800810619
 30
0.0
 40
35.36964699074074
  1
92
  7
ARIAL
  0
ENDBLK
  5
363
  8
0
  0
BLOCK
  8
0
  2
*U20
 70
     1
 10
0.0
 20
0.0
 30
0.0
  3
*U20
  1

  0
TEXT
  5
365
  8
BEMAŠUNG
 62
     0
 10
118.20902332390401
 20
3678.8106872789858
 30
0.0
 40
35.36964699074074
  1
R10
  7
ARIAL
  0
ENDBLK
  5
367
  8
0
  0
ENDSEC
  0
SECTION
  2
ENTITIES
  0
CIRCLE
  5
1EC
  8
10_ZEICHNUNG-WERKZEICHNUNG
  6
CONTINUOUS
 62
     7
 10
-4.0
 20
3385.2348696115509
 30
0.0
 40
18.0
  0
CIRCLE
  5
1ED
  8
10_ZEICHNUNG-WERKZEICHNUNG
  6
CONTINUOUS
 62
     7
 10
-4.0
 20
3385.2348696115509
 30
0.0
 40
16.0
  0
POLYLINE
  5
1F3
  8
10_ZEICHNUNG-WERKZEICHNUNG
  6
CONTINUOUS
 62
     7
 66
     1
 10
0.0
 20
0.0
 30
0.0
 70
   129
  0
VERTEX
  5
1F4
  8
10_ZEICHNUNG-WERKZEICHNUNG
  6
CONTINUOUS
 62
     7
 10
-266.0
 20
4050.5715537159608
 30
0.0
  0
VERTEX
  5
1F5
  8
10_ZEICHNUNG-WERKZEICHNUNG
  6
CONTINUOUS
 62
     7
 10
258.0
 20
4050.5715537159608
 30
0.0
  0
VERTEX
  5
1F6
  8
10_ZEICHNUNG-WERKZEICHNUNG
  6
CONTINUOUS
 62
     7
 10
258.0
 20
3626.5715537159622
 30
0.0
  0
VERTEX
  5
1F7
  8
10_ZEICHNUNG-WERKZEICHNUNG
  6
CONTINUOUS
 62
     7
 10
-266.0
 20
3626.5715537159622
 30
0.0
  0
SEQEND
  5
1F8
  8
10_ZEICHNUNG-WERKZEICHNUNG
  6
CONTINUOUS
 62
     7
  0
POLYLINE
  5
1F9
  8
10_ZEICHNUNG-WERKZEICHNUNG
  6
CONTINUOUS
 62
     7
 66
     1
 10
0.0
 20
0.0
 30
0.0
 70
     1
  0
VERTEX
  5
368
  8
10_ZEICHNUNG-WERKZEICHNUNG
  6
CONTINUOUS
 62
     7
 10
-244.0
 20
4038.5715537159631
 30
0.0
  0
VERTEX
  5
369
  8
10_ZEICHNUNG-WERKZEICHNUNG
  6
CONTINUOUS
 62
     7
 10
236.0
 20
4038.5715537159631
 30
0.0
 42
-0.4142135623730951
  0
VERTEX
  5
36A
  8
10_ZEICHNUNG-WERKZEICHNUNG
  6
CONTINUOUS
 62
     7
 10
246.0
 20
4028.5715537159631
 30
0.0
  0
VERTEX
  5
36B
  8
10_ZEICHNUNG-WERKZEICHNUNG
  6
CONTINUOUS
 62
     7
 10
246.0
 20
3648.571553715964
 30
0.0
 42
-0.4142135623730951
  0
VERTEX
  5
36C
  8
10_ZEICHNUNG-WERKZEICHNUNG
  6
CONTINUOUS
 62
     7
 10
236.0
 20
3638.5715537159631
 30
0.0
  0
VERTEX
  5
36D
  8
10_ZEICHNUNG-WERKZEICHNUNG
  6
CONTINUOUS
 62
     7
 10
-244.0
 20
3638.5715537159622
 30
0.0
 42
-0.4142135623730951
  0
VERTEX
  5
36E
  8
10_ZEICHNUNG-WERKZEICHNUNG
  6
CONTINUOUS
 62
     7
 10
-254.0
 20
3648.5715537159622
 30
0.0
  0
VERTEX
  5
36F
  8
10_ZEICHNUNG-WERKZEICHNUNG
  6
CONTINUOUS
 62
     7
 10
-254.0
 20
4028.5715537159631
 30
0.0
 42
-0.4142135623730951
  0
VERTEX
  5
370
  8
10_ZEICHNUNG-WERKZEICHNUNG
  6
CONTINUOUS
 62
     7
 10
-244.0
 20
4038.5715537159631
 30
0.0
  0
SEQEND
  5
371
  8
10_ZEICHNUNG-WERKZEICHNUNG
  6
CONTINUOUS
 62
     7
  0
CIRCLE
  5
1FA
  8
10_ZEICHNUNG-WERKZEICHNUNG
  6
CONTINUOUS
 62
     7
 10
-4.0
 20
3913.5715537159631
 30
0.0
 40
46.000000000000043
  0
CIRCLE
  5
1FB
  8
10_ZEICHNUNG-WERKZEICHNUNG
  6
CONTINUOUS
 62
     7
 10
-4.0
 20
3913.5715537159631
 30
0.0
 40
56.000000000000263
  0
DIMENSION
  5
1FC
  8
BEMAŠUNG
  6
CONTINUOUS
 62
     7
  2
*D2
 10
382.7127758344119
 20
3415.2348696115509
 30
0.0
 11
362.15398949568731
 21
3324.7348696115509
 31
0.0
 70
     0
 13
258.0
 23
3234.2348696115509
 33
0.0
 14
258.0
 24
3415.2348696115509
 34
0.0
 50
-90.0
1001
ACAD
1000
DSTYLE
1002
{
1070
   287
1070
     5
1070
   147
1040
2.5
1070
   340
1005
61
1070
   279
1070
     2
1002
}
  0
DIMENSION
  5
1FD
  8
BEMAŠUNG
  6
CONTINUOUS
 62
     7
  2
*D3
 10
75.302845784024143
 20
3415.2348696115509
 30
0.0
 11
54.744059445299563
 21
3330.1303242599979
 31
0.0
 70
     0
  1
170
 13
106.7494754770555
 23
3245.0257789084449
 33
0.0
 14
95.260834641995217
 24
3415.2348696115509
 34
0.0
 50
-90.0
1001
ACAD
1000
DSTYLE
1002
{
1070
   287
1070
     5
1070
   147
1040
2.5
1070
   340
1005
61
1070
   279
1070
     2
1002
}
  0
DIMENSION
  5
1FE
  8
BEMAŠUNG
  6
CONTINUOUS
 62
     7
  2
*D4
 10
-254.0
 20
4145.5738793701967
 30
0.0
 11
-3.9999999999999978
 21
4166.1326657089212
 31
0.0
 70
     0
 13
246.0
 23
4028.5715537159631
 33
0.0
 14
-254.0
 24
4028.5715537159631
 34
0.0
1001
ACAD
1000
DSTYLE
1002
{
1070
   287
1070
     5
1070
   147
1040
2.5
1070
   340
1005
61
1070
   279
1070
     2
1002
}
  0
DIMENSION
  5
1FF
  8
BEMAŠUNG
  6
CONTINUOUS
 62
     7
  2
*D5
 10
-266.0
 20
4224.7027777777766
 30
0.0
 11
-3.9999999999999978
 21
4245.2615641165012
 31
0.0
 70
     0
 13
258.0
 23
4050.5715537159608
 33
0.0
 14
-266.0
 24
4050.5715537159608
 34
0.0
1001
ACAD
1000
DSTYLE
1002
{
1070
   287
1070
     5
1070
   147
1040
2.5
1070
   340
1005
61
1070
   279
1070
     2
1002
}
  0
DIMENSION
  5
200
  8
BEMAŠUNG
  6
CONTINUOUS
 62
     7
  2
*D6
 10
382.7127758344119
 20
4038.5715537159631
 30
0.0
 11
362.1539894956872
 21
3838.571553715964
 31
0.0
 70
     0
 13
236.0
 23
3638.5715537159631
 33
0.0
 14
236.0
 24
4038.5715537159631
 34
0.0
 50
-90.0
1001
ACAD
1000
DSTYLE
1002
{
1070
   287
1070
     5
1070
   147
1040
2.5
1070
   340
1005
61
1070
   279
1070
     2
1002
}
  0
DIMENSION
  5
201
  8
BEMAŠUNG
  6
CONTINUOUS
 62
     7
  2
*D7
 10
468.99136601934151
 20
4050.5715537159608
 30
0.0
 11
448.73416261880521
 21
3838.5715537159622
 31
0.0
 70
     0
 13
258.0
 23
3626.5715537159622
 33
0.0
 14
258.0
 24
4050.5715537159608
 34
0.0
 50
-90.0
1001
ACAD
1000
DSTYLE
1002
{
1070
   287
1070
     5
1070
   147
1040
2.5
1070
   340
1005
61
1070
   279
1070
     2
1002
}
  0
DIMENSION
  5
202
  8
BEMAŠUNG
  6
CONTINUOUS
 62
     7
  2
*D8
 10
120.8405672248314
 20
4038.5715537159631
 30
0.0
 11
100.2817808861067
 21
3976.0715537159631
 31
0.0
 70
     0
 13
-4.0
 23
3913.5715537159631
 33
0.0
 14
57.381355720916858
 24
4038.5715537159631
 34
0.0
 50
-90.0
1001
ACAD
1000
DSTYLE
1002
{
1070
   287
1070
     5
1070
   147
1040
2.5
1070
   340
1005
61
1070
   279
1070
     2
1002
}
  0
DIMENSION
  5
203
  8
BEMAŠUNG
  6
CONTINUOUS
 62
     7
  2
*D9
 10
34.415869547657167
 20
3938.8741418621839
 30
0.0
 11
-117.10950875794811
 21
3869.9580977612891
 31
0.0
 70
   131
 15
-42.415869547657167
 25
3888.26896556974
 35
0.0
 40
0.0
1001
ACAD
1000
DSTYLE
1002
{
1070
   147
1040
2.5
1070
   174
1070
     0
1070
     3
1000

1070
    76
1070
     1
1070
    75
1070
     1
1070
    74
1070
     1
1070
    73
1070
     1
1070
   340
1005
61
1070
     5
1000
VW_EMPTYARROW
1070
   289
1070
     0
1002
}
  0
DIMENSION
  5
205
  8
BEMAŠUNG
  6
CONTINUOUS
 62
     7
  2
*D10
 10
235.9999999999998
 20
3648.571553715964
 30
0.0
 11
164.26366238838199
 21
3675.6650119373139
 31
0.0
 70
   132
 15
228.93606863713259
 25
3655.6497507816498
 35
0.0
 40
0.0
1001
ACAD
1000
DSTYLE
1002
{
1070
   147
1040
2.5
1070
   174
1070
     0
1070
     3
1000

1070
    76
1070
     1
1070
    75
1070
     1
1070
    74
1070
     1
1070
    73
1070
     1
1070
   340
1005
61
1070
     5
1000
VW_EMPTYARROW
1070
   289
1070
     0
1002
}
  0
POLYLINE
  5
237
  8
10_ZEICHNUNG-WERKZEICHNUNG
  6
CONTINUOUS
 62
     7
 66
     1
 10
0.0
 20
0.0
 30
0.0
 70
   128
  0
VERTEX
  5
238
  8
10_ZEICHNUNG-WERKZEICHNUNG
  6
CONTINUOUS
 62
     7
 10
-60.0
 20
3243.995436117546
 30
0.0
  0
VERTEX
  5
239
  8
10_ZEICHNUNG-WERKZEICHNUNG
  6
CONTINUOUS
 62
     7
 10
-62.881613197672323
 20
3244.0298588893479
 30
0.0
  0
VERTEX
  5
23A
  8
10_ZEICHNUNG-WERKZEICHNUNG
  6
CONTINUOUS
 62
     7
 10
-65.763221308208813
 20
3244.0664823333218
 30
0.0
  0
VERTEX
  5
23B
  8
10_ZEICHNUNG-WERKZEICHNUNG
  6
CONTINUOUS
 62
     7
 10
-68.644824016455914
 20
3244.1053064454559
 30
0.0
  0
VERTEX
  5
23C
  8
10_ZEICHNUNG-WERKZEICHNUNG
  6
CONTINUOUS
 62
     7
 10
-71.52642100725916
 20
3244.1463312215092
 30
0.0
  0
VERTEX
  5
23D
  8
10_ZEICHNUNG-WERKZEICHNUNG
  6
CONTINUOUS
 62
     7
 10
-74.408011965478195
 20
3244.1895566569892
 30
0.0
  0
VERTEX
  5
23E
  8
10_ZEICHNUNG-WERKZEICHNUNG
  6
CONTINUOUS
 62
     7
 10
-77.289596575960331
 20
3244.2349827471721
 30
0.0
  0
VERTEX
  5
23F
  8
10_ZEICHNUNG-WERKZEICHNUNG
  6
CONTINUOUS
 62
     7
 10
-80.171174523553404
 20
3244.2826094870902
 30
0.0
  0
VERTEX
  5
240
  8
10_ZEICHNUNG-WERKZEICHNUNG
  6
CONTINUOUS
 62
     7
 10
-83.052745493119787
 20
3244.3324368715312
 30
0.0
  0
VERTEX
  5
241
  8
10_ZEICHNUNG-WERKZEICHNUNG
  6
CONTINUOUS
 62
     7
 10
-85.934309169508197
 20
3244.3844648950462
 30
0.0
  0
VERTEX
  5
242
  8
10_ZEICHNUNG-WERKZEICHNUNG
  6
CONTINUOUS
 62
     7
 10
-88.815865237568687
 20
3244.4386935519528
 30
0.0
  0
VERTEX
  5
243
  8
10_ZEICHNUNG-WERKZEICHNUNG
  6
CONTINUOUS
 62
     7
 10
-91.697413382166786
 20
3244.4951228363111
 30
0.0
  0
VERTEX
  5
244
  8
10_ZEICHNUNG-WERKZEICHNUNG
  6
CONTINUOUS
 62
     7
 10
-94.578953288152675
 20
3244.5537527419542
 30
0.0
  0
VERTEX
  5
245
  8
10_ZEICHNUNG-WERKZEICHNUNG
  6
CONTINUOUS
 62
     7
 10
-97.460484640380855
 20
3244.6145832624661
 30
0.0
  0
VERTEX
  5
246
  8
10_ZEICHNUNG-WERKZEICHNUNG
  6
CONTINUOUS
 62
     7
 10
-100.3420071237169
 20
3244.6776143911989
 30
0.0
  0
VERTEX
  5
247
  8
10_ZEICHNUNG-WERKZEICHNUNG
  6
CONTINUOUS
 62
     7
 10
-103.2235204230165
 20
3244.7428461212562
 30
0.0
  0
VERTEX
  5
248
  8
10_ZEICHNUNG-WERKZEICHNUNG
  6
CONTINUOUS
 62
     7
 10
-106.1050242231349
 20
3244.8102784455009
 30
0.0
  0
VERTEX
  5
249
  8
10_ZEICHNUNG-WERKZEICHNUNG
  6
CONTINUOUS
 62
     7
 10
-108.9865182089375
 20
3244.879911356566
 30
0.0
  0
VERTEX
  5
24A
  8
10_ZEICHNUNG-WERKZEICHNUNG
  6
CONTINUOUS
 62
     7
 10
-111.86800206529099
 20
3244.9517448468318
 30
0.0
  0
VERTEX
  5
24B
  8
10_ZEICHNUNG-WERKZEICHNUNG
  6
CONTINUOUS
 62
     7
 10
-114.7494754770551
 20
3245.0257789084449
 30
0.0
  0
VERTEX
  5
24C
  8
10_ZEICHNUNG-WERKZEICHNUNG
  6
CONTINUOUS
 62
     7
 10
-117.6309381290889
 20
3245.1020135332969
 30
0.0
  0
VERTEX
  5
24D
  8
10_ZEICHNUNG-WERKZEICHNUNG
  6
CONTINUOUS
 62
     7
 10
-120.5123897062676
 20
3245.1804487130639
 30
0.0
  0
VERTEX
  5
24E
  8
10_ZEICHNUNG-WERKZEICHNUNG
  6
CONTINUOUS
 62
     7
 10
-123.3938298934527
 20
3245.2610844391638
 30
0.0
  0
VERTEX
  5
24F
  8
10_ZEICHNUNG-WERKZEICHNUNG
  6
CONTINUOUS
 62
     7
 10
-126.2752583755091
 20
3245.3439207027768
 30
0.0
  0
VERTEX
  5
250
  8
10_ZEICHNUNG-WERKZEICHNUNG
  6
CONTINUOUS
 62
     7
 10
-129.15667483731431
 20
3245.428957494843
 30
0.0
  0
VERTEX
  5
251
  8
10_ZEICHNUNG-WERKZEICHNUNG
  6
CONTINUOUS
 62
     7
 10
-132.03807896373431
 20
3245.516194806064
 30
0.0
  0
VERTEX
  5
252
  8
10_ZEICHNUNG-WERKZEICHNUNG
  6
CONTINUOUS
 62
     7
 10
-134.91947043963771
 20
3245.6056326268972
 30
0.0
  0
VERTEX
  5
253
  8
10_ZEICHNUNG-WERKZEICHNUNG
  6
CONTINUOUS
 62
     7
 10
-137.80084894990611
 20
3245.6972709475622
 30
0.0
  0
VERTEX
  5
254
  8
10_ZEICHNUNG-WERKZEICHNUNG
  6
CONTINUOUS
 62
     7
 10
-140.68221417941001
 20
3245.7911097580341
 30
0.0
  0
VERTEX
  5
255
  8
10_ZEICHNUNG-WERKZEICHNUNG
  6
CONTINUOUS
 62
     7
 10
-143.56356581302131
 20
3245.8871490480551
 30
0.0
  0
VERTEX
  5
256
  8
10_ZEICHNUNG-WERKZEICHNUNG
  6
CONTINUOUS
 62
     7
 10
-146.44490353562739
 20
3245.9853888071189
 30
0.0
  0
VERTEX
  5
257
  8
10_ZEICHNUNG-WERKZEICHNUNG
  6
CONTINUOUS
 62
     7
 10
-149.326227032102
 20
3246.0858290244801
 30
0.0
  0
VERTEX
  5
258
  8
10_ZEICHNUNG-WERKZEICHNUNG
  6
CONTINUOUS
 62
     7
 10
-152.20753598732199
 20
3246.1884696891561
 30
0.0
  0
VERTEX
  5
259
  8
10_ZEICHNUNG-WERKZEICHNUNG
  6
CONTINUOUS
 62
     7
 10
-155.0888300861748
 20
3246.2933107899212
 30
0.0
  0
VERTEX
  5
25A
  8
10_ZEICHNUNG-WERKZEICHNUNG
  6
CONTINUOUS
 62
     7
 10
-157.97010901354821
 20
3246.4003523153069
 30
0.0
  0
VERTEX
  5
25B
  8
10_ZEICHNUNG-WERKZEICHNUNG
  6
CONTINUOUS
 62
     7
 10
-160.85137245432361
 20
3246.5095942536132
 30
0.0
  0
VERTEX
  5
25C
  8
10_ZEICHNUNG-WERKZEICHNUNG
  6
CONTINUOUS
 62
     7
 10
-163.7326200933849
 20
3246.6210365928841
 30
0.0
  0
VERTEX
  5
25D
  8
10_ZEICHNUNG-WERKZEICHNUNG
  6
CONTINUOUS
 62
     7
 10
-166.6138516156293
 20
3246.7346793209372
 30
0.0
  0
VERTEX
  5
25E
  8
10_ZEICHNUNG-WERKZEICHNUNG
  6
CONTINUOUS
 62
     7
 10
-169.4950667059434
 20
3246.850522425339
 30
0.0
  0
VERTEX
  5
25F
  8
10_ZEICHNUNG-WERKZEICHNUNG
  6
CONTINUOUS
 62
     7
 10
-172.37626504921539
 20
3246.9685658934268
 30
0.0
  0
VERTEX
  5
260
  8
10_ZEICHNUNG-WERKZEICHNUNG
  6
CONTINUOUS
 62
     7
 10
-175.2574463303495
 20
3247.0888097122879
 30
0.0
  0
VERTEX
  5
261
  8
10_ZEICHNUNG-WERKZEICHNUNG
  6
CONTINUOUS
 62
     7
 10
-178.13861023423661
 20
3247.2112538687679
 30
0.0
  0
VERTEX
  5
262
  8
10_ZEICHNUNG-WERKZEICHNUNG
  6
CONTINUOUS
 62
     7
 10
-181.01975644577121
 20
3247.33589834948
 30
0.0
  0
VERTEX
  5
263
  8
10_ZEICHNUNG-WERKZEICHNUNG
  6
CONTINUOUS
 62
     7
 10
-183.90088464986269
 20
3247.4627431407921
 30
0.0
  0
VERTEX
  5
264
  8
10_ZEICHNUNG-WERKZEICHNUNG
  6
CONTINUOUS
 62
     7
 10
-186.78199453140849
 20
3247.5917882288331
 30
0.0
  0
VERTEX
  5
265
  8
10_ZEICHNUNG-WERKZEICHNUNG
  6
CONTINUOUS
 62
     7
 10
-189.66308577530799
 20
3247.7230335994818
 30
0.0
  0
VERTEX
  5
266
  8
10_ZEICHNUNG-WERKZEICHNUNG
  6
CONTINUOUS
 62
     7
 10
-192.54415806647739
 20
3247.856479238395
 30
0.0
  0
VERTEX
  5
267
  8
10_ZEICHNUNG-WERKZEICHNUNG
  6
CONTINUOUS
 62
     7
 10
-195.42521108981961
 20
3247.9921251309688
 30
0.0
  0
VERTEX
  5
268
  8
10_ZEICHNUNG-WERKZEICHNUNG
  6
CONTINUOUS
 62
     7
 10
-198.30624453024171
 20
3248.1299712623741
 30
0.0
  0
VERTEX
  5
269
  8
10_ZEICHNUNG-WERKZEICHNUNG
  6
CONTINUOUS
 62
     7
 10
-201.18725807265989
 20
3248.2700176175358
 30
0.0
  0
VERTEX
  5
26A
  8
10_ZEICHNUNG-WERKZEICHNUNG
  6
CONTINUOUS
 62
     7
 10
-204.06825140199359
 20
3248.4122641811359
 30
0.0
  0
VERTEX
  5
26B
  8
10_ZEICHNUNG-WERKZEICHNUNG
  6
CONTINUOUS
 62
     7
 10
-206.9492242031547
 20
3248.5567109376129
 30
0.0
  0
VERTEX
  5
26C
  8
10_ZEICHNUNG-WERKZEICHNUNG
  6
CONTINUOUS
 62
     7
 10
-209.8301761610596
 20
3248.7033578711748
 30
0.0
  0
VERTEX
  5
26D
  8
10_ZEICHNUNG-WERKZEICHNUNG
  6
CONTINUOUS
 62
     7
 10
-212.71110696063721
 20
3248.8522049657849
 30
0.0
  0
VERTEX
  5
26E
  8
10_ZEICHNUNG-WERKZEICHNUNG
  6
CONTINUOUS
 62
     7
 10
-215.59201628680779
 20
3249.0032522051579
 30
0.0
  0
VERTEX
  5
26F
  8
10_ZEICHNUNG-WERKZEICHNUNG
  6
CONTINUOUS
 62
     7
 10
-218.47290382449231
 20
3249.1564995727808
 30
0.0
  0
VERTEX
  5
270
  8
10_ZEICHNUNG-WERKZEICHNUNG
  6
CONTINUOUS
 62
     7
 10
-221.35376925862869
 20
3249.3119470518891
 30
0.0
  0
VERTEX
  5
271
  8
10_ZEICHNUNG-WERKZEICHNUNG
  6
CONTINUOUS
 62
     7
 10
-224.2346122741437
 20
3249.469594625481
 30
0.0
  0
VERTEX
  5
272
  8
10_ZEICHNUNG-WERKZEICHNUNG
  6
CONTINUOUS
 62
     7
 10
-227.11543255596641
 20
3249.6294422763181
 30
0.0
  0
VERTEX
  5
273
  8
10_ZEICHNUNG-WERKZEICHNUNG
  6
CONTINUOUS
 62
     7
 10
-229.9962297890406
 20
3249.7914899869252
 30
0.0
  0
VERTEX
  5
274
  8
10_ZEICHNUNG-WERKZEICHNUNG
  6
CONTINUOUS
 62
     7
 10
-232.87700365830099
 20
3249.9557377395649
 30
0.0
  0
VERTEX
  5
275
  8
10_ZEICHNUNG-WERKZEICHNUNG
  6
CONTINUOUS
 62
     7
 10
-235.75775384868481
 20
3250.122185516288
 30
0.0
  0
VERTEX
  5
276
  8
10_ZEICHNUNG-WERKZEICHNUNG
  6
CONTINUOUS
 62
     7
 10
-238.63848004514281
 20
3250.2908332988791
 30
0.0
  0
VERTEX
  5
277
  8
10_ZEICHNUNG-WERKZEICHNUNG
  6
CONTINUOUS
 62
     7
 10
-241.5191819326183
 20
3250.461681068899
 30
0.0
  0
VERTEX
  5
278
  8
10_ZEICHNUNG-WERKZEICHNUNG
  6
CONTINUOUS
 62
     7
 10
-244.3998591960426
 20
3250.634728807669
 30
0.0
  0
SEQEND
  5
279
  8
10_ZEICHNUNG-WERKZEICHNUNG
  6
CONTINUOUS
 62
     7
  0
LINE
  5
27C
  8
10_ZEICHNUNG-WERKZEICHNUNG
  6
CONTINUOUS
 62
     7
 10
-266.0
 20
3415.2348696115509
 30
0.0
 11
-254.0
 21
3415.2348696115509
 31
0.0
  0
LINE
  5
27D
  8
10_ZEICHNUNG-WERKZEICHNUNG
  6
CONTINUOUS
 62
     7
 10
-254.0
 20
3415.2348696115509
 30
0.0
 11
-254.0
 21
3257.9412865520899
 31
0.0
  0
ARC
  5
27E
  8
10_ZEICHNUNG-WERKZEICHNUNG
  6
CONTINUOUS
 62
     7
 10
-249.93705852470049
 20
3257.9412865520899
 30
0.0
 40
4.0629414752994526
 50
180.0
 51
225.00000000000739
  0
LINE
  5
27F
  8
10_ZEICHNUNG-WERKZEICHNUNG
  6
CONTINUOUS
 62
     7
 10
-252.80999199344851
 20
3255.0683530833412
 30
0.0
 11
-251.18818385888881
 21
3253.446544948782
 31
0.0
  0
ARC
  5
280
  8
10_ZEICHNUNG-WERKZEICHNUNG
  6
CONTINUOUS
 62
     7
 10
-244.39985919611769
 20
3260.2348696115509
 30
0.0
 40
9.6001408038814358
 50
224.99999999999261
 51
269.99999999999221
  0
LINE
  5
284
  8
10_ZEICHNUNG-WERKZEICHNUNG
  6
CONTINUOUS
 62
     7
 10
-266.0
 20
3234.2348696115509
 30
0.0
 11
-50.0
 21
3234.2348696115509
 31
0.0
  0
LINE
  5
286
  8
10_ZEICHNUNG-WERKZEICHNUNG
  6
CONTINUOUS
 62
     7
 10
-50.0
 20
3234.2348696115509
 30
0.0
 11
-269.0
 21
3234.2348696115509
 31
0.0
  0
LINE
  5
287
  8
10_ZEICHNUNG-WERKZEICHNUNG
  6
CONTINUOUS
 62
     7
 10
-266.0
 20
3267.2348696115509
 30
0.0
 11
-266.0
 21
3415.2348696115509
 31
0.0
  0
LINE
  5
288
  8
10_ZEICHNUNG-WERKZEICHNUNG
  6
CONTINUOUS
 62
     7
 10
-266.0
 20
3415.2348696115509
 30
0.0
 11
258.0
 21
3415.2348696115509
 31
0.0
  0
LINE
  5
28A
  8
10_ZEICHNUNG-WERKZEICHNUNG
  6
CONTINUOUS
 62
     7
 10
258.0
 20
3234.2348696115509
 30
0.0
 11
42.0
 21
3234.2348696115509
 31
0.0
  0
LINE
  5
294
  8
10_ZEICHNUNG-WERKZEICHNUNG
  6
CONTINUOUS
 62
     7
 10
42.0
 20
3234.2348696115509
 30
0.0
 11
261.0
 21
3234.2348696115509
 31
0.0
  0
POLYLINE
  5
297
  8
10_ZEICHNUNG-WERKZEICHNUNG
  6
CONTINUOUS
 62
     7
 66
     1
 10
0.0
 20
0.0
 30
0.0
 70
   128
  0
VERTEX
  5
298
  8
10_ZEICHNUNG-WERKZEICHNUNG
  6
CONTINUOUS
 62
     7
 10
52.0
 20
3243.995436117546
 30
0.0
  0
VERTEX
  5
299
  8
10_ZEICHNUNG-WERKZEICHNUNG
  6
CONTINUOUS
 62
     7
 10
54.881613197672777
 20
3244.0298588893479
 30
0.0
  0
VERTEX
  5
29A
  8
10_ZEICHNUNG-WERKZEICHNUNG
  6
CONTINUOUS
 62
     7
 10
57.763221308209722
 20
3244.0664823333218
 30
0.0
  0
VERTEX
  5
29B
  8
10_ZEICHNUNG-WERKZEICHNUNG
  6
CONTINUOUS
 62
     7
 10
60.644824016456369
 20
3244.1053064454559
 30
0.0
  0
VERTEX
  5
29C
  8
10_ZEICHNUNG-WERKZEICHNUNG
  6
CONTINUOUS
 62
     7
 10
63.526421007259607
 20
3244.1463312215092
 30
0.0
  0
VERTEX
  5
29D
  8
10_ZEICHNUNG-WERKZEICHNUNG
  6
CONTINUOUS
 62
     7
 10
66.408011965478636
 20
3244.1895566569892
 30
0.0
  0
VERTEX
  5
29E
  8
10_ZEICHNUNG-WERKZEICHNUNG
  6
CONTINUOUS
 62
     7
 10
69.289596575960786
 20
3244.2349827471721
 30
0.0
  0
VERTEX
  5
29F
  8
10_ZEICHNUNG-WERKZEICHNUNG
  6
CONTINUOUS
 62
     7
 10
72.171174523553873
 20
3244.2826094870902
 30
0.0
  0
VERTEX
  5
2A0
  8
10_ZEICHNUNG-WERKZEICHNUNG
  6
CONTINUOUS
 62
     7
 10
75.052745493119787
 20
3244.3324368715312
 30
0.0
  0
VERTEX
  5
2A1
  8
10_ZEICHNUNG-WERKZEICHNUNG
  6
CONTINUOUS
 62
     7
 10
77.934309169508197
 20
3244.3844648950462
 30
0.0
  0
VERTEX
  5
2A2
  8
10_ZEICHNUNG-WERKZEICHNUNG
  6
CONTINUOUS
 62
     7
 10
80.815865237569597
 20
3244.4386935519528
 30
0.0
  0
VERTEX
  5
2A3
  8
10_ZEICHNUNG-WERKZEICHNUNG
  6
CONTINUOUS
 62
     7
 10
83.697413382166815
 20
3244.4951228363111
 30
0.0
  0
VERTEX
  5
2A4
  8
10_ZEICHNUNG-WERKZEICHNUNG
  6
CONTINUOUS
 62
     7
 10
86.578953288153556
 20
3244.5537527419542
 30
0.0
  0
VERTEX
  5
2A5
  8
10_ZEICHNUNG-WERKZEICHNUNG
  6
CONTINUOUS
 62
     7
 10
89.460484640381324
 20
3244.6145832624661
 30
0.0
  0
VERTEX
  5
2A6
  8
10_ZEICHNUNG-WERKZEICHNUNG
  6
CONTINUOUS
 62
     7
 10
92.342007123717408
 20
3244.6776143911989
 30
0.0
  0
VERTEX
  5
2A7
  8
10_ZEICHNUNG-WERKZEICHNUNG
  6
CONTINUOUS
 62
     7
 10
95.223520423016936
 20
3244.7428461212562
 30
0.0
  0
VERTEX
  5
2A8
  8
10_ZEICHNUNG-WERKZEICHNUNG
  6
CONTINUOUS
 62
     7
 10
98.105024223134919
 20
3244.8102784455009
 30
0.0
  0
VERTEX
  5
2A9
  8
10_ZEICHNUNG-WERKZEICHNUNG
  6
CONTINUOUS
 62
     7
 10
100.98651820893789
 20
3244.879911356566
 30
0.0
  0
VERTEX
  5
2AA
  8
10_ZEICHNUNG-WERKZEICHNUNG
  6
CONTINUOUS
 62
     7
 10
103.8680020652919
 20
3244.9517448468318
 30
0.0
  0
VERTEX
  5
2AB
  8
10_ZEICHNUNG-WERKZEICHNUNG
  6
CONTINUOUS
 62
     7
 10
106.7494754770555
 20
3245.0257789084449
 30
0.0
  0
VERTEX
  5
2AC
  8
10_ZEICHNUNG-WERKZEICHNUNG
  6
CONTINUOUS
 62
     7
 10
109.6309381290894
 20
3245.1020135332969
 30
0.0
  0
VERTEX
  5
2AD
  8
10_ZEICHNUNG-WERKZEICHNUNG
  6
CONTINUOUS
 62
     7
 10
112.5123897062676
 20
3245.1804487130639
 30
0.0
  0
VERTEX
  5
2AE
  8
10_ZEICHNUNG-WERKZEICHNUNG
  6
CONTINUOUS
 62
     7
 10
115.3938298934531
 20
3245.2610844391638
 30
0.0
  0
VERTEX
  5
2AF
  8
10_ZEICHNUNG-WERKZEICHNUNG
  6
CONTINUOUS
 62
     7
 10
118.2752583755091
 20
3245.3439207027768
 30
0.0
  0
VERTEX
  5
2B0
  8
10_ZEICHNUNG-WERKZEICHNUNG
  6
CONTINUOUS
 62
     7
 10
121.1566748373143
 20
3245.428957494843
 30
0.0
  0
VERTEX
  5
2B1
  8
10_ZEICHNUNG-WERKZEICHNUNG
  6
CONTINUOUS
 62
     7
 10
124.0380789637347
 20
3245.516194806064
 30
0.0
  0
VERTEX
  5
2B2
  8
10_ZEICHNUNG-WERKZEICHNUNG
  6
CONTINUOUS
 62
     7
 10
126.91947043963771
 20
3245.6056326268972
 30
0.0
  0
VERTEX
  5
2B3
  8
10_ZEICHNUNG-WERKZEICHNUNG
  6
CONTINUOUS
 62
     7
 10
129.80084894990611
 20
3245.6972709475622
 30
0.0
  0
VERTEX
  5
2B4
  8
10_ZEICHNUNG-WERKZEICHNUNG
  6
CONTINUOUS
 62
     7
 10
132.68221417941001
 20
3245.7911097580341
 30
0.0
  0
VERTEX
  5
2B5
  8
10_ZEICHNUNG-WERKZEICHNUNG
  6
CONTINUOUS
 62
     7
 10
135.5635658130218
 20
3245.8871490480551
 30
0.0
  0
VERTEX
  5
2B6
  8
10_ZEICHNUNG-WERKZEICHNUNG
  6
CONTINUOUS
 62
     7
 10
138.44490353562739
 20
3245.9853888071189
 30
0.0
  0
VERTEX
  5
2B7
  8
10_ZEICHNUNG-WERKZEICHNUNG
  6
CONTINUOUS
 62
     7
 10
141.326227032102
 20
3246.0858290244801
 30
0.0
  0
VERTEX
  5
2B8
  8
10_ZEICHNUNG-WERKZEICHNUNG
  6
CONTINUOUS
 62
     7
 10
144.20753598732239
 20
3246.1884696891561
 30
0.0
  0
VERTEX
  5
2B9
  8
10_ZEICHNUNG-WERKZEICHNUNG
  6
CONTINUOUS
 62
     7
 10
147.08883008617519
 20
3246.2933107899212
 30
0.0
  0
VERTEX
  5
2BA
  8
10_ZEICHNUNG-WERKZEICHNUNG
  6
CONTINUOUS
 62
     7
 10
149.97010901354861
 20
3246.4003523153069
 30
0.0
  0
VERTEX
  5
2BB
  8
10_ZEICHNUNG-WERKZEICHNUNG
  6
CONTINUOUS
 62
     7
 10
152.85137245432449
 20
3246.5095942536132
 30
0.0
  0
VERTEX
  5
2BC
  8
10_ZEICHNUNG-WERKZEICHNUNG
  6
CONTINUOUS
 62
     7
 10
155.73262009338529
 20
3246.6210365928841
 30
0.0
  0
VERTEX
  5
2BD
  8
10_ZEICHNUNG-WERKZEICHNUNG
  6
CONTINUOUS
 62
     7
 10
158.61385161562981
 20
3246.7346793209372
 30
0.0
  0
VERTEX
  5
2BE
  8
10_ZEICHNUNG-WERKZEICHNUNG
  6
CONTINUOUS
 62
     7
 10
161.4950667059438
 20
3246.850522425339
 30
0.0
  0
VERTEX
  5
2BF
  8
10_ZEICHNUNG-WERKZEICHNUNG
  6
CONTINUOUS
 62
     7
 10
164.3762650492163
 20
3246.9685658934268
 30
0.0
  0
VERTEX
  5
2C0
  8
10_ZEICHNUNG-WERKZEICHNUNG
  6
CONTINUOUS
 62
     7
 10
167.25744633034989
 20
3247.0888097122879
 30
0.0
  0
VERTEX
  5
2C1
  8
10_ZEICHNUNG-WERKZEICHNUNG
  6
CONTINUOUS
 62
     7
 10
170.13861023423709
 20
3247.2112538687679
 30
0.0
  0
VERTEX
  5
2C2
  8
10_ZEICHNUNG-WERKZEICHNUNG
  6
CONTINUOUS
 62
     7
 10
173.01975644577209
 20
3247.33589834948
 30
0.0
  0
VERTEX
  5
2C3
  8
10_ZEICHNUNG-WERKZEICHNUNG
  6
CONTINUOUS
 62
     7
 10
175.9008846498632
 20
3247.4627431407921
 30
0.0
  0
VERTEX
  5
2C4
  8
10_ZEICHNUNG-WERKZEICHNUNG
  6
CONTINUOUS
 62
     7
 10
178.78199453140849
 20
3247.5917882288331
 30
0.0
  0
VERTEX
  5
2C5
  8
10_ZEICHNUNG-WERKZEICHNUNG
  6
CONTINUOUS
 62
     7
 10
181.6630857753089
 20
3247.7230335994818
 30
0.0
  0
VERTEX
  5
2C6
  8
10_ZEICHNUNG-WERKZEICHNUNG
  6
CONTINUOUS
 62
     7
 10
184.54415806647779
 20
3247.856479238395
 30
0.0
  0
VERTEX
  5
2C7
  8
10_ZEICHNUNG-WERKZEICHNUNG
  6
CONTINUOUS
 62
     7
 10
187.42521108982061
 20
3247.9921251309688
 30
0.0
  0
VERTEX
  5
2C8
  8
10_ZEICHNUNG-WERKZEICHNUNG
  6
CONTINUOUS
 62
     7
 10
190.30624453024211
 20
3248.1299712623741
 30
0.0
  0
VERTEX
  5
2C9
  8
10_ZEICHNUNG-WERKZEICHNUNG
  6
CONTINUOUS
 62
     7
 10
193.1872580726604
 20
3248.2700176175358
 30
0.0
  0
VERTEX
  5
2CA
  8
10_ZEICHNUNG-WERKZEICHNUNG
  6
CONTINUOUS
 62
     7
 10
196.06825140199359
 20
3248.4122641811359
 30
0.0
  0
VERTEX
  5
2CB
  8
10_ZEICHNUNG-WERKZEICHNUNG
  6
CONTINUOUS
 62
     7
 10
198.94922420315561
 20
3248.5567109376129
 30
0.0
  0
VERTEX
  5
2CC
  8
10_ZEICHNUNG-WERKZEICHNUNG
  6
CONTINUOUS
 62
     7
 10
201.83017616106011
 20
3248.7033578711748
 30
0.0
  0
VERTEX
  5
2CD
  8
10_ZEICHNUNG-WERKZEICHNUNG
  6
CONTINUOUS
 62
     7
 10
204.71110696063761
 20
3248.8522049657849
 30
0.0
  0
VERTEX
  5
2CE
  8
10_ZEICHNUNG-WERKZEICHNUNG
  6
CONTINUOUS
 62
     7
 10
207.59201628680779
 20
3249.0032522051579
 30
0.0
  0
VERTEX
  5
2CF
  8
10_ZEICHNUNG-WERKZEICHNUNG
  6
CONTINUOUS
 62
     7
 10
210.4729038244927
 20
3249.1564995727808
 30
0.0
  0
VERTEX
  5
2D0
  8
10_ZEICHNUNG-WERKZEICHNUNG
  6
CONTINUOUS
 62
     7
 10
213.35376925862971
 20
3249.3119470518891
 30
0.0
  0
VERTEX
  5
2D1
  8
10_ZEICHNUNG-WERKZEICHNUNG
  6
CONTINUOUS
 62
     7
 10
216.23461227414461
 20
3249.469594625481
 30
0.0
  0
VERTEX
  5
2D2
  8
10_ZEICHNUNG-WERKZEICHNUNG
  6
CONTINUOUS
 62
     7
 10
219.11543255596689
 20
3249.6294422763181
 30
0.0
  0
VERTEX
  5
2D3
  8
10_ZEICHNUNG-WERKZEICHNUNG
  6
CONTINUOUS
 62
     7
 10
221.99622978904111
 20
3249.7914899869252
 30
0.0
  0
VERTEX
  5
2D4
  8
10_ZEICHNUNG-WERKZEICHNUNG
  6
CONTINUOUS
 62
     7
 10
224.8770036583019
 20
3249.9557377395649
 30
0.0
  0
VERTEX
  5
2D5
  8
10_ZEICHNUNG-WERKZEICHNUNG
  6
CONTINUOUS
 62
     7
 10
227.75775384868481
 20
3250.122185516288
 30
0.0
  0
VERTEX
  5
2D6
  8
10_ZEICHNUNG-WERKZEICHNUNG
  6
CONTINUOUS
 62
     7
 10
230.6384800451433
 20
3250.2908332988791
 30
0.0
  0
VERTEX
  5
2D7
  8
10_ZEICHNUNG-WERKZEICHNUNG
  6
CONTINUOUS
 62
     7
 10
233.5191819326183
 20
3250.461681068899
 30
0.0
  0
VERTEX
  5
2D8
  8
10_ZEICHNUNG-WERKZEICHNUNG
  6
CONTINUOUS
 62
     7
 10
236.39985919604311
 20
3250.634728807669
 30
0.0
  0
SEQEND
  5
2D9
  8
10_ZEICHNUNG-WERKZEICHNUNG
  6
CONTINUOUS
 62
     7
  0
LINE
  5
2DC
  8
10_ZEICHNUNG-WERKZEICHNUNG
  6
CONTINUOUS
 62
     7
 10
258.0
 20
3415.2348696115509
 30
0.0
 11
246.0
 21
3415.2348696115509
 31
0.0
  0
LINE
  5
2DD
  8
10_ZEICHNUNG-WERKZEICHNUNG
  6
CONTINUOUS
 62
     7
 10
246.0
 20
3415.2348696115509
 30
0.0
 11
246.0
 21
3257.9412865520899
 31
0.0
  0
ARC
  5
2DE
  8
10_ZEICHNUNG-WERKZEICHNUNG
  6
CONTINUOUS
 62
     7
 10
241.93705852470021
 20
3257.9412865520899
 30
0.0
 40
4.0629414752997661
 50
314.99999999999909
 51
0.0
  0
LINE
  5
2DF
  8
10_ZEICHNUNG-WERKZEICHNUNG
  6
CONTINUOUS
 62
     7
 10
244.80999199344879
 20
3255.0683530833412
 30
0.0
 11
243.18818385888969
 21
3253.446544948782
 31
0.0
  0
ARC
  5
2E0
  8
10_ZEICHNUNG-WERKZEICHNUNG
  6
CONTINUOUS
 62
     7
 10
236.3998591961188
 20
3260.2348696115509
 30
0.0
 40
9.600140803880933
 50
270.00000000000409
 51
315.0000000000083
  0
LINE
  5
2FA
  8
10_ZEICHNUNG-WERKZEICHNUNG
  6
CONTINUOUS
 62
     7
 10
-269.0
 20
3234.2348696115509
 30
0.0
 11
-269.0
 21
3267.2348696115509
 31
0.0
  0
LINE
  5
2FB
  8
10_ZEICHNUNG-WERKZEICHNUNG
  6
CONTINUOUS
 62
     7
 10
-266.0
 20
3267.2348696115509
 30
0.0
 11
-268.99999999999989
 21
3267.2348696115509
 31
0.0
  0
LINE
  5
2FC
  8
10_ZEICHNUNG-WERKZEICHNUNG
  6
CONTINUOUS
 62
     7
 10
42.000000000000021
 20
3228.2348696115509
 30
0.0
 11
-50.000000000000028
 21
3228.2348696115509
 31
0.0
  0
LINE
  5
2FD
  8
10_ZEICHNUNG-WERKZEICHNUNG
  6
CONTINUOUS
 62
     7
 10
-56.243620738733682
 20
3244.0056952689661
 30
0.0
 11
48.451713267208099
 21
3244.0056952689661
 31
0.0
  0
LINE
  5
2FE
  8
10_ZEICHNUNG-WERKZEICHNUNG
  6
CONTINUOUS
 62
     7
 10
47.951713267208113
 20
3238.7175785637792
 30
0.0
 11
-55.743620738733682
 21
3238.7175785637792
 31
0.0
  0
LINE
  5
2FF
  8
10_ZEICHNUNG-WERKZEICHNUNG
  6
CONTINUOUS
 62
     7
 10
-50.000000000000028
 20
3228.23486961155
 30
0.0
 11
-50.000000000000028
 21
3238.7175785637792
 31
0.0
  0
LINE
  5
300
  8
10_ZEICHNUNG-WERKZEICHNUNG
  6
CONTINUOUS
 62
     7
 10
42.000000000000021
 20
3228.2348696115509
 30
0.0
 11
42.000000000000021
 21
3238.7175785637792
 31
0.0
  0
LINE
  5
301
  8
10_ZEICHNUNG-WERKZEICHNUNG
 10
-56.243620738733682
 20
3244.0056952689661
 30
0.0
 11
-56.243620738733682
 21
3239.2175785637801
 31
0.0
  0
LINE
  5
302
  8
10_ZEICHNUNG-WERKZEICHNUNG
 10
48.451713267208099
 20
3244.0056952689661
 30
0.0
 11
48.451713267208099
 21
3239.2175785637792
 31
0.0
  0
LINE
  5
303
  8
10_ZEICHNUNG-WERKZEICHNUNG
 10
-56.243620738733682
 20
3239.2175785637801
 30
0.0
 11
-55.743620738733682
 21
3238.7175785637792
 31
0.0
  0
LINE
  5
304
  8
10_ZEICHNUNG-WERKZEICHNUNG
 10
47.951713267208113
 20
3238.7175785637792
 30
0.0
 11
48.451713267208099
 21
3239.2175785637792
 31
0.0
  0
LINE
  5
305
  8
10_ZEICHNUNG-WERKZEICHNUNG
  6
CONTINUOUS
 62
     7
 10
-49.999999999999972
 20
3234.2348696115509
 30
0.0
 11
-74.999999999999972
 21
3234.2348696115509
 31
0.0
  0
LINE
  5
306
  8
10_ZEICHNUNG-WERKZEICHNUNG
  6
CONTINUOUS
 62
     7
 10
-74.999999999999972
 20
3234.2348696115509
 30
0.0
 11
-74.999999999999972
 21
3228.23486961155
 31
0.0
  0
LINE
  5
307
  8
10_ZEICHNUNG-WERKZEICHNUNG
  6
CONTINUOUS
 62
     7
 10
-74.999999999999972
 20
3228.2348696115509
 30
0.0
 11
-49.999999999999972
 21
3228.2348696115509
 31
0.0
  0
LINE
  5
308
  8
10_ZEICHNUNG-WERKZEICHNUNG
  6
CONTINUOUS
 62
     7
 10
42.000000000000021
 20
3234.2348696115509
 30
0.0
 11
67.000000000000014
 21
3234.2348696115509
 31
0.0
  0
LINE
  5
309
  8
10_ZEICHNUNG-WERKZEICHNUNG
  6
CONTINUOUS
 62
     7
 10
67.000000000000014
 20
3234.2348696115509
 30
0.0
 11
67.000000000000014
 21
3228.2348696115509
 31
0.0
  0
LINE
  5
30A
  8
10_ZEICHNUNG-WERKZEICHNUNG
  6
CONTINUOUS
 62
     7
 10
67.000000000000014
 20
3228.2348696115509
 30
0.0
 11
42.000000000000021
 21
3228.2348696115509
 31
0.0
  0
LINE
  5
30B
  8
10_ZEICHNUNG-WERKZEICHNUNG
  6
CONTINUOUS
 62
     7
 10
42.000000000000021
 20
3234.2348696115509
 30
0.0
 11
66.999999999999972
 21
3234.2348696115509
 31
0.0
  0
LINE
  5
30C
  8
10_ZEICHNUNG-WERKZEICHNUNG
  6
CONTINUOUS
 62
     7
 10
-49.999999999999972
 20
3234.2348696115509
 30
0.0
 11
-74.999999999999972
 21
3234.2348696115509
 31
0.0
  0
LINE
  5
30D
  8
10_ZEICHNUNG-WERKZEICHNUNG
 10
-60.0
 20
3243.995436117546
 30
0.0
 11
-56.347667002970901
 21
3243.995436117546
 31
0.0
  0
LINE
  5
30E
  8
10_ZEICHNUNG-WERKZEICHNUNG
 10
48.451713267208099
 20
3244.0056952689661
 30
0.0
 11
52.0
 21
3243.995436117546
 31
0.0
  0
LINE
  5
30F
  8
10_ZEICHNUNG-WERKZEICHNUNG
  6
CONTINUOUS
 62
     7
 10
258.0
 20
3267.2348696115509
 30
0.0
 11
260.99999999999989
 21
3267.2348696115509
 31
0.0
  0
LINE
  5
310
  8
10_ZEICHNUNG-WERKZEICHNUNG
  6
CONTINUOUS
 62
     7
 10
261.0
 20
3234.2348696115509
 30
0.0
 11
261.0
 21
3267.2348696115509
 31
0.0
  0
LINE
  5
311
  8
10_ZEICHNUNG-WERKZEICHNUNG
  6
CONTINUOUS
 62
     7
 10
258.0
 20
3267.2348696115509
 30
0.0
 11
258.0
 21
3415.2348696115509
 31
0.0
  0
POLYLINE
  5
312
  8
10_ZEICHNUNG-WERKZEICHNUNG
  6
CONTINUOUS
 62
     7
 66
     1
 10
0.0
 20
0.0
 30
0.0
 70
   129
  0
VERTEX
  5
313
  8
10_ZEICHNUNG-WERKZEICHNUNG
  6
CONTINUOUS
 62
     7
 10
-269.0
 20
4053.5715537159608
 30
0.0
  0
VERTEX
  5
314
  8
10_ZEICHNUNG-WERKZEICHNUNG
  6
CONTINUOUS
 62
     7
 10
261.0
 20
4053.5715537159608
 30
0.0
  0
VERTEX
  5
315
  8
10_ZEICHNUNG-WERKZEICHNUNG
  6
CONTINUOUS
 62
     7
 10
261.0
 20
3623.5715537159622
 30
0.0
  0
VERTEX
  5
316
  8
10_ZEICHNUNG-WERKZEICHNUNG
  6
CONTINUOUS
 62
     7
 10
-269.0
 20
3623.5715537159622
 30
0.0
  0
SEQEND
  5
317
  8
10_ZEICHNUNG-WERKZEICHNUNG
  6
CONTINUOUS
 62
     7
  0
VIEWPORT
  5
206
 67
     1
  8
0
 10
128.5
 20
97.5
 30
0.0
 40
314.226
 41
222.18000000000001
 68
     1
 69
     1
1001
ACAD
1000
MVIEW
1002
{
1070
    16
1010
0.0
1020
0.0
1030
0.0
1010
0.0
1020
0.0
1030
1.0
1040
0.0
1040
222.18000000000001
1040
128.5
1040
97.5
1040
50.0
1040
0.0
1040
0.0
1070
     0
1070
   100
1070
     1
1070
     3
1070
     0
1070
     0
1070
     0
1070
     0
1040
0.0
1040
0.0
1040
0.0
1040
10.0
1040
10.0
1040
10.0
1040
10.0
1070
     0
1002
{
1002
}
1002
}
  0
ENDSEC
  0
EOF
