  0
SECTION
  2
HEADER
  9
$ACADVER
  1
AC1009
  9
$INSBASE
 10
0.0
 20
0.0
 30
0.0
  9
$EXTMIN
 10
-199.05382386916079
 20
3231.6322519327618
 30
0.0
  9
$EXTMAX
 10
531.40548440248904
 20
4358.609104951428
 30
0.0
  9
$LIMMIN
 10
0.0
 20
0.0
  9
$LIMMAX
 10
12.0
 20
9.0
  9
$ORTHOMODE
 70
     1
  9
$REGENMODE
 70
     1
  9
$FILLMODE
 70
     1
  9
$QTEXTMODE
 70
     0
  9
$MIRRTEXT
 70
     1
  9
$DRAGMODE
 70
     2
  9
$LTSCALE
 40
50.799999999999997
  9
$OSMODE
 70
   439
  9
$ATTMODE
 70
     1
  9
$TEXTSIZE
 40
0.2
  9
$TRACEWID
 40
1.0
  9
$TEXTSTYLE
  7
STANDARD
  9
$CLAYER
  8
10_ZEICHNUNG-WERKZEICHNUNG
  9
$CELTYPE
  6
BYLAYER
  9
$CECOLOR
 62
   256
  9
$DIMSCALE
 40
1.0
  9
$DIMASZ
 40
14.138671875
  9
$DIMEXO
 40
30.0
  9
$DIMDLI
 40
10.16
  9
$DIMRND
 40
0.0
  9
$DIMDLE
 40
20.0
  9
$DIMEXE
 40
20.0
  9
$DIMTP
 40
0.0
  9
$DIMTM
 40
0.0
  9
$DIMTXT
 40
35.36964699074074
  9
$DIMCEN
 40
0.0
  9
$DIMTSZ
 40
0.0
  9
$DIMTOL
 70
     0
  9
$DIMLIM
 70
     0
  9
$DIMTIH
 70
     0
  9
$DIMTOH
 70
     0
  9
$DIMSE1
 70
     0
  9
$DIMSE2
 70
     0
  9
$DIMTAD
 70
     1
  9
$DIMZIN
 70
     8
  9
$DIMBLK
  1
VW_SLASH
  9
$DIMASO
 70
     1
  9
$DIMSHO
 70
     1
  9
$DIMPOST
  1
<>
  9
$DIMAPOST
  1
[]mm
  9
$DIMALT
 70
     0
  9
$DIMALTD
 70
     1
  9
$DIMALTF
 40
1.0
  9
$DIMLFAC
 40
1.0
  9
$DIMTOFL
 70
     1
  9
$DIMTVP
 40
0.0
  9
$DIMTIX
 70
     1
  9
$DIMSOXD
 70
     0
  9
$DIMSAH
 70
     0
  9
$DIMBLK1
  1
VW_SLASH
  9
$DIMBLK2
  1
VW_SLASH
  9
$DIMSTYLE
  2
SCHREINERHLVAR_1_10
  9
$DIMCLRD
 70
     0
  9
$DIMCLRE
 70
     0
  9
$DIMCLRT
 70
     0
  9
$DIMTFAC
 40
0.8
  9
$DIMGAP
 40
0.5
  9
$LUNITS
 70
     2
  9
$LUPREC
 70
     4
  9
$SKETCHINC
 40
0.1
  9
$FILLETRAD
 40
0.5
  9
$AUNITS
 70
     0
  9
$AUPREC
 70
     0
  9
$MENU
  1
.
  9
$ELEVATION
 40
0.0
  9
$PELEVATION
 40
0.0
  9
$THICKNESS
 40
0.0
  9
$LIMCHECK
 70
     0
  9
$BLIPMODE
 70
     0
  9
$CHAMFERA
 40
0.5
  9
$CHAMFERB
 40
0.5
  9
$SKPOLY
 70
     0
  9
$TDCREATE
 40
2456107.4693060308
  9
$TDUPDATE
 40
2456107.6273454051
  9
$TDINDWG
 40
0.0121478819
  9
$TDUSRTIMER
 40
0.0121478819
  9
$USRTIMER
 70
     1
  9
$ANGBASE
 50
0.0
  9
$ANGDIR
 70
     0
  9
$PDMODE
 70
     1
  9
$PDSIZE
 40
-2.0
  9
$PLINEWID
 40
0.0
  9
$COORDS
 70
     1
  9
$SPLFRAME
 70
     0
  9
$SPLINETYPE
 70
     6
  9
$SPLINESEGS
 70
     8
  9
$ATTDIA
 70
     0
  9
$ATTREQ
 70
     1
  9
$HANDLING
 70
     1
  9
$HANDSEED
  5
402
  9
$SURFTAB1
 70
     6
  9
$SURFTAB2
 70
     6
  9
$SURFTYPE
 70
     6
  9
$SURFU
 70
     6
  9
$SURFV
 70
     6
  9
$UCSNAME
  2

  9
$UCSORG
 10
0.0
 20
0.0
 30
0.0
  9
$UCSXDIR
 10
1.0
 20
0.0
 30
0.0
  9
$UCSYDIR
 10
0.0
 20
1.0
 30
0.0
  9
$PUCSNAME
  2

  9
$PUCSORG
 10
0.0
 20
0.0
 30
0.0
  9
$PUCSXDIR
 10
1.0
 20
0.0
 30
0.0
  9
$PUCSYDIR
 10
0.0
 20
1.0
 30
0.0
  9
$USERI1
 70
     0
  9
$USERI2
 70
     0
  9
$USERI3
 70
     0
  9
$USERI4
 70
     0
  9
$USERI5
 70
     0
  9
$USERR1
 40
0.0
  9
$USERR2
 40
0.0
  9
$USERR3
 40
0.0
  9
$USERR4
 40
0.0
  9
$USERR5
 40
0.0
  9
$WORLDVIEW
 70
     1
  9
$SHADEDGE
 70
     3
  9
$SHADEDIF
 70
    70
  9
$TILEMODE
 70
     1
  9
$MAXACTVP
 70
    64
  9
$PLIMCHECK
 70
     0
  9
$PEXTMIN
 10
1.0000000000000000E+020
 20
1.0000000000000000E+020
 30
1.0000000000000000E+020
  9
$PEXTMAX
 10
-1.0000000000000000E+020
 20
-1.0000000000000000E+020
 30
-1.0000000000000000E+020
  9
$PLIMMIN
 10
-20.0
 20
-7.5
  9
$PLIMMAX
 10
277.0
 20
202.5
  9
$UNITMODE
 70
     0
  9
$VISRETAIN
 70
     1
  9
$PLINEGEN
 70
     0
  9
$PSLTSCALE
 70
     1
  0
ENDSEC
  0
SECTION
  2
TABLES
  0
TABLE
  2
VPORT
 70
     4
  0
VPORT
  2
*ACTIVE
 70
     0
 10
0.0
 20
0.0
 11
1.0
 21
1.0
 12
306.34995416244368
 22
3723.8857337655022
 13
0.0
 23
0.0
 14
0.5
 24
0.5
 15
0.5
 25
0.5
 16
0.0
 26
0.0
 36
1.0
 17
0.0
 27
0.0
 37
0.0
 40
1655.5861706546709
 41
1.4302083333333331
 42
2000.0
 43
0.0
 44
0.0
 50
0.0
 51
0.0
 71
     0
 72
   100
 73
     1
 74
     3
 75
     0
 76
     0
 77
     0
 78
     0
  0
ENDTAB
  0
TABLE
  2
LTYPE
 70
    23
  0
LTYPE
  2
CONTINUOUS
 70
     0
  3
Solid line
 72
    65
 73
     0
 40
0.0
  0
LTYPE
  2
OHNE_TITEL-1
 70
     0
  3

 72
    65
 73
     2
 40
0.39368
 49
0.19684
 49
-0.19684
  0
LTYPE
  2
OHNE_TITEL-2
 70
     0
  3

 72
    65
 73
     2
 40
0.590515
 49
0.393675
 49
-0.19684
  0
LTYPE
  2
OHNE_TITEL-3
 70
     0
  3

 72
    65
 73
     2
 40
0.787355
 49
0.590515
 49
-0.19684
  0
LTYPE
  2
OHNE_TITEL-4
 70
     0
  3

 72
    65
 73
     2
 40
1.18103
 49
0.98419
 49
-0.1968399999999999
  0
LTYPE
  2
OHNE_TITEL-5
 70
     0
  3

 72
    65
 73
     2
 40
0.19684
 49
0.069505
 49
-0.127335
  0
LTYPE
  2
OHNE_TITEL-6
 70
     0
  3

 72
    65
 73
     4
 40
1.0537000000000001
 49
0.590515
 49
-0.19684
 49
0.069505
 49
-0.1968400000000001
  0
LTYPE
  2
OHNE_TITEL-7
 70
     0
  3

 72
    65
 73
     6
 40
1.841054999999999
 49
0.590515
 49
-0.19684
 49
0.5905149999999999
 49
-0.1968400000000001
 49
0.069505
 49
-0.1968400000000001
  0
LTYPE
  2
OHNE_TITEL-8
 70
     0
  3

 72
    65
 73
     6
 40
1.3200449999999999
 49
0.590515
 49
-0.19684
 49
0.069505
 49
-0.1968400000000001
 49
0.069505
 49
-0.1968399999999999
  0
LTYPE
  2
OHNE_TITEL-9
 70
     0
  3

 72
    65
 73
     4
 40
2.5589049999999989
 49
1.9683849999999989
 49
-0.1968400000000001
 49
0.1968400000000001
 49
-0.1968400000000001
  0
LTYPE
  2
OHNE_TITEL-10
 70
     0
  3

 72
    65
 73
     6
 40
2.952585
 49
1.9683849999999989
 49
-0.1968400000000001
 49
0.1968400000000001
 49
-0.1968400000000001
 49
0.1968399999999998
 49
-0.1968399999999998
  0
LTYPE
  2
OHNE_TITEL-11
 70
     0
  3

 72
    65
 73
     4
 40
1.5748031496062991
 49
0.7874015748031497
 49
-0.3937007874015748
 49
0.0004999999999999
 49
-0.3932007874015748
  0
LTYPE
  2
OHNE_TITEL-12
 70
     0
  3

 72
    65
 73
     2
 40
0.5905511811023622
 49
0.3937007874015748
 49
-0.1968503937007874
  0
LTYPE
  2
OHNE_TITEL-13
 70
     0
  3

 72
    65
 73
     2
 40
0.375
 49
0.25
 49
-0.125
  0
LTYPE
  2
OHNE_TITEL-14
 70
     0
  3

 72
    65
 73
     4
 40
0.5625
 49
0.375
 49
-0.0625
 49
0.0625
 49
-0.0625
  0
LTYPE
  2
OHNE_TITEL-15
 70
     0
  3

 72
    65
 73
     4
 40
1.0
 49
0.625
 49
-0.125
 49
0.125
 49
-0.125
  0
LTYPE
  2
OHNE_TITEL-16
 70
     0
  3

 72
    65
 73
     6
 40
1.1000000000000001
 49
0.6
 49
-0.15
 49
0.025
 49
-0.15
 49
0.025
 49
-0.15
  0
LTYPE
  2
OHNE_TITEL-17
 70
     0
  3

 72
    65
 73
     4
 40
1.8
 49
1.1999999999999991
 49
-0.1500000000000001
 49
0.3
 49
-0.1499999999999999
  0
LTYPE
  2
OHNE_TITEL-18
 70
     0
  3

 72
    65
 73
     2
 40
3.75
 49
2.5
 49
-1.25
  0
LTYPE
  2
OHNE_TITEL-19
 70
     0
  3

 72
    65
 73
     2
 40
7.381889763779526
 49
4.9212598425196843
 49
-2.460629921259843
  0
LTYPE
  2
ACAD_ISO02W100
 70
     0
  3

 72
    65
 73
     2
 40
2.9527559055118102
 49
2.3622047244094491
 49
-0.5905511811023622
  0
LTYPE
  2
STYLE_21
 70
     0
  3

 72
    65
 73
     2
 40
0.1973503937007874
 49
0.1968503937007874
 49
-0.0005
  0
LTYPE
  2
DASHED
 70
     0
  3

 72
    65
 73
     2
 40
1.1811023622047241
 49
0.7874015748031497
 49
-0.3937007874015748
  0
ENDTAB
  0
TABLE
  2
LAYER
 70
    32
  0
LAYER
  2
0
 70
     0
 62
     7
  6
STYLE_21
  0
LAYER
  2
KEINE
 70
     0
 62
     7
  6
CONTINUOUS
  0
LAYER
  2
BEMAŠUNG
 70
     0
 62
     1
  6
CONTINUOUS
  0
LAYER
  2
DETAIL-AUSF_HRUNG
 70
     0
 62
     7
  6
CONTINUOUS
  0
LAYER
  2
10_ZEICHNUNG-DETAIL
 70
     0
 62
     7
  6
CONTINUOUS
  0
LAYER
  2
10_ZEICHNUNG-GRAUE_LINIE
 70
     0
 62
     8
  6
CONTINUOUS
  0
LAYER
  2
30_BESCHL_GE-HILFSLINIEN
 70
     0
 62
     5
  6
OHNE_TITEL-1
  0
LAYER
  2
30_BESCHL_GE-ZEICHNUNG
 70
     0
 62
     7
  6
CONTINUOUS
  0
LAYER
  2
10_ZEICHNUNG-WERKZEICHNUNG
 70
     0
 62
     7
  6
CONTINUOUS
  0
LAYER
  2
30_BESCHL_GE-NAME
 70
     0
 62
     7
  6
CONTINUOUS
  0
LAYER
  2
30_BESCHL_GE-BEMASSUNG
 70
     0
 62
     1
  6
CONTINUOUS
  0
LAYER
  2
10_ZEICHNUNG-SCHNITTFL_CHE
 70
     0
 62
     7
  6
CONTINUOUS
  0
LAYER
  2
10_ZEICHNUNG-BESCHRIFTUNG
 70
     0
 62
     7
  6
CONTINUOUS
  0
LAYER
  2
50_MATERIAL-GLAS
 70
     0
 62
     7
  6
CONTINUOUS
  0
LAYER
  2
HILFSKONSTRUKTIONEN
 70
     0
 62
     6
  6
OHNE_TITEL-1
  0
LAYER
  2
10_ZEICHNUNG-VERDECKT__GES
 70
     0
 62
     7
  6
OHNE_TITEL-1
  0
LAYER
  2
70_ARCHITEKTUR-W_NDE
 70
     0
 62
     7
  6
CONTINUOUS
  0
LAYER
  2
70_ARCHITEKTUR-BODEN__DECK
 70
     0
 62
     7
  6
CONTINUOUS
  0
LAYER
  2
ATTRIBUTKLASSE-03
 70
     0
 62
     7
  6
CONTINUOUS
  0
LAYER
  2
ATTRIBUTKLASSE-02
 70
     0
 62
     7
  6
CONTINUOUS
  0
LAYER
  2
ATTRIBUTKLASSE-04
 70
     0
 62
     7
  6
CONTINUOUS
  0
LAYER
  2
ATTRIBUTKLASSE-01
 70
     0
 62
     7
  6
CONTINUOUS
  0
LAYER
  2
70_ARCHITEKTUR-GEB_UDELINI
 70
     0
 62
     7
  6
CONTINUOUS
  0
LAYER
  2
CW-UNSICHTBAR
 70
     1
 62
     7
  6
CONTINUOUS
  0
LAYER
  2
10_ZEICHNUNG-SCHNITTACHSEN
 70
     0
 62
     7
  6
OHNE_TITEL-6
  0
LAYER
  2
20_BEMASSUNG-ERG_NZUNGEN
 70
     0
 62
     7
  6
CONTINUOUS
  0
LAYER
  2
BESCHLƒGE-2
 70
     0
 62
   150
  6
CONTINUOUS
  0
LAYER
  2
LINIE_SS
 70
     0
 62
     4
  6
ACAD_ISO02W100
  0
LAYER
  2
SCHIENEN___PROFILE
 70
     0
 62
     1
  6
CONTINUOUS
  0
LAYER
  2
EKU-BESCHLAG
 70
     0
 62
     7
  6
CONTINUOUS
  0
LAYER
  2
10_ZEICHNUNG-HILFSKONSTRUK
 70
     0
 62
     5
  6
OHNE_TITEL-1
  0
LAYER
  2
DEFPOINTS
 70
     0
 62
     7
  6
CONTINUOUS
  0
ENDTAB
  0
TABLE
  2
STYLE
 70
     2
  0
STYLE
  2
STANDARD
 70
     0
 40
0.0
 41
1.0
 50
0.0
 71
     0
 42
0.2
  3
txt
  4

  0
STYLE
  2
ARIAL
 70
     0
 40
0.0
 41
1.0
 50
0.0
 71
     0
 42
0.0
  3
Arial
  4

  0
ENDTAB
  0
TABLE
  2
VIEW
 70
     0
  0
ENDTAB
  0
TABLE
  2
UCS
 70
     0
  0
ENDTAB
  0
TABLE
  2
APPID
 70
     1
  0
APPID
  2
ACAD
 70
     0
  0
ENDTAB
  0
TABLE
  2
DIMSTYLE
 70
     2
  0
DIMSTYLE
  2
STANDARD
 70
     0
  3

  4

  5

  6

  7

 40
1.0
 41
0.18
 42
0.0625
 43
0.38
 44
0.18
 45
0.0
 46
0.0
 47
0.0
 48
0.0
140
0.18
141
0.09
142
0.0
143
25.399999999999999
144
1.0
145
0.0
146
1.0
147
0.09
 71
     0
 72
     0
 73
     1
 74
     1
 75
     0
 76
     0
 77
     0
 78
     0
170
     0
171
     2
172
     0
173
     0
174
     0
175
     0
176
     0
177
     0
178
     0
  0
DIMSTYLE
  2
SCHREINERHLVAR_1_10
 70
     0
  3
<>
  4
[]mm
  5
VW_SLASH
  6
VW_SLASH
  7
VW_SLASH
 40
1.0
 41
14.138671875
 42
30.0
 43
10.16
 44
20.0
 45
0.0
 46
20.0
 47
0.0
 48
0.0
140
35.36964699074074
141
0.0
142
0.0
143
1.0
144
1.0
145
0.0
146
0.8
147
0.5
 71
     0
 72
     0
 73
     0
 74
     0
 75
     0
 76
     0
 77
     1
 78
     8
170
     0
171
     1
172
     1
173
     0
174
     1
175
     0
176
     0
177
     0
178
     0
  0
ENDTAB
  0
ENDSEC
  0
SECTION
  2
BLOCKS
  0
BLOCK
  8
0
  2
$MODEL_SPACE
 70
     0
 10
0.0
 20
0.0
 30
0.0
  3
$MODEL_SPACE
  1

  0
ENDBLK
  5
21
  8
0
  0
BLOCK
 67
     1
  8
0
  2
$PAPER_SPACE
 70
     0
 10
0.0
 20
0.0
 30
0.0
  3
$PAPER_SPACE
  1

  0
ENDBLK
  5
1D
 67
     1
  8
0
  0
BLOCK
  8
0
  2
GRUPPE-1
 70
     0
 10
0.0
 20
0.0
 30
0.0
  3
GRUPPE-1
  1

  0
POLYLINE
  5
A6
  8
10_ZEICHNUNG-WERKZEICHNUNG
  6
CONTINUOUS
 62
     7
 66
     1
 10
0.0
 20
0.0
 30
0.0
 70
   128
  0
VERTEX
  5
A7
  8
10_ZEICHNUNG-WERKZEICHNUNG
  6
CONTINUOUS
 62
     7
 10
26.000000000001361
 20
3329.1142641275951
 30
0.0
  0
VERTEX
  5
A8
  8
10_ZEICHNUNG-WERKZEICHNUNG
  6
CONTINUOUS
 62
     7
 10
23.118386802328811
 20
3329.148686899397
 30
0.0
  0
VERTEX
  5
A9
  8
10_ZEICHNUNG-WERKZEICHNUNG
  6
CONTINUOUS
 62
     7
 10
20.2367786917921
 20
3329.1853103433691
 30
0.0
  0
VERTEX
  5
AA
  8
10_ZEICHNUNG-WERKZEICHNUNG
  6
CONTINUOUS
 62
     7
 10
17.35517598354522
 20
3329.2241344555041
 30
0.0
  0
VERTEX
  5
AB
  8
10_ZEICHNUNG-WERKZEICHNUNG
  6
CONTINUOUS
 62
     7
 10
14.473578992741979
 20
3329.265159231556
 30
0.0
  0
VERTEX
  5
AC
  8
10_ZEICHNUNG-WERKZEICHNUNG
  6
CONTINUOUS
 62
     7
 10
11.591988034522959
 20
3329.3083846670379
 30
0.0
  0
VERTEX
  5
AD
  8
10_ZEICHNUNG-WERKZEICHNUNG
  6
CONTINUOUS
 62
     7
 10
8.7104034240408055
 20
3329.3538107572199
 30
0.0
  0
VERTEX
  5
AE
  8
10_ZEICHNUNG-WERKZEICHNUNG
  6
CONTINUOUS
 62
     7
 10
5.8288254764477188
 20
3329.401437497138
 30
0.0
  0
VERTEX
  5
AF
  8
10_ZEICHNUNG-WERKZEICHNUNG
  6
CONTINUOUS
 62
     7
 10
2.947254506881563
 20
3329.4512648815789
 30
0.0
  0
VERTEX
  5
B0
  8
10_ZEICHNUNG-WERKZEICHNUNG
  6
CONTINUOUS
 62
     7
 10
0.0656908304931676
 20
3329.5032929050958
 30
0.0
  0
VERTEX
  5
B1
  8
10_ZEICHNUNG-WERKZEICHNUNG
  6
CONTINUOUS
 62
     7
 10
-2.815865237567778
 20
3329.557521562002
 30
0.0
  0
VERTEX
  5
B2
  8
10_ZEICHNUNG-WERKZEICHNUNG
  6
CONTINUOUS
 62
     7
 10
-5.6974133821654487
 20
3329.6139508463598
 30
0.0
  0
VERTEX
  5
B3
  8
10_ZEICHNUNG-WERKZEICHNUNG
  6
CONTINUOUS
 62
     7
 10
-8.5789532881517534
 20
3329.6725807520029
 30
0.0
  0
VERTEX
  5
B4
  8
10_ZEICHNUNG-WERKZEICHNUNG
  6
CONTINUOUS
 62
     7
 10
-11.46048464037972
 20
3329.7334112725139
 30
0.0
  0
VERTEX
  5
B5
  8
10_ZEICHNUNG-WERKZEICHNUNG
  6
CONTINUOUS
 62
     7
 10
-14.342007123715801
 20
3329.7964424012471
 30
0.0
  0
VERTEX
  5
B6
  8
10_ZEICHNUNG-WERKZEICHNUNG
  6
CONTINUOUS
 62
     7
 10
-17.223520423015319
 20
3329.8616741313031
 30
0.0
  0
VERTEX
  5
B7
  8
10_ZEICHNUNG-WERKZEICHNUNG
  6
CONTINUOUS
 62
     7
 10
-20.105024223133569
 20
3329.92910645555
 30
0.0
  0
VERTEX
  5
B8
  8
10_ZEICHNUNG-WERKZEICHNUNG
  6
CONTINUOUS
 62
     7
 10
-22.986518208936332
 20
3329.9987393666152
 30
0.0
  0
VERTEX
  5
B9
  8
10_ZEICHNUNG-WERKZEICHNUNG
  6
CONTINUOUS
 62
     7
 10
-25.86800206529006
 20
3330.0705728568801
 30
0.0
  0
VERTEX
  5
BA
  8
10_ZEICHNUNG-WERKZEICHNUNG
  6
CONTINUOUS
 62
     7
 10
-28.749475477053931
 20
3330.1446069184931
 30
0.0
  0
VERTEX
  5
BB
  8
10_ZEICHNUNG-WERKZEICHNUNG
  6
CONTINUOUS
 62
     7
 10
-31.630938129087781
 20
3330.2208415433461
 30
0.0
  0
VERTEX
  5
BC
  8
10_ZEICHNUNG-WERKZEICHNUNG
  6
CONTINUOUS
 62
     7
 10
-34.512389706266283
 20
3330.2992767231121
 30
0.0
  0
VERTEX
  5
BD
  8
10_ZEICHNUNG-WERKZEICHNUNG
  6
CONTINUOUS
 62
     7
 10
-37.393829893451539
 20
3330.3799124492139
 30
0.0
  0
VERTEX
  5
BE
  8
10_ZEICHNUNG-WERKZEICHNUNG
  6
CONTINUOUS
 62
     7
 10
-40.275258375507747
 20
3330.4627487128259
 30
0.0
  0
VERTEX
  5
BF
  8
10_ZEICHNUNG-WERKZEICHNUNG
  6
CONTINUOUS
 62
     7
 10
-43.156674837312949
 20
3330.5477855048912
 30
0.0
  0
VERTEX
  5
C0
  8
10_ZEICHNUNG-WERKZEICHNUNG
  6
CONTINUOUS
 62
     7
 10
-46.038078963733142
 20
3330.6350228161132
 30
0.0
  0
VERTEX
  5
C1
  8
10_ZEICHNUNG-WERKZEICHNUNG
  6
CONTINUOUS
 62
     7
 10
-48.919470439636363
 20
3330.7244606369459
 30
0.0
  0
VERTEX
  5
C2
  8
10_ZEICHNUNG-WERKZEICHNUNG
  6
CONTINUOUS
 62
     7
 10
-51.800848949904783
 20
3330.8160989576122
 30
0.0
  0
VERTEX
  5
C3
  8
10_ZEICHNUNG-WERKZEICHNUNG
  6
CONTINUOUS
 62
     7
 10
-54.682214179408668
 20
3330.9099377680818
 30
0.0
  0
VERTEX
  5
C4
  8
10_ZEICHNUNG-WERKZEICHNUNG
  6
CONTINUOUS
 62
     7
 10
-57.563565813020432
 20
3331.0059770581029
 30
0.0
  0
VERTEX
  5
C5
  8
10_ZEICHNUNG-WERKZEICHNUNG
  6
CONTINUOUS
 62
     7
 10
-60.44490353562604
 20
3331.104216817168
 30
0.0
  0
VERTEX
  5
C6
  8
10_ZEICHNUNG-WERKZEICHNUNG
  6
CONTINUOUS
 62
     7
 10
-63.326227032100633
 20
3331.2046570345278
 30
0.0
  0
VERTEX
  5
C7
  8
10_ZEICHNUNG-WERKZEICHNUNG
  6
CONTINUOUS
 62
     7
 10
-66.207535987320853
 20
3331.3072976992048
 30
0.0
  0
VERTEX
  5
C8
  8
10_ZEICHNUNG-WERKZEICHNUNG
  6
CONTINUOUS
 62
     7
 10
-69.08883008617363
 20
3331.4121387999689
 30
0.0
  0
VERTEX
  5
C9
  8
10_ZEICHNUNG-WERKZEICHNUNG
  6
CONTINUOUS
 62
     7
 10
-71.970109013547017
 20
3331.519180325356
 30
0.0
  0
VERTEX
  5
CA
  8
10_ZEICHNUNG-WERKZEICHNUNG
  6
CONTINUOUS
 62
     7
 10
-74.851372454322686
 20
3331.6284222636609
 30
0.0
  0
VERTEX
  5
CB
  8
10_ZEICHNUNG-WERKZEICHNUNG
  6
CONTINUOUS
 62
     7
 10
-77.73262009338373
 20
3331.7398646029328
 30
0.0
  0
VERTEX
  5
CC
  8
10_ZEICHNUNG-WERKZEICHNUNG
  6
CONTINUOUS
 62
     7
 10
-80.613851615628164
 20
3331.8535073309849
 30
0.0
  0
VERTEX
  5
CD
  8
10_ZEICHNUNG-WERKZEICHNUNG
  6
CONTINUOUS
 62
     7
 10
-83.495066705942236
 20
3331.9693504353882
 30
0.0
  0
VERTEX
  5
CE
  8
10_ZEICHNUNG-WERKZEICHNUNG
  6
CONTINUOUS
 62
     7
 10
-86.376265049214453
 20
3332.0873939034759
 30
0.0
  0
VERTEX
  5
CF
  8
10_ZEICHNUNG-WERKZEICHNUNG
  6
CONTINUOUS
 62
     7
 10
-89.257446330348316
 20
3332.2076377223361
 30
0.0
  0
VERTEX
  5
D0
  8
10_ZEICHNUNG-WERKZEICHNUNG
  6
CONTINUOUS
 62
     7
 10
-92.138610234235557
 20
3332.3300818788189
 30
0.0
  0
VERTEX
  5
D1
  8
10_ZEICHNUNG-WERKZEICHNUNG
  6
CONTINUOUS
 62
     7
 10
-95.019756445770327
 20
3332.4547263595291
 30
0.0
  0
VERTEX
  5
D2
  8
10_ZEICHNUNG-WERKZEICHNUNG
  6
CONTINUOUS
 62
     7
 10
-97.900884649861624
 20
3332.5815711508399
 30
0.0
  0
VERTEX
  5
D3
  8
10_ZEICHNUNG-WERKZEICHNUNG
  6
CONTINUOUS
 62
     7
 10
-100.78199453140719
 20
3332.7106162388818
 30
0.0
  0
VERTEX
  5
D4
  8
10_ZEICHNUNG-WERKZEICHNUNG
  6
CONTINUOUS
 62
     7
 10
-103.6630857753071
 20
3332.84186160953
 30
0.0
  0
VERTEX
  5
D5
  8
10_ZEICHNUNG-WERKZEICHNUNG
  6
CONTINUOUS
 62
     7
 10
-106.5441580664765
 20
3332.975307248445
 30
0.0
  0
VERTEX
  5
D6
  8
10_ZEICHNUNG-WERKZEICHNUNG
  6
CONTINUOUS
 62
     7
 10
-109.4252110898187
 20
3333.1109531410179
 30
0.0
  0
VERTEX
  5
D7
  8
10_ZEICHNUNG-WERKZEICHNUNG
  6
CONTINUOUS
 62
     7
 10
-112.30624453024051
 20
3333.2487992724241
 30
0.0
  0
VERTEX
  5
D8
  8
10_ZEICHNUNG-WERKZEICHNUNG
  6
CONTINUOUS
 62
     7
 10
-115.18725807265881
 20
3333.3888456275849
 30
0.0
  0
VERTEX
  5
D9
  8
10_ZEICHNUNG-WERKZEICHNUNG
  6
CONTINUOUS
 62
     7
 10
-118.0682514019923
 20
3333.5310921911841
 30
0.0
  0
VERTEX
  5
DA
  8
10_ZEICHNUNG-WERKZEICHNUNG
  6
CONTINUOUS
 62
     7
 10
-120.9492242031538
 20
3333.6755389476612
 30
0.0
  0
VERTEX
  5
DB
  8
10_ZEICHNUNG-WERKZEICHNUNG
  6
CONTINUOUS
 62
     7
 10
-123.8301761610585
 20
3333.822185881224
 30
0.0
  0
VERTEX
  5
DC
  8
10_ZEICHNUNG-WERKZEICHNUNG
  6
CONTINUOUS
 62
     7
 10
-126.7111069606362
 20
3333.9710329758341
 30
0.0
  0
VERTEX
  5
DD
  8
10_ZEICHNUNG-WERKZEICHNUNG
  6
CONTINUOUS
 62
     7
 10
-129.59201628680651
 20
3334.1220802152079
 30
0.0
  0
VERTEX
  5
DE
  8
10_ZEICHNUNG-WERKZEICHNUNG
  6
CONTINUOUS
 62
     7
 10
-132.4729038244914
 20
3334.27532758283
 30
0.0
  0
VERTEX
  5
DF
  8
10_ZEICHNUNG-WERKZEICHNUNG
  6
CONTINUOUS
 62
     7
 10
-135.35376925862781
 20
3334.4307750619369
 30
0.0
  0
VERTEX
  5
E0
  8
10_ZEICHNUNG-WERKZEICHNUNG
  6
CONTINUOUS
 62
     7
 10
-138.23461227414279
 20
3334.5884226355302
 30
0.0
  0
VERTEX
  5
E1
  8
10_ZEICHNUNG-WERKZEICHNUNG
  6
CONTINUOUS
 62
     7
 10
-141.1154325559653
 20
3334.7482702863658
 30
0.0
  0
VERTEX
  5
E2
  8
10_ZEICHNUNG-WERKZEICHNUNG
  6
CONTINUOUS
 62
     7
 10
-143.99622978903949
 20
3334.9103179969738
 30
0.0
  0
VERTEX
  5
E3
  8
10_ZEICHNUNG-WERKZEICHNUNG
  6
CONTINUOUS
 62
     7
 10
-146.8770036583
 20
3335.0745657496141
 30
0.0
  0
VERTEX
  5
E4
  8
10_ZEICHNUNG-WERKZEICHNUNG
  6
CONTINUOUS
 62
     7
 10
-149.75775384868351
 20
3335.2410135263358
 30
0.0
  0
VERTEX
  5
E5
  8
10_ZEICHNUNG-WERKZEICHNUNG
  6
CONTINUOUS
 62
     7
 10
-152.6384800451417
 20
3335.4096613089282
 30
0.0
  0
VERTEX
  5
E6
  8
10_ZEICHNUNG-WERKZEICHNUNG
  6
CONTINUOUS
 62
     7
 10
-155.5191819326169
 20
3335.5805090789481
 30
0.0
  0
VERTEX
  5
E7
  8
10_ZEICHNUNG-WERKZEICHNUNG
  6
CONTINUOUS
 62
     7
 10
-158.39985919604149
 20
3335.7535568177168
 30
0.0
  0
SEQEND
  5
E8
  8
10_ZEICHNUNG-WERKZEICHNUNG
  6
CONTINUOUS
 62
     7
  0
ENDBLK
  5
41
  8
0
  0
BLOCK
  8
0
  2
GRUPPE-2-1
 70
     0
 10
0.0
 20
0.0
 30
0.0
  3
GRUPPE-2-1
  1

  0
POLYLINE
  5
E9
  8
10_ZEICHNUNG-WERKZEICHNUNG
  6
CONTINUOUS
 62
     7
 66
     1
 10
0.0
 20
0.0
 30
0.0
 70
   128
  0
VERTEX
  5
EA
  8
10_ZEICHNUNG-WERKZEICHNUNG
  6
CONTINUOUS
 62
     7
 10
138.00000000000139
 20
3329.1142641275951
 30
0.0
  0
VERTEX
  5
EB
  8
10_ZEICHNUNG-WERKZEICHNUNG
  6
CONTINUOUS
 62
     7
 10
140.88161319767389
 20
3329.148686899397
 30
0.0
  0
VERTEX
  5
EC
  8
10_ZEICHNUNG-WERKZEICHNUNG
  6
CONTINUOUS
 62
     7
 10
143.7632213082106
 20
3329.1853103433691
 30
0.0
  0
VERTEX
  5
ED
  8
10_ZEICHNUNG-WERKZEICHNUNG
  6
CONTINUOUS
 62
     7
 10
146.64482401645751
 20
3329.2241344555041
 30
0.0
  0
VERTEX
  5
EE
  8
10_ZEICHNUNG-WERKZEICHNUNG
  6
CONTINUOUS
 62
     7
 10
149.52642100726081
 20
3329.265159231556
 30
0.0
  0
VERTEX
  5
EF
  8
10_ZEICHNUNG-WERKZEICHNUNG
  6
CONTINUOUS
 62
     7
 10
152.4080119654798
 20
3329.3083846670379
 30
0.0
  0
VERTEX
  5
F0
  8
10_ZEICHNUNG-WERKZEICHNUNG
  6
CONTINUOUS
 62
     7
 10
155.28959657596189
 20
3329.3538107572199
 30
0.0
  0
VERTEX
  5
F1
  8
10_ZEICHNUNG-WERKZEICHNUNG
  6
CONTINUOUS
 62
     7
 10
158.17117452355501
 20
3329.401437497138
 30
0.0
  0
VERTEX
  5
F2
  8
10_ZEICHNUNG-WERKZEICHNUNG
  6
CONTINUOUS
 62
     7
 10
161.05274549312119
 20
3329.4512648815789
 30
0.0
  0
VERTEX
  5
F3
  8
10_ZEICHNUNG-WERKZEICHNUNG
  6
CONTINUOUS
 62
     7
 10
163.93430916950959
 20
3329.5032929050958
 30
0.0
  0
VERTEX
  5
F4
  8
10_ZEICHNUNG-WERKZEICHNUNG
  6
CONTINUOUS
 62
     7
 10
166.81586523757051
 20
3329.557521562002
 30
0.0
  0
VERTEX
  5
F5
  8
10_ZEICHNUNG-WERKZEICHNUNG
  6
CONTINUOUS
 62
     7
 10
169.69741338216809
 20
3329.6139508463598
 30
0.0
  0
VERTEX
  5
F6
  8
10_ZEICHNUNG-WERKZEICHNUNG
  6
CONTINUOUS
 62
     7
 10
172.57895328815451
 20
3329.6725807520029
 30
0.0
  0
VERTEX
  5
F7
  8
10_ZEICHNUNG-WERKZEICHNUNG
  6
CONTINUOUS
 62
     7
 10
175.46048464038239
 20
3329.7334112725139
 30
0.0
  0
VERTEX
  5
F8
  8
10_ZEICHNUNG-WERKZEICHNUNG
  6
CONTINUOUS
 62
     7
 10
178.3420071237185
 20
3329.7964424012471
 30
0.0
  0
VERTEX
  5
F9
  8
10_ZEICHNUNG-WERKZEICHNUNG
  6
CONTINUOUS
 62
     7
 10
181.22352042301799
 20
3329.8616741313031
 30
0.0
  0
VERTEX
  5
FA
  8
10_ZEICHNUNG-WERKZEICHNUNG
  6
CONTINUOUS
 62
     7
 10
184.1050242231363
 20
3329.92910645555
 30
0.0
  0
VERTEX
  5
FB
  8
10_ZEICHNUNG-WERKZEICHNUNG
  6
CONTINUOUS
 62
     7
 10
186.98651820893909
 20
3329.9987393666152
 30
0.0
  0
VERTEX
  5
FC
  8
10_ZEICHNUNG-WERKZEICHNUNG
  6
CONTINUOUS
 62
     7
 10
189.86800206529281
 20
3330.0705728568801
 30
0.0
  0
VERTEX
  5
FD
  8
10_ZEICHNUNG-WERKZEICHNUNG
  6
CONTINUOUS
 62
     7
 10
192.74947547705659
 20
3330.1446069184931
 30
0.0
  0
VERTEX
  5
FE
  8
10_ZEICHNUNG-WERKZEICHNUNG
  6
CONTINUOUS
 62
     7
 10
195.63093812909051
 20
3330.2208415433461
 30
0.0
  0
VERTEX
  5
FF
  8
10_ZEICHNUNG-WERKZEICHNUNG
  6
CONTINUOUS
 62
     7
 10
198.51238970626881
 20
3330.2992767231121
 30
0.0
  0
VERTEX
  5
100
  8
10_ZEICHNUNG-WERKZEICHNUNG
  6
CONTINUOUS
 62
     7
 10
201.3938298934543
 20
3330.3799124492139
 30
0.0
  0
VERTEX
  5
101
  8
10_ZEICHNUNG-WERKZEICHNUNG
  6
CONTINUOUS
 62
     7
 10
204.2752583755105
 20
3330.4627487128259
 30
0.0
  0
VERTEX
  5
102
  8
10_ZEICHNUNG-WERKZEICHNUNG
  6
CONTINUOUS
 62
     7
 10
207.15667483731539
 20
3330.5477855048912
 30
0.0
  0
VERTEX
  5
103
  8
10_ZEICHNUNG-WERKZEICHNUNG
  6
CONTINUOUS
 62
     7
 10
210.0380789637359
 20
3330.6350228161132
 30
0.0
  0
VERTEX
  5
104
  8
10_ZEICHNUNG-WERKZEICHNUNG
  6
CONTINUOUS
 62
     7
 10
212.9194704396391
 20
3330.7244606369459
 30
0.0
  0
VERTEX
  5
105
  8
10_ZEICHNUNG-WERKZEICHNUNG
  6
CONTINUOUS
 62
     7
 10
215.8008489499075
 20
3330.8160989576122
 30
0.0
  0
VERTEX
  5
106
  8
10_ZEICHNUNG-WERKZEICHNUNG
  6
CONTINUOUS
 62
     7
 10
218.6822141794114
 20
3330.9099377680818
 30
0.0
  0
VERTEX
  5
107
  8
10_ZEICHNUNG-WERKZEICHNUNG
  6
CONTINUOUS
 62
     7
 10
221.5635658130229
 20
3331.0059770581029
 30
0.0
  0
VERTEX
  5
108
  8
10_ZEICHNUNG-WERKZEICHNUNG
  6
CONTINUOUS
 62
     7
 10
224.44490353562861
 20
3331.104216817168
 30
0.0
  0
VERTEX
  5
109
  8
10_ZEICHNUNG-WERKZEICHNUNG
  6
CONTINUOUS
 62
     7
 10
227.32622703210339
 20
3331.2046570345278
 30
0.0
  0
VERTEX
  5
10A
  8
10_ZEICHNUNG-WERKZEICHNUNG
  6
CONTINUOUS
 62
     7
 10
230.20753598732361
 20
3331.3072976992048
 30
0.0
  0
VERTEX
  5
10B
  8
10_ZEICHNUNG-WERKZEICHNUNG
  6
CONTINUOUS
 62
     7
 10
233.08883008617639
 20
3331.4121387999689
 30
0.0
  0
VERTEX
  5
10C
  8
10_ZEICHNUNG-WERKZEICHNUNG
  6
CONTINUOUS
 62
     7
 10
235.97010901354969
 20
3331.519180325356
 30
0.0
  0
VERTEX
  5
10D
  8
10_ZEICHNUNG-WERKZEICHNUNG
  6
CONTINUOUS
 62
     7
 10
238.8513724543254
 20
3331.6284222636609
 30
0.0
  0
VERTEX
  5
10E
  8
10_ZEICHNUNG-WERKZEICHNUNG
  6
CONTINUOUS
 62
     7
 10
241.73262009338649
 20
3331.7398646029328
 30
0.0
  0
VERTEX
  5
10F
  8
10_ZEICHNUNG-WERKZEICHNUNG
  6
CONTINUOUS
 62
     7
 10
244.61385161563089
 20
3331.8535073309849
 30
0.0
  0
VERTEX
  5
110
  8
10_ZEICHNUNG-WERKZEICHNUNG
  6
CONTINUOUS
 62
     7
 10
247.49506670594499
 20
3331.9693504353882
 30
0.0
  0
VERTEX
  5
111
  8
10_ZEICHNUNG-WERKZEICHNUNG
  6
CONTINUOUS
 62
     7
 10
250.37626504921721
 20
3332.0873939034759
 30
0.0
  0
VERTEX
  5
112
  8
10_ZEICHNUNG-WERKZEICHNUNG
  6
CONTINUOUS
 62
     7
 10
253.25744633035109
 20
3332.2076377223361
 30
0.0
  0
VERTEX
  5
113
  8
10_ZEICHNUNG-WERKZEICHNUNG
  6
CONTINUOUS
 62
     7
 10
256.1386102342384
 20
3332.3300818788189
 30
0.0
  0
VERTEX
  5
114
  8
10_ZEICHNUNG-WERKZEICHNUNG
  6
CONTINUOUS
 62
     7
 10
259.01975644577311
 20
3332.4547263595291
 30
0.0
  0
VERTEX
  5
115
  8
10_ZEICHNUNG-WERKZEICHNUNG
  6
CONTINUOUS
 62
     7
 10
261.90088464986439
 20
3332.5815711508399
 30
0.0
  0
VERTEX
  5
116
  8
10_ZEICHNUNG-WERKZEICHNUNG
  6
CONTINUOUS
 62
     7
 10
264.78199453141002
 20
3332.7106162388818
 30
0.0
  0
VERTEX
  5
117
  8
10_ZEICHNUNG-WERKZEICHNUNG
  6
CONTINUOUS
 62
     7
 10
267.66308577530998
 20
3332.84186160953
 30
0.0
  0
VERTEX
  5
118
  8
10_ZEICHNUNG-WERKZEICHNUNG
  6
CONTINUOUS
 62
     7
 10
270.54415806647899
 20
3332.975307248445
 30
0.0
  0
VERTEX
  5
119
  8
10_ZEICHNUNG-WERKZEICHNUNG
  6
CONTINUOUS
 62
     7
 10
273.42521108982152
 20
3333.1109531410179
 30
0.0
  0
VERTEX
  5
11A
  8
10_ZEICHNUNG-WERKZEICHNUNG
  6
CONTINUOUS
 62
     7
 10
276.30624453024319
 20
3333.2487992724241
 30
0.0
  0
VERTEX
  5
11B
  8
10_ZEICHNUNG-WERKZEICHNUNG
  6
CONTINUOUS
 62
     7
 10
279.18725807266151
 20
3333.3888456275849
 30
0.0
  0
VERTEX
  5
11C
  8
10_ZEICHNUNG-WERKZEICHNUNG
  6
CONTINUOUS
 62
     7
 10
282.06825140199481
 20
3333.5310921911841
 30
0.0
  0
VERTEX
  5
11D
  8
10_ZEICHNUNG-WERKZEICHNUNG
  6
CONTINUOUS
 62
     7
 10
284.94922420315652
 20
3333.6755389476612
 30
0.0
  0
VERTEX
  5
11E
  8
10_ZEICHNUNG-WERKZEICHNUNG
  6
CONTINUOUS
 62
     7
 10
287.83017616106099
 20
3333.822185881224
 30
0.0
  0
VERTEX
  5
11F
  8
10_ZEICHNUNG-WERKZEICHNUNG
  6
CONTINUOUS
 62
     7
 10
290.71110696063869
 20
3333.9710329758341
 30
0.0
  0
VERTEX
  5
120
  8
10_ZEICHNUNG-WERKZEICHNUNG
  6
CONTINUOUS
 62
     7
 10
293.59201628680921
 20
3334.1220802152079
 30
0.0
  0
VERTEX
  5
121
  8
10_ZEICHNUNG-WERKZEICHNUNG
  6
CONTINUOUS
 62
     7
 10
296.47290382449393
 20
3334.27532758283
 30
0.0
  0
VERTEX
  5
122
  8
10_ZEICHNUNG-WERKZEICHNUNG
  6
CONTINUOUS
 62
     7
 10
299.35376925863062
 20
3334.4307750619369
 30
0.0
  0
VERTEX
  5
123
  8
10_ZEICHNUNG-WERKZEICHNUNG
  6
CONTINUOUS
 62
     7
 10
302.23461227414549
 20
3334.5884226355302
 30
0.0
  0
VERTEX
  5
124
  8
10_ZEICHNUNG-WERKZEICHNUNG
  6
CONTINUOUS
 62
     7
 10
305.11543255596803
 20
3334.7482702863658
 30
0.0
  0
VERTEX
  5
125
  8
10_ZEICHNUNG-WERKZEICHNUNG
  6
CONTINUOUS
 62
     7
 10
307.99622978904222
 20
3334.9103179969738
 30
0.0
  0
VERTEX
  5
126
  8
10_ZEICHNUNG-WERKZEICHNUNG
  6
CONTINUOUS
 62
     7
 10
310.87700365830278
 20
3335.0745657496141
 30
0.0
  0
VERTEX
  5
127
  8
10_ZEICHNUNG-WERKZEICHNUNG
  6
CONTINUOUS
 62
     7
 10
313.75775384868598
 20
3335.2410135263358
 30
0.0
  0
VERTEX
  5
128
  8
10_ZEICHNUNG-WERKZEICHNUNG
  6
CONTINUOUS
 62
     7
 10
316.63848004514438
 20
3335.4096613089282
 30
0.0
  0
VERTEX
  5
129
  8
10_ZEICHNUNG-WERKZEICHNUNG
  6
CONTINUOUS
 62
     7
 10
319.51918193261969
 20
3335.5805090789481
 30
0.0
  0
VERTEX
  5
12A
  8
10_ZEICHNUNG-WERKZEICHNUNG
  6
CONTINUOUS
 62
     7
 10
322.39985919604419
 20
3335.7535568177168
 30
0.0
  0
SEQEND
  5
12B
  8
10_ZEICHNUNG-WERKZEICHNUNG
  6
CONTINUOUS
 62
     7
  0
ENDBLK
  5
44
  8
0
  0
BLOCK
  8
0
  2
*D2
 70
     1
 10
0.0
 20
0.0
 30
0.0
  3
*D2
  1

  0
LINE
  5
3A1
  8
BEMAŠUNG
  6
CONTINUOUS
 62
     0
 10
332.00000000000171
 20
4074.4565031439179
 30
0.0
 11
332.00000000000171
 21
4248.3281484314284
 31
0.0
  0
LINE
  5
3A2
  8
BEMAŠUNG
  6
CONTINUOUS
 62
     0
 10
-167.99999999999849
 20
4074.4565031439179
 30
0.0
 11
-167.99999999999849
 21
4248.3281484314284
 31
0.0
  0
LINE
  5
3A3
  8
BEMAŠUNG
  6
CONTINUOUS
 62
     0
 10
317.86132812500159
 20
4228.3281484314293
 30
0.0
 11
-153.86132812499849
 21
4228.3281484314293
 31
0.0
  0
INSERT
  5
3A4
  8
BEMAŠUNG
  6
CONTINUOUS
 62
     0
  2
VW_SLASH
 10
332.00000000000171
 20
4228.3281484314293
 30
0.0
 41
14.138671875
 42
14.138671875
 43
14.138671875
  0
INSERT
  5
3A5
  8
BEMAŠUNG
  6
CONTINUOUS
 62
     0
  2
VW_SLASH
 10
-167.99999999999849
 20
4228.3281484314293
 30
0.0
 41
14.138671875
 42
14.138671875
 43
14.138671875
 50
180.0
  0
TEXT
  8
BEMAŠUNG
  40
35.3696
  5
3FA
  62
0
  72
0
  71
0
 10
11.2607
 20
4186.28
 30
0.000000
  1
500
  7
ARIAL
  0
POINT
  5
3A7
  8
DEFPOINTS
  6
CONTINUOUS
 62
     0
 10
332.00000000000171
 20
4044.4565031439179
 30
0.0
  0
POINT
  5
3A8
  8
DEFPOINTS
  6
CONTINUOUS
 62
     0
 10
-167.99999999999849
 20
4044.4565031439179
 30
0.0
  0
POINT
  5
3A9
  8
DEFPOINTS
  6
CONTINUOUS
 62
     0
 10
-167.99999999999849
 20
4228.3281484314293
 30
0.0
  0
ENDBLK
  5
47
  8
0
  0
BLOCK
  8
0
  2
*D3
 70
     1
 10
0.0
 20
0.0
 30
0.0
  3
*D3
  1

  0
LINE
  5
3AA
  8
BEMAŠUNG
  6
CONTINUOUS
 62
     0
 10
344.00000000000108
 20
4074.456503143917
 30
0.0
 11
344.00000000000108
 21
4330.7027777777757
 31
0.0
  0
LINE
  5
3AB
  8
BEMAŠUNG
  6
CONTINUOUS
 62
     0
 10
-179.99999999999841
 20
4074.4565031439229
 30
0.0
 11
-179.99999999999841
 21
4330.7027777777757
 31
0.0
  0
LINE
  5
3AC
  8
BEMAŠUNG
  6
CONTINUOUS
 62
     0
 10
329.86132812500108
 20
4310.7027777777757
 30
0.0
 11
-165.86132812499841
 21
4310.7027777777757
 31
0.0
  0
INSERT
  5
3AD
  8
BEMAŠUNG
  6
CONTINUOUS
 62
     0
  2
VW_SLASH
 10
344.00000000000108
 20
4310.7027777777757
 30
0.0
 41
14.138671875
 42
14.138671875
 43
14.138671875
  0
INSERT
  5
3AE
  8
BEMAŠUNG
  6
CONTINUOUS
 62
     0
  2
VW_SLASH
 10
-179.99999999999841
 20
4310.7027777777757
 30
0.0
 41
14.138671875
 42
14.138671875
 43
14.138671875
 50
180.0
  0
TEXT
  8
BEMAŠUNG
  40
35.3696
  5
3FB
  62
0
  72
0
  71
0
 10
11.2607
 20
4268.66
 30
0.000000
  1
524
  7
ARIAL
  0
POINT
  5
3B0
  8
DEFPOINTS
  6
CONTINUOUS
 62
     0
 10
344.00000000000108
 20
4044.456503143917
 30
0.0
  0
POINT
  5
3B1
  8
DEFPOINTS
  6
CONTINUOUS
 62
     0
 10
-179.99999999999841
 20
4044.4565031439229
 30
0.0
  0
POINT
  5
3B2
  8
DEFPOINTS
  6
CONTINUOUS
 62
     0
 10
-179.99999999999841
 20
4310.7027777777757
 30
0.0
  0
ENDBLK
  5
4A
  8
0
  0
BLOCK
  8
0
  2
*D4
 70
     1
 10
0.0
 20
0.0
 30
0.0
  3
*D4
  1

  0
LINE
  5
3B3
  8
BEMAŠUNG
  6
CONTINUOUS
 62
     0
 10
282.00000000000318
 20
3724.4565031439161
 30
0.0
 11
451.2410688055997
 21
3724.4565031439161
 31
0.0
  0
LINE
  5
3B4
  8
BEMAŠUNG
  6
CONTINUOUS
 62
     0
 10
282.00000000000188
 20
4124.456503143917
 30
0.0
 11
451.2410688055997
 21
4124.456503143917
 31
0.0
  0
LINE
  5
3B5
  8
BEMAŠUNG
  6
CONTINUOUS
 62
     0
 10
431.2410688055997
 20
3738.595175018917
 30
0.0
 11
431.2410688055997
 21
4110.317831268917
 31
0.0
  0
INSERT
  5
3B6
  8
BEMAŠUNG
  6
CONTINUOUS
 62
     0
  2
VW_SLASH
 10
431.2410688055997
 20
3724.4565031439161
 30
0.0
 41
14.138671875
 42
14.138671875
 43
14.138671875
 50
270.0
  0
INSERT
  5
3B7
  8
BEMAŠUNG
  6
CONTINUOUS
 62
     0
  2
VW_SLASH
 10
431.2410688055997
 20
4124.456503143917
 30
0.0
 41
14.138671875
 42
14.138671875
 43
14.138671875
 50
90.0
  0
TEXT
  8
BEMAŠUNG
  40
35.3696
  5
3FC
  62
0
  72
0
  71
0
 10
339.943
 20
3861.85
 30
0.000000
  1
400
  7
ARIAL
  0
POINT
  5
3B9
  8
DEFPOINTS
  6
CONTINUOUS
 62
     0
 10
252.00000000000321
 20
3724.4565031439161
 30
0.0
  0
POINT
  5
3BA
  8
DEFPOINTS
  6
CONTINUOUS
 62
     0
 10
252.00000000000199
 20
4124.456503143917
 30
0.0
  0
POINT
  5
3BB
  8
DEFPOINTS
  6
CONTINUOUS
 62
     0
 10
431.2410688055997
 20
4124.456503143917
 30
0.0
  0
ENDBLK
  5
4D
  8
0
  0
BLOCK
  8
0
  2
*D5
 70
     1
 10
0.0
 20
0.0
 30
0.0
  3
*D5
  1

  0
LINE
  5
3BC
  8
BEMAŠUNG
  6
CONTINUOUS
 62
     0
 10
282.0000000000129
 20
3712.4565031439161
 30
0.0
 11
531.40548440248892
 21
3712.4565031439161
 31
0.0
  0
LINE
  5
3BD
  8
BEMAŠUNG
  6
CONTINUOUS
 62
     0
 10
282.00000000000239
 20
4136.4565031439161
 30
0.0
 11
531.40548440248904
 21
4136.4565031439161
 31
0.0
  0
LINE
  5
3BE
  8
BEMAŠUNG
  6
CONTINUOUS
 62
     0
 10
511.40548440248898
 20
3726.5951750189161
 30
0.0
 11
511.40548440248898
 21
4122.3178312689161
 31
0.0
  0
INSERT
  5
3BF
  8
BEMAŠUNG
  6
CONTINUOUS
 62
     0
  2
VW_SLASH
 10
511.40548440248898
 20
3712.4565031439161
 30
0.0
 41
14.138671875
 42
14.138671875
 43
14.138671875
 50
270.0
  0
INSERT
  5
3C0
  8
BEMAŠUNG
  6
CONTINUOUS
 62
     0
  2
VW_SLASH
 10
511.40548440248898
 20
4136.4565031439161
 30
0.0
 41
14.138671875
 42
14.138671875
 43
14.138671875
 50
90.0
  0
TEXT
  8
BEMAŠUNG
  40
35.3696
  5
3FD
  62
0
  72
0
  71
0
 10
420.409
 20
3861.85
 30
0.000000
  1
424
  7
ARIAL
  0
POINT
  5
3C2
  8
DEFPOINTS
  6
CONTINUOUS
 62
     0
 10
252.0000000000129
 20
3712.4565031439161
 30
0.0
  0
POINT
  5
3C3
  8
DEFPOINTS
  6
CONTINUOUS
 62
     0
 10
252.00000000000239
 20
4136.4565031439161
 30
0.0
  0
POINT
  5
3C4
  8
DEFPOINTS
  6
CONTINUOUS
 62
     0
 10
511.40548440248898
 20
4136.4565031439161
 30
0.0
  0
ENDBLK
  5
50
  8
0
  0
BLOCK
  8
0
  2
*D6
 70
     1
 10
0.0
 20
0.0
 30
0.0
  3
*D6
  1

  0
LINE
  5
3C5
  8
BEMAŠUNG
  6
CONTINUOUS
 62
     0
 10
112.00000000000161
 20
3999.4565031439179
 30
0.0
 11
230.31276549063949
 21
3999.4565031439179
 31
0.0
  0
LINE
  5
3C6
  8
BEMAŠUNG
  6
CONTINUOUS
 62
     0
 10
173.72076608843531
 20
4124.456503143917
 30
0.0
 11
230.31276549063949
 21
4124.456503143917
 31
0.0
  0
LINE
  5
3C7
  8
BEMAŠUNG
  6
CONTINUOUS
 62
     0
 10
210.31276549063949
 20
4013.5951750189179
 30
0.0
 11
210.31276549063949
 21
4110.317831268917
 31
0.0
  0
INSERT
  5
3C8
  8
BEMAŠUNG
  6
CONTINUOUS
 62
     0
  2
VW_SLASH
 10
210.31276549063949
 20
3999.4565031439179
 30
0.0
 41
14.138671875
 42
14.138671875
 43
14.138671875
 50
270.0
  0
INSERT
  5
3C9
  8
BEMAŠUNG
  6
CONTINUOUS
 62
     0
  2
VW_SLASH
 10
210.31276549063949
 20
4124.456503143917
 30
0.0
 41
14.138671875
 42
14.138671875
 43
14.138671875
 50
90.0
  0
TEXT
  8
BEMAŠUNG
  40
35.3696
  5
3FE
  62
0
  72
0
  71
0
 10
119.015
 20
3999.35
 30
0.000000
  1
125
  7
ARIAL
  0
POINT
  5
3CB
  8
DEFPOINTS
  6
CONTINUOUS
 62
     0
 10
82.000000000001592
 20
3999.4565031439179
 30
0.0
  0
POINT
  5
3CC
  8
DEFPOINTS
  6
CONTINUOUS
 62
     0
 10
143.72076608843531
 20
4124.456503143917
 30
0.0
  0
POINT
  5
3CD
  8
DEFPOINTS
  6
CONTINUOUS
 62
     0
 10
210.31276549063949
 20
4124.456503143917
 30
0.0
  0
ENDBLK
  5
53
  8
0
  0
BLOCK
  8
0
  2
*D7
 70
     1
 10
0.0
 20
0.0
 30
0.0
  3
*D7
  1

  0
LINE
  5
3D2
  8
BEMAŠUNG
  6
CONTINUOUS
 62
     0
 10
114.3616542135148
 20
4050.1455866970268
 30
0.0
 11
121.9699168503769
 21
4062.0626493400368
 31
0.0
  0
LINE
  5
3D3
  8
BEMAŠUNG
  6
CONTINUOUS
 62
     0
 10
49.638345786488799
 20
3948.7674195908121
 30
0.0
 11
22.202670032904731
 21
3905.7940520542188
 31
0.0
  0
LINE
  5
3D4
  8
BEMAŠUNG
  6
CONTINUOUS
 62
     0
 10
22.202670032904731
 20
3905.7940520542188
 30
0.0
 11
-69.083346969773174
 21
3905.7940520542188
 31
0.0
  0
LINE
  5
3D5
  8
BEMAŠUNG
  6
CONTINUOUS
 62
     0
 10
106.7533915766526
 20
4038.2285240540159
 30
0.0
 11
57.246608423350828
 21
3960.6844822338221
 31
0.0
  0
INSERT
  5
3D6
  8
BEMAŠUNG
  6
CONTINUOUS
 62
     0
  2
VW_EMPTYARROW
 10
106.7533915766526
 20
4038.2285240540159
 30
0.0
 41
14.138671875
 42
14.138671875
 43
14.138671875
 50
237.44443920172731
  0
INSERT
  5
3D7
  8
BEMAŠUNG
  6
CONTINUOUS
 62
     0
  2
VW_EMPTYARROW
 10
57.246608423350828
 20
3960.6844822338221
 30
0.0
 41
14.138671875
 42
14.138671875
 43
14.138671875
 50
57.444439201727299
  0
TEXT
  8
BEMAŠUNG
  40
35.3696
  5
3FF
  62
0
  72
0
  71
0
 10
-95.4296
 20
3864.74
 30
0.000000
  1
%%c92
  7
ARIAL
  0
POINT
  5
3D9
  8
DEFPOINTS
  6
CONTINUOUS
 62
     0
 10
57.246608423350828
 20
3960.6844822338221
 30
0.0
  0
POINT
  5
3DA
  8
DEFPOINTS
  6
CONTINUOUS
 62
     0
 10
106.7533915766526
 20
4038.2285240540159
 30
0.0
  0
ENDBLK
  5
56
  8
0
  0
BLOCK
  8
0
  2
*D8
 70
     1
 10
0.0
 20
0.0
 30
0.0
  3
*D8
  1

  0
LINE
  5
3DB
  8
BEMAŠUNG
  6
CONTINUOUS
 62
     0
 10
374.00000000000131
 20
3319.3536976216001
 30
0.0
 11
451.05238130441052
 21
3319.3536976216001
 31
0.0
  0
LINE
  5
3DC
  8
BEMAŠUNG
  6
CONTINUOUS
 62
     0
 10
374.00000000000131
 20
3500.3536976216001
 30
0.0
 11
451.05238130441057
 21
3500.3536976216001
 31
0.0
  0
LINE
  5
3DD
  8
BEMAŠUNG
  6
CONTINUOUS
 62
     0
 10
431.05238130441052
 20
3333.4923694966001
 30
0.0
 11
431.05238130441057
 21
3486.2150257466001
 31
0.0
  0
INSERT
  5
3DE
  8
BEMAŠUNG
  6
CONTINUOUS
 62
     0
  2
VW_SLASH
 10
431.05238130441052
 20
3319.3536976216001
 30
0.0
 41
14.138671875
 42
14.138671875
 43
14.138671875
 50
270.0
  0
INSERT
  5
3DF
  8
BEMAŠUNG
  6
CONTINUOUS
 62
     0
  2
VW_SLASH
 10
431.05238130441057
 20
3500.3536976216001
 30
0.0
 41
14.138671875
 42
14.138671875
 43
14.138671875
 50
90.0
  0
TEXT
  8
BEMAŠUNG
  40
35.3696
  5
400
  62
0
  72
0
  71
0
 10
339.754
 20
3347.25
 30
0.000000
  1
181
  7
ARIAL
  0
POINT
  5
3E1
  8
DEFPOINTS
  6
CONTINUOUS
 62
     0
 10
344.00000000000142
 20
3319.3536976216001
 30
0.0
  0
POINT
  5
3E2
  8
DEFPOINTS
  6
CONTINUOUS
 62
     0
 10
344.00000000000142
 20
3500.3536976216001
 30
0.0
  0
POINT
  5
3E3
  8
DEFPOINTS
  6
CONTINUOUS
 62
     0
 10
431.05238130441057
 20
3500.3536976216001
 30
0.0
  0
ENDBLK
  5
59
  8
0
  0
BLOCK
  8
0
  2
*D9
 70
     1
 10
0.0
 20
0.0
 30
0.0
  3
*D9
  1

  0
LINE
  5
3E4
  8
BEMAŠUNG
  6
CONTINUOUS
 62
     0
 10
191.05274549312119
 20
3329.4512648815789
 30
0.0
 11
192.29246478745711
 21
3329.4512648815789
 31
0.0
  0
LINE
  5
3E5
  8
BEMAŠUNG
  6
CONTINUOUS
 62
     0
 10
142.8645781170485
 20
3500.3536976216001
 30
0.0
 11
152.29246478745719
 21
3500.3536976216001
 31
0.0
  0
LINE
  5
3E6
  8
BEMAŠUNG
  6
CONTINUOUS
 62
     0
 10
172.29246478745711
 20
3343.5899367565789
 30
0.0
 11
172.29246478745719
 21
3486.2150257466001
 31
0.0
  0
INSERT
  5
3E7
  8
BEMAŠUNG
  6
CONTINUOUS
 62
     0
  2
VW_SLASH
 10
172.29246478745711
 20
3329.4512648815789
 30
0.0
 41
14.138671875
 42
14.138671875
 43
14.138671875
 50
270.0
  0
INSERT
  5
3E8
  8
BEMAŠUNG
  6
CONTINUOUS
 62
     0
  2
VW_SLASH
 10
172.29246478745719
 20
3500.3536976216001
 30
0.0
 41
14.138671875
 42
14.138671875
 43
14.138671875
 50
90.0
  0
TEXT
  8
BEMAŠUNG
  40
35.3696
  5
401
  62
0
  72
0
  71
0
 10
80.9944
 20
3352.30
 30
0.000000
  1
170
  7
ARIAL
  0
POINT
  5
3EA
  8
DEFPOINTS
  6
CONTINUOUS
 62
     0
 10
161.05274549312119
 20
3329.4512648815789
 30
0.0
  0
POINT
  5
3EB
  8
DEFPOINTS
  6
CONTINUOUS
 62
     0
 10
172.8645781170485
 20
3500.3536976216001
 30
0.0
  0
POINT
  5
3EC
  8
DEFPOINTS
  6
CONTINUOUS
 62
     0
 10
172.29246478745719
 20
3500.3536976216001
 30
0.0
  0
ENDBLK
  5
5C
  8
0
  0
BLOCK
  8
0
  2
VW_SLASH
 70
     0
 10
0.0
 20
0.0
 30
0.0
  3
VW_SLASH
  1

  0
LINE
  5
98
  8
0
  6
BYBLOCK
 62
     0
 10
0.0
 20
0.0
 30
0.0
 11
-1.0
 21
0.0
 31
0.0
  0
POLYLINE
  5
99
  8
10_ZEICHNUNG-WERKZEICHNUNG
 62
     0
 66
     1
 10
0.0
 20
0.0
 30
0.0
 70
   128
  0
VERTEX
  5
9A
  8
10_ZEICHNUNG-WERKZEICHNUNG
 62
     0
 10
0.4987813153181721
 20
0.4987813153181719
 30
0.0
  0
VERTEX
  5
9B
  8
10_ZEICHNUNG-WERKZEICHNUNG
 62
     0
 10
-0.4987813153181719
 20
-0.4987813153181721
 30
0.0
  0
SEQEND
  5
9C
  8
10_ZEICHNUNG-WERKZEICHNUNG
 62
     0
  0
ENDBLK
  5
97
  8
0
  0
BLOCK
  8
0
  2
VW_EMPTYARROW
 70
     0
 10
0.0
 20
0.0
 30
0.0
  3
VW_EMPTYARROW
  1

  0
LINE
  5
A0
  8
0
  6
BYBLOCK
 62
     0
 10
0.0
 20
0.0
 30
0.0
 11
-1.0
 21
0.0
 31
0.0
  0
POLYLINE
  5
A1
  8
10_ZEICHNUNG-WERKZEICHNUNG
 62
     0
 66
     1
 10
0.0
 20
0.0
 30
0.0
 70
   128
  0
VERTEX
  5
A2
  8
10_ZEICHNUNG-WERKZEICHNUNG
 62
     0
 10
-0.6976318359375
 20
0.1869298870536946
 30
0.0
  0
VERTEX
  5
A3
  8
10_ZEICHNUNG-WERKZEICHNUNG
 62
     0
 10
0.0
 20
0.0
 30
0.0
  0
VERTEX
  5
A4
  8
10_ZEICHNUNG-WERKZEICHNUNG
 62
     0
 10
-0.6976318359375
 20
-0.1869298870536948
 30
0.0
  0
SEQEND
  5
A5
  8
10_ZEICHNUNG-WERKZEICHNUNG
 62
     0
  0
ENDBLK
  5
9F
  8
0
  0
BLOCK
  8
0
  2
*U13
 70
     1
 10
0.0
 20
0.0
 30
0.0
  3
*U13
  1

  0
TEXT
  5
371
  8
BEMAŠUNG
 62
     0
 10
207.13980125904811
 20
4019.0352193809381
 30
0.0
 40
35.36964699074074
  1
125
 50
90.0
  7
ARIAL
  0
ENDBLK
  5
373
  8
0
  0
BLOCK
  8
0
  2
*U14
 70
     1
 10
0.0
 20
0.0
 30
0.0
  3
*U14
  1

  0
TEXT
  5
375
  8
BEMAŠUNG
 62
     0
 10
-69.083346969772862
 20
3910.3498343739921
 30
0.0
 40
35.36964699074074
  1
\U+2205
  7
ARIAL
  0
TEXT
  5
376
  8
BEMAŠUNG
 62
     0
 10
-30.649617327037529
 20
3910.3498343739921
 30
0.0
 40
35.36964699074074
  1
92
  7
ARIAL
  0
ENDBLK
  5
378
  8
0
  0
BLOCK
  8
0
  2
*U15
 70
     1
 10
0.0
 20
0.0
 30
0.0
  3
*U15
  1

  0
TEXT
  5
37A
  8
BEMAŠUNG
 62
     0
 10
427.87941707281908
 20
3370.4790292117168
 30
0.0
 40
35.36964699074074
  1
181
 50
90.0
  7
ARIAL
  0
ENDBLK
  5
37C
  8
0
  0
BLOCK
  8
0
  2
*U16
 70
     1
 10
0.0
 20
0.0
 30
0.0
  3
*U16
  1

  0
TEXT
  5
37E
  8
BEMAŠUNG
 62
     0
 10
169.11950055586581
 20
3372.174210569051
 30
0.0
 40
35.36964699074074
  1
170
 50
90.0
  7
ARIAL
  0
ENDBLK
  5
380
  8
0
  0
BLOCK
  8
0
  2
*U17
 70
     1
 10
0.0
 20
0.0
 30
0.0
  3
*U17
  1

  0
TEXT
  5
3CF
  8
BEMAŠUNG
 62
     7
 10
192.0326520646837
 20
3809.9977342530128
 30
0.0
 40
35.36964699074074
  1
R 80
  7
ARIAL
  0
ENDBLK
  5
3D1
  8
0
  0
ENDSEC
  0
SECTION
  2
ENTITIES
  0
POLYLINE
  5
1B3
  8
10_ZEICHNUNG-WERKZEICHNUNG
  6
CONTINUOUS
 62
     7
 66
     1
 10
0.0
 20
0.0
 30
0.0
 70
     1
  0
VERTEX
  5
381
  8
10_ZEICHNUNG-WERKZEICHNUNG
  6
CONTINUOUS
 62
     7
 10
-179.99999999999861
 20
4044.4565031439179
 30
0.0
  0
VERTEX
  5
382
  8
10_ZEICHNUNG-WERKZEICHNUNG
  6
CONTINUOUS
 62
     7
 10
-179.99999999999861
 20
3804.4565031439161
 30
0.0
 42
0.4142135623730951
  0
VERTEX
  5
383
  8
10_ZEICHNUNG-WERKZEICHNUNG
  6
CONTINUOUS
 62
     7
 10
-87.999999999999105
 20
3712.4565031439161
 30
0.0
  0
VERTEX
  5
384
  8
10_ZEICHNUNG-WERKZEICHNUNG
  6
CONTINUOUS
 62
     7
 10
252.00000000000159
 20
3712.4565031439161
 30
0.0
 42
0.1989123673797558
  0
VERTEX
  5
385
  8
10_ZEICHNUNG-WERKZEICHNUNG
  6
CONTINUOUS
 62
     7
 10
317.05382386917393
 20
3739.4026792747641
 30
0.0
 42
0.1989123673796158
  0
VERTEX
  5
386
  8
10_ZEICHNUNG-WERKZEICHNUNG
  6
CONTINUOUS
 62
     7
 10
344.00000000000063
 20
3804.4565031439151
 30
0.0
  0
VERTEX
  5
387
  8
10_ZEICHNUNG-WERKZEICHNUNG
  6
CONTINUOUS
 62
     7
 10
344.00000000000108
 20
4044.456503143917
 30
0.0
 42
0.4142135623730951
  0
VERTEX
  5
388
  8
10_ZEICHNUNG-WERKZEICHNUNG
  6
CONTINUOUS
 62
     7
 10
252.0000000000023
 20
4136.4565031439161
 30
0.0
  0
VERTEX
  5
389
  8
10_ZEICHNUNG-WERKZEICHNUNG
  6
CONTINUOUS
 62
     7
 10
-88.000000000001165
 20
4136.4565031439161
 30
0.0
 42
0.1989123673796582
  0
VERTEX
  5
38A
  8
10_ZEICHNUNG-WERKZEICHNUNG
  6
CONTINUOUS
 62
     7
 10
-153.05382386916199
 20
4109.5103270130794
 30
0.0
 42
0.198912367379683
  0
VERTEX
  5
38B
  8
10_ZEICHNUNG-WERKZEICHNUNG
  6
CONTINUOUS
 62
     7
 10
-179.99999999999861
 20
4044.4565031439179
 30
0.0
  0
SEQEND
  5
38C
  8
10_ZEICHNUNG-WERKZEICHNUNG
  6
CONTINUOUS
 62
     7
  0
POLYLINE
  5
1B4
  8
10_ZEICHNUNG-WERKZEICHNUNG
  6
CONTINUOUS
 62
     7
 66
     1
 10
0.0
 20
0.0
 30
0.0
 70
     1
  0
VERTEX
  5
38D
  8
10_ZEICHNUNG-WERKZEICHNUNG
  6
CONTINUOUS
 62
     7
 10
252.00000000000179
 20
3724.4565031439161
 30
0.0
  0
VERTEX
  5
38E
  8
10_ZEICHNUNG-WERKZEICHNUNG
  6
CONTINUOUS
 62
     7
 10
-87.99999999999865
 20
3724.4565031439161
 30
0.0
 42
-0.4142135623730951
  0
VERTEX
  5
38F
  8
10_ZEICHNUNG-WERKZEICHNUNG
  6
CONTINUOUS
 62
     7
 10
-167.99999999999849
 20
3804.4565031439161
 30
0.0
  0
VERTEX
  5
390
  8
10_ZEICHNUNG-WERKZEICHNUNG
  6
CONTINUOUS
 62
     7
 10
-167.99999999999849
 20
4044.4565031439179
 30
0.0
 42
-0.4142135623730951
  0
VERTEX
  5
391
  8
10_ZEICHNUNG-WERKZEICHNUNG
  6
CONTINUOUS
 62
     7
 10
-87.99999999999865
 20
4124.456503143917
 30
0.0
  0
VERTEX
  5
392
  8
10_ZEICHNUNG-WERKZEICHNUNG
  6
CONTINUOUS
 62
     7
 10
252.00000000000179
 20
4124.456503143917
 30
0.0
 42
-0.4142135623730952
  0
VERTEX
  5
393
  8
10_ZEICHNUNG-WERKZEICHNUNG
  6
CONTINUOUS
 62
     7
 10
332.00000000000182
 20
4044.4565031439179
 30
0.0
  0
VERTEX
  5
394
  8
10_ZEICHNUNG-WERKZEICHNUNG
  6
CONTINUOUS
 62
     7
 10
332.00000000000171
 20
3804.4565031439161
 30
0.0
 42
-0.4142135623730951
  0
VERTEX
  5
395
  8
10_ZEICHNUNG-WERKZEICHNUNG
  6
CONTINUOUS
 62
     7
 10
252.00000000000179
 20
3724.4565031439161
 30
0.0
  0
SEQEND
  5
396
  8
10_ZEICHNUNG-WERKZEICHNUNG
  6
CONTINUOUS
 62
     7
  0
CIRCLE
  5
1B5
  8
10_ZEICHNUNG-WERKZEICHNUNG
  6
CONTINUOUS
 62
     7
 10
82.000000000001592
 20
3999.4565031439179
 30
0.0
 40
46.000000000000213
  0
CIRCLE
  5
1B6
  8
10_ZEICHNUNG-WERKZEICHNUNG
  6
CONTINUOUS
 62
     7
 10
82.000000000001592
 20
3999.4565031439179
 30
0.0
 40
56.000000000000043
  0
POLYLINE
  5
1B7
  8
10_ZEICHNUNG-WERKZEICHNUNG
  6
CONTINUOUS
 62
     7
 66
     1
 10
0.0
 20
0.0
 30
0.0
 70
     1
  0
VERTEX
  5
397
  8
10_ZEICHNUNG-WERKZEICHNUNG
  6
CONTINUOUS
 62
     7
 10
-87.999999999998394
 20
4124.456503143917
 30
0.0
  0
VERTEX
  5
398
  8
10_ZEICHNUNG-WERKZEICHNUNG
  6
CONTINUOUS
 62
     7
 10
252.00000000000159
 20
4124.456503143917
 30
0.0
 42
-0.4142135623730951
  0
VERTEX
  5
399
  8
10_ZEICHNUNG-WERKZEICHNUNG
  6
CONTINUOUS
 62
     7
 10
332.00000000000171
 20
4044.456503143917
 30
0.0
  0
VERTEX
  5
39A
  8
10_ZEICHNUNG-WERKZEICHNUNG
  6
CONTINUOUS
 62
     7
 10
332.00000000000171
 20
3804.4565031439179
 30
0.0
 42
-0.4142135623730951
  0
VERTEX
  5
39B
  8
10_ZEICHNUNG-WERKZEICHNUNG
  6
CONTINUOUS
 62
     7
 10
252.00000000000159
 20
3724.4565031439179
 30
0.0
  0
VERTEX
  5
39C
  8
10_ZEICHNUNG-WERKZEICHNUNG
  6
CONTINUOUS
 62
     7
 10
-87.999999999998437
 20
3724.4565031439179
 30
0.0
 42
-0.4142135623730951
  0
VERTEX
  5
39D
  8
10_ZEICHNUNG-WERKZEICHNUNG
  6
CONTINUOUS
 62
     7
 10
-167.99999999999841
 20
3804.4565031439179
 30
0.0
  0
VERTEX
  5
39E
  8
10_ZEICHNUNG-WERKZEICHNUNG
  6
CONTINUOUS
 62
     7
 10
-167.99999999999841
 20
4044.456503143917
 30
0.0
 42
-0.4142135623730951
  0
VERTEX
  5
39F
  8
10_ZEICHNUNG-WERKZEICHNUNG
  6
CONTINUOUS
 62
     7
 10
-87.999999999998394
 20
4124.456503143917
 30
0.0
  0
SEQEND
  5
3A0
  8
10_ZEICHNUNG-WERKZEICHNUNG
  6
CONTINUOUS
 62
     7
  0
CIRCLE
  5
1E3
  8
10_ZEICHNUNG-WERKZEICHNUNG
  6
CONTINUOUS
 62
     7
 10
82.000000000001364
 20
3470.3536976216001
 30
0.0
 40
18.0
  0
CIRCLE
  5
1E4
  8
10_ZEICHNUNG-WERKZEICHNUNG
  6
CONTINUOUS
 62
     7
 10
82.000000000001364
 20
3470.3536976216001
 30
0.0
 40
16.0
  0
DIMENSION
  5
1EA
  8
BEMAŠUNG
  6
CONTINUOUS
 62
     7
  2
*D2
 10
-167.99999999999849
 20
4228.3281484314293
 30
0.0
 11
82.000000000001535
 21
4248.886934770152
 31
0.0
 70
     0
 13
332.00000000000171
 23
4044.4565031439179
 33
0.0
 14
-167.99999999999849
 24
4044.4565031439179
 34
0.0
1001
ACAD
1000
DSTYLE
1002
{
1070
   287
1070
     5
1070
   147
1040
2.5
1070
   340
1005
5E
1070
   279
1070
     2
1002
}
  0
DIMENSION
  5
1EB
  8
BEMAŠUNG
  6
CONTINUOUS
 62
     7
  2
*D3
 10
-179.99999999999841
 20
4310.7027777777757
 30
0.0
 11
82.000000000001364
 21
4331.2615641165003
 31
0.0
 70
     0
 13
344.00000000000108
 23
4044.456503143917
 33
0.0
 14
-179.99999999999841
 24
4044.4565031439229
 34
0.0
1001
ACAD
1000
DSTYLE
1002
{
1070
   287
1070
     5
1070
   147
1040
2.5
1070
   340
1005
5E
1070
   279
1070
     2
1002
}
  0
DIMENSION
  5
1EC
  8
BEMAŠUNG
  6
CONTINUOUS
 62
     7
  2
*D4
 10
431.2410688055997
 20
4124.456503143917
 30
0.0
 11
410.68228246687511
 21
3924.456503143917
 31
0.0
 70
     0
 13
252.00000000000321
 23
3724.4565031439161
 33
0.0
 14
252.00000000000199
 24
4124.456503143917
 34
0.0
 50
-90.0
1001
ACAD
1000
DSTYLE
1002
{
1070
   287
1070
     5
1070
   147
1040
2.5
1070
   340
1005
5E
1070
   279
1070
     2
1002
}
  0
DIMENSION
  5
1ED
  8
BEMAŠUNG
  6
CONTINUOUS
 62
     7
  2
*D5
 10
511.40548440248898
 20
4136.4565031439161
 30
0.0
 11
491.14828100195268
 21
3924.4565031439161
 31
0.0
 70
     0
 13
252.0000000000129
 23
3712.4565031439161
 33
0.0
 14
252.00000000000239
 24
4136.4565031439161
 34
0.0
 50
-90.0
1001
ACAD
1000
DSTYLE
1002
{
1070
   287
1070
     5
1070
   147
1040
2.5
1070
   340
1005
5E
1070
   279
1070
     2
1002
}
  0
DIMENSION
  5
1EE
  8
BEMAŠUNG
  6
CONTINUOUS
 62
     7
  2
*D6
 10
210.31276549063949
 20
4124.456503143917
 30
0.0
 11
189.75397915191479
 21
4061.956503143917
 31
0.0
 70
     0
 13
82.000000000001592
 23
3999.4565031439179
 33
0.0
 14
143.72076608843531
 24
4124.456503143917
 34
0.0
 50
-90.0
1001
ACAD
1000
DSTYLE
1002
{
1070
   287
1070
     5
1070
   147
1040
2.5
1070
   340
1005
5E
1070
   279
1070
     2
1002
}
  0
LINE
  5
1EF
  8
BEMAŠUNG
  6
CONTINUOUS
 62
     7
 10
252.00000000000159
 20
3804.4565031439179
 30
0.0
 11
321.28203230275898
 21
3764.456503143922
 31
0.0
  0
POLYLINE
  5
1F0
  8
BEMAŠUNG
  6
CONTINUOUS
 62
     7
 66
     1
 10
0.0
 20
0.0
 30
0.0
 70
   128
  0
VERTEX
  5
1F1
  8
BEMAŠUNG
  6
CONTINUOUS
 62
     7
 10
313.96197103542448
 20
3771.7765644112551
 30
0.0
  0
VERTEX
  5
1F2
  8
BEMAŠUNG
  6
CONTINUOUS
 62
     7
 10
321.28203230275898
 20
3764.456503143922
 30
0.0
  0
VERTEX
  5
1F3
  8
BEMAŠUNG
  6
CONTINUOUS
 62
     7
 10
311.28264265432148
 20
3767.1358315250241
 30
0.0
  0
SEQEND
  5
1F4
  8
BEMAŠUNG
  6
CONTINUOUS
 62
     7
  0
INSERT
  5
1F5
  8
10_ZEICHNUNG-WERKZEICHNUNG
  2
*U17
 10
0.0
 20
0.0
 30
0.0
  0
DIMENSION
  5
1F6
  8
BEMAŠUNG
  6
CONTINUOUS
 62
     7
  2
*D7
 10
106.7533915766526
 20
4038.2285240540159
 30
0.0
 11
-24.690338468433989
 21
3905.7940520542202
 31
0.0
 70
   131
 15
57.246608423350828
 25
3960.6844822338221
 35
0.0
 40
0.0
1001
ACAD
1000
DSTYLE
1002
{
1070
   147
1040
2.5
1070
   174
1070
     0
1070
     3
1000

1070
    76
1070
     1
1070
    75
1070
     1
1070
    74
1070
     1
1070
    73
1070
     1
1070
   340
1005
5E
1070
     5
1000
VW_EMPTYARROW
1070
   289
1070
     0
1002
}
  0
DIMENSION
  5
1F8
  8
BEMAŠUNG
  6
CONTINUOUS
 62
     7
  2
*D8
 10
431.05238130441057
 20
3500.3536976216001
 30
0.0
 11
410.49359496568599
 21
3409.8536976216001
 31
0.0
 70
     0
 13
344.00000000000142
 23
3319.3536976216001
 33
0.0
 14
344.00000000000142
 24
3500.3536976216001
 34
0.0
 50
-90.0
1001
ACAD
1000
DSTYLE
1002
{
1070
   287
1070
     5
1070
   147
1040
2.5
1070
   340
1005
5E
1070
   279
1070
     2
1002
}
  0
DIMENSION
  5
1F9
  8
BEMAŠUNG
  6
CONTINUOUS
 62
     7
  2
*D9
 10
172.29246478745719
 20
3500.3536976216001
 30
0.0
 11
151.7336784487326
 21
3414.9024812515891
 31
0.0
 70
     0
  1
170
 13
161.05274549312119
 23
3329.4512648815789
 33
0.0
 14
172.8645781170485
 24
3500.3536976216001
 34
0.0
 50
-90.0
1001
ACAD
1000
DSTYLE
1002
{
1070
   287
1070
     5
1070
   147
1040
2.5
1070
   340
1005
5E
1070
   279
1070
     2
1002
}
  0
LINE
  5
263
  8
10_ZEICHNUNG-WERKZEICHNUNG
  6
CONTINUOUS
 62
     7
 10
-179.99999999999861
 20
3500.3536976216001
 30
0.0
 11
-167.99999999999849
 21
3500.3536976216001
 31
0.0
  0
LINE
  5
264
  8
10_ZEICHNUNG-WERKZEICHNUNG
  6
CONTINUOUS
 62
     7
 10
-167.99999999999849
 20
3500.3536976216001
 30
0.0
 11
-167.99999999999849
 21
3343.0601145621399
 31
0.0
  0
ARC
  5
265
  8
10_ZEICHNUNG-WERKZEICHNUNG
  6
CONTINUOUS
 62
     7
 10
-163.9370585246981
 20
3343.060114562139
 30
0.0
 40
4.0629414753004482
 50
179.99999999998721
 51
224.99999999999201
  0
LINE
  5
266
  8
10_ZEICHNUNG-WERKZEICHNUNG
  6
CONTINUOUS
 62
     7
 10
-166.8099919934476
 20
3340.1871810933899
 30
0.0
 11
-165.1881838588881
 21
3338.5653729588312
 31
0.0
  0
ARC
  5
267
  8
10_ZEICHNUNG-WERKZEICHNUNG
  6
CONTINUOUS
 62
     7
 10
-158.39985919611701
 20
3345.3536976216001
 30
0.0
 40
9.6001408038810538
 50
224.99999999999099
 51
269.99999999999511
  0
LINE
  5
269
  8
10_ZEICHNUNG-WERKZEICHNUNG
  6
CONTINUOUS
 62
     7
 10
36.000000000001357
 20
3319.3536976216001
 30
0.0
 11
-179.99999999999861
 21
3319.3536976216001
 31
0.0
  0
LINE
  5
26A
  8
10_ZEICHNUNG-WERKZEICHNUNG
  6
CONTINUOUS
 62
     7
 10
-179.99999999999861
 20
3352.353697621601
 30
0.0
 11
-179.99999999999861
 21
3500.3536976216001
 31
0.0
  0
LINE
  5
26B
  8
10_ZEICHNUNG-WERKZEICHNUNG
  6
CONTINUOUS
 62
     7
 10
-179.99999999999861
 20
3500.3536976216001
 30
0.0
 11
344.00000000000142
 21
3500.3536976216001
 31
0.0
  0
LINE
  5
26D
  8
10_ZEICHNUNG-WERKZEICHNUNG
  6
CONTINUOUS
 62
     7
 10
344.00000000000142
 20
3319.3536976216001
 30
0.0
 11
128.00000000000139
 21
3319.3536976216001
 31
0.0
  0
LINE
  5
270
  8
10_ZEICHNUNG-WERKZEICHNUNG
  6
CONTINUOUS
 62
     7
 10
344.00000000000142
 20
3500.3536976216001
 30
0.0
 11
332.00000000000142
 21
3500.3536976216001
 31
0.0
  0
LINE
  5
271
  8
10_ZEICHNUNG-WERKZEICHNUNG
  6
CONTINUOUS
 62
     7
 10
332.00000000000142
 20
3500.3536976216001
 30
0.0
 11
332.00000000000142
 21
3343.0601145621399
 31
0.0
  0
ARC
  5
272
  8
10_ZEICHNUNG-WERKZEICHNUNG
  6
CONTINUOUS
 62
     7
 10
327.93705852470117
 20
3343.060114562139
 30
0.0
 40
4.0629414753001347
 50
315.00000000000512
 51
0.0000000000128257
  0
LINE
  5
273
  8
10_ZEICHNUNG-WERKZEICHNUNG
  6
CONTINUOUS
 62
     7
 10
330.80999199345041
 20
3340.1871810933899
 30
0.0
 11
329.18818385889091
 21
3338.5653729588312
 31
0.0
  0
ARC
  5
274
  8
10_ZEICHNUNG-WERKZEICHNUNG
  6
CONTINUOUS
 62
     7
 10
322.39985919611979
 20
3345.3536976216001
 30
0.0
 40
9.6001408038810734
 50
270.00000000000512
 51
315.00000000000909
  0
LINE
  5
277
  8
10_ZEICHNUNG-WERKZEICHNUNG
  6
CONTINUOUS
 62
     7
 10
128.00000000000139
 20
3319.3536976216001
 30
0.0
 11
347.00000000000131
 21
3319.3536976216001
 31
0.0
  0
POLYLINE
  5
27A
  8
10_ZEICHNUNG-WERKZEICHNUNG
  6
CONTINUOUS
 62
     7
 66
     1
 10
0.0
 20
0.0
 30
0.0
 70
   128
  0
VERTEX
  5
27B
  8
10_ZEICHNUNG-WERKZEICHNUNG
  6
CONTINUOUS
 62
     7
 10
138.00000000000139
 20
3329.1142641275951
 30
0.0
  0
VERTEX
  5
27C
  8
10_ZEICHNUNG-WERKZEICHNUNG
  6
CONTINUOUS
 62
     7
 10
140.88161319767389
 20
3329.148686899397
 30
0.0
  0
VERTEX
  5
27D
  8
10_ZEICHNUNG-WERKZEICHNUNG
  6
CONTINUOUS
 62
     7
 10
143.7632213082106
 20
3329.1853103433691
 30
0.0
  0
VERTEX
  5
27E
  8
10_ZEICHNUNG-WERKZEICHNUNG
  6
CONTINUOUS
 62
     7
 10
146.64482401645751
 20
3329.2241344555041
 30
0.0
  0
VERTEX
  5
27F
  8
10_ZEICHNUNG-WERKZEICHNUNG
  6
CONTINUOUS
 62
     7
 10
149.52642100726081
 20
3329.265159231556
 30
0.0
  0
VERTEX
  5
280
  8
10_ZEICHNUNG-WERKZEICHNUNG
  6
CONTINUOUS
 62
     7
 10
152.4080119654798
 20
3329.3083846670379
 30
0.0
  0
VERTEX
  5
281
  8
10_ZEICHNUNG-WERKZEICHNUNG
  6
CONTINUOUS
 62
     7
 10
155.28959657596189
 20
3329.3538107572199
 30
0.0
  0
VERTEX
  5
282
  8
10_ZEICHNUNG-WERKZEICHNUNG
  6
CONTINUOUS
 62
     7
 10
158.17117452355501
 20
3329.401437497138
 30
0.0
  0
VERTEX
  5
283
  8
10_ZEICHNUNG-WERKZEICHNUNG
  6
CONTINUOUS
 62
     7
 10
161.05274549312119
 20
3329.4512648815789
 30
0.0
  0
VERTEX
  5
284
  8
10_ZEICHNUNG-WERKZEICHNUNG
  6
CONTINUOUS
 62
     7
 10
163.93430916950959
 20
3329.5032929050958
 30
0.0
  0
VERTEX
  5
285
  8
10_ZEICHNUNG-WERKZEICHNUNG
  6
CONTINUOUS
 62
     7
 10
166.81586523757051
 20
3329.557521562002
 30
0.0
  0
VERTEX
  5
286
  8
10_ZEICHNUNG-WERKZEICHNUNG
  6
CONTINUOUS
 62
     7
 10
169.69741338216809
 20
3329.6139508463598
 30
0.0
  0
VERTEX
  5
287
  8
10_ZEICHNUNG-WERKZEICHNUNG
  6
CONTINUOUS
 62
     7
 10
172.57895328815451
 20
3329.6725807520029
 30
0.0
  0
VERTEX
  5
288
  8
10_ZEICHNUNG-WERKZEICHNUNG
  6
CONTINUOUS
 62
     7
 10
175.46048464038239
 20
3329.7334112725139
 30
0.0
  0
VERTEX
  5
289
  8
10_ZEICHNUNG-WERKZEICHNUNG
  6
CONTINUOUS
 62
     7
 10
178.3420071237185
 20
3329.7964424012471
 30
0.0
  0
VERTEX
  5
28A
  8
10_ZEICHNUNG-WERKZEICHNUNG
  6
CONTINUOUS
 62
     7
 10
181.22352042301799
 20
3329.8616741313031
 30
0.0
  0
VERTEX
  5
28B
  8
10_ZEICHNUNG-WERKZEICHNUNG
  6
CONTINUOUS
 62
     7
 10
184.1050242231363
 20
3329.92910645555
 30
0.0
  0
VERTEX
  5
28C
  8
10_ZEICHNUNG-WERKZEICHNUNG
  6
CONTINUOUS
 62
     7
 10
186.98651820893909
 20
3329.9987393666152
 30
0.0
  0
VERTEX
  5
28D
  8
10_ZEICHNUNG-WERKZEICHNUNG
  6
CONTINUOUS
 62
     7
 10
189.86800206529281
 20
3330.0705728568801
 30
0.0
  0
VERTEX
  5
28E
  8
10_ZEICHNUNG-WERKZEICHNUNG
  6
CONTINUOUS
 62
     7
 10
192.74947547705659
 20
3330.1446069184931
 30
0.0
  0
VERTEX
  5
28F
  8
10_ZEICHNUNG-WERKZEICHNUNG
  6
CONTINUOUS
 62
     7
 10
195.63093812909051
 20
3330.2208415433461
 30
0.0
  0
VERTEX
  5
290
  8
10_ZEICHNUNG-WERKZEICHNUNG
  6
CONTINUOUS
 62
     7
 10
198.51238970626881
 20
3330.2992767231121
 30
0.0
  0
VERTEX
  5
291
  8
10_ZEICHNUNG-WERKZEICHNUNG
  6
CONTINUOUS
 62
     7
 10
201.3938298934543
 20
3330.3799124492139
 30
0.0
  0
VERTEX
  5
292
  8
10_ZEICHNUNG-WERKZEICHNUNG
  6
CONTINUOUS
 62
     7
 10
204.2752583755105
 20
3330.4627487128259
 30
0.0
  0
VERTEX
  5
293
  8
10_ZEICHNUNG-WERKZEICHNUNG
  6
CONTINUOUS
 62
     7
 10
207.15667483731539
 20
3330.5477855048912
 30
0.0
  0
VERTEX
  5
294
  8
10_ZEICHNUNG-WERKZEICHNUNG
  6
CONTINUOUS
 62
     7
 10
210.0380789637359
 20
3330.6350228161132
 30
0.0
  0
VERTEX
  5
295
  8
10_ZEICHNUNG-WERKZEICHNUNG
  6
CONTINUOUS
 62
     7
 10
212.9194704396391
 20
3330.7244606369459
 30
0.0
  0
VERTEX
  5
296
  8
10_ZEICHNUNG-WERKZEICHNUNG
  6
CONTINUOUS
 62
     7
 10
215.8008489499075
 20
3330.8160989576122
 30
0.0
  0
VERTEX
  5
297
  8
10_ZEICHNUNG-WERKZEICHNUNG
  6
CONTINUOUS
 62
     7
 10
218.6822141794114
 20
3330.9099377680818
 30
0.0
  0
VERTEX
  5
298
  8
10_ZEICHNUNG-WERKZEICHNUNG
  6
CONTINUOUS
 62
     7
 10
221.5635658130229
 20
3331.0059770581029
 30
0.0
  0
VERTEX
  5
299
  8
10_ZEICHNUNG-WERKZEICHNUNG
  6
CONTINUOUS
 62
     7
 10
224.44490353562861
 20
3331.104216817168
 30
0.0
  0
VERTEX
  5
29A
  8
10_ZEICHNUNG-WERKZEICHNUNG
  6
CONTINUOUS
 62
     7
 10
227.32622703210339
 20
3331.2046570345278
 30
0.0
  0
VERTEX
  5
29B
  8
10_ZEICHNUNG-WERKZEICHNUNG
  6
CONTINUOUS
 62
     7
 10
230.20753598732361
 20
3331.3072976992048
 30
0.0
  0
VERTEX
  5
29C
  8
10_ZEICHNUNG-WERKZEICHNUNG
  6
CONTINUOUS
 62
     7
 10
233.08883008617639
 20
3331.4121387999689
 30
0.0
  0
VERTEX
  5
29D
  8
10_ZEICHNUNG-WERKZEICHNUNG
  6
CONTINUOUS
 62
     7
 10
235.97010901354969
 20
3331.519180325356
 30
0.0
  0
VERTEX
  5
29E
  8
10_ZEICHNUNG-WERKZEICHNUNG
  6
CONTINUOUS
 62
     7
 10
238.8513724543254
 20
3331.6284222636609
 30
0.0
  0
VERTEX
  5
29F
  8
10_ZEICHNUNG-WERKZEICHNUNG
  6
CONTINUOUS
 62
     7
 10
241.73262009338649
 20
3331.7398646029328
 30
0.0
  0
VERTEX
  5
2A0
  8
10_ZEICHNUNG-WERKZEICHNUNG
  6
CONTINUOUS
 62
     7
 10
244.61385161563089
 20
3331.8535073309849
 30
0.0
  0
VERTEX
  5
2A1
  8
10_ZEICHNUNG-WERKZEICHNUNG
  6
CONTINUOUS
 62
     7
 10
247.49506670594499
 20
3331.9693504353882
 30
0.0
  0
VERTEX
  5
2A2
  8
10_ZEICHNUNG-WERKZEICHNUNG
  6
CONTINUOUS
 62
     7
 10
250.37626504921721
 20
3332.0873939034759
 30
0.0
  0
VERTEX
  5
2A3
  8
10_ZEICHNUNG-WERKZEICHNUNG
  6
CONTINUOUS
 62
     7
 10
253.25744633035109
 20
3332.2076377223361
 30
0.0
  0
VERTEX
  5
2A4
  8
10_ZEICHNUNG-WERKZEICHNUNG
  6
CONTINUOUS
 62
     7
 10
256.1386102342384
 20
3332.3300818788189
 30
0.0
  0
VERTEX
  5
2A5
  8
10_ZEICHNUNG-WERKZEICHNUNG
  6
CONTINUOUS
 62
     7
 10
259.01975644577311
 20
3332.4547263595291
 30
0.0
  0
VERTEX
  5
2A6
  8
10_ZEICHNUNG-WERKZEICHNUNG
  6
CONTINUOUS
 62
     7
 10
261.90088464986439
 20
3332.5815711508399
 30
0.0
  0
VERTEX
  5
2A7
  8
10_ZEICHNUNG-WERKZEICHNUNG
  6
CONTINUOUS
 62
     7
 10
264.78199453141002
 20
3332.7106162388818
 30
0.0
  0
VERTEX
  5
2A8
  8
10_ZEICHNUNG-WERKZEICHNUNG
  6
CONTINUOUS
 62
     7
 10
267.66308577530998
 20
3332.84186160953
 30
0.0
  0
VERTEX
  5
2A9
  8
10_ZEICHNUNG-WERKZEICHNUNG
  6
CONTINUOUS
 62
     7
 10
270.54415806647899
 20
3332.975307248445
 30
0.0
  0
VERTEX
  5
2AA
  8
10_ZEICHNUNG-WERKZEICHNUNG
  6
CONTINUOUS
 62
     7
 10
273.42521108982152
 20
3333.1109531410179
 30
0.0
  0
VERTEX
  5
2AB
  8
10_ZEICHNUNG-WERKZEICHNUNG
  6
CONTINUOUS
 62
     7
 10
276.30624453024319
 20
3333.2487992724241
 30
0.0
  0
VERTEX
  5
2AC
  8
10_ZEICHNUNG-WERKZEICHNUNG
  6
CONTINUOUS
 62
     7
 10
279.18725807266151
 20
3333.3888456275849
 30
0.0
  0
VERTEX
  5
2AD
  8
10_ZEICHNUNG-WERKZEICHNUNG
  6
CONTINUOUS
 62
     7
 10
282.06825140199481
 20
3333.5310921911841
 30
0.0
  0
VERTEX
  5
2AE
  8
10_ZEICHNUNG-WERKZEICHNUNG
  6
CONTINUOUS
 62
     7
 10
284.94922420315652
 20
3333.6755389476612
 30
0.0
  0
VERTEX
  5
2AF
  8
10_ZEICHNUNG-WERKZEICHNUNG
  6
CONTINUOUS
 62
     7
 10
287.83017616106099
 20
3333.822185881224
 30
0.0
  0
VERTEX
  5
2B0
  8
10_ZEICHNUNG-WERKZEICHNUNG
  6
CONTINUOUS
 62
     7
 10
290.71110696063869
 20
3333.9710329758341
 30
0.0
  0
VERTEX
  5
2B1
  8
10_ZEICHNUNG-WERKZEICHNUNG
  6
CONTINUOUS
 62
     7
 10
293.59201628680921
 20
3334.1220802152079
 30
0.0
  0
VERTEX
  5
2B2
  8
10_ZEICHNUNG-WERKZEICHNUNG
  6
CONTINUOUS
 62
     7
 10
296.47290382449393
 20
3334.27532758283
 30
0.0
  0
VERTEX
  5
2B3
  8
10_ZEICHNUNG-WERKZEICHNUNG
  6
CONTINUOUS
 62
     7
 10
299.35376925863062
 20
3334.4307750619369
 30
0.0
  0
VERTEX
  5
2B4
  8
10_ZEICHNUNG-WERKZEICHNUNG
  6
CONTINUOUS
 62
     7
 10
302.23461227414549
 20
3334.5884226355302
 30
0.0
  0
VERTEX
  5
2B5
  8
10_ZEICHNUNG-WERKZEICHNUNG
  6
CONTINUOUS
 62
     7
 10
305.11543255596803
 20
3334.7482702863658
 30
0.0
  0
VERTEX
  5
2B6
  8
10_ZEICHNUNG-WERKZEICHNUNG
  6
CONTINUOUS
 62
     7
 10
307.99622978904222
 20
3334.9103179969738
 30
0.0
  0
VERTEX
  5
2B7
  8
10_ZEICHNUNG-WERKZEICHNUNG
  6
CONTINUOUS
 62
     7
 10
310.87700365830278
 20
3335.0745657496141
 30
0.0
  0
VERTEX
  5
2B8
  8
10_ZEICHNUNG-WERKZEICHNUNG
  6
CONTINUOUS
 62
     7
 10
313.75775384868598
 20
3335.2410135263358
 30
0.0
  0
VERTEX
  5
2B9
  8
10_ZEICHNUNG-WERKZEICHNUNG
  6
CONTINUOUS
 62
     7
 10
316.63848004514438
 20
3335.4096613089282
 30
0.0
  0
VERTEX
  5
2BA
  8
10_ZEICHNUNG-WERKZEICHNUNG
  6
CONTINUOUS
 62
     7
 10
319.51918193261969
 20
3335.5805090789481
 30
0.0
  0
VERTEX
  5
2BB
  8
10_ZEICHNUNG-WERKZEICHNUNG
  6
CONTINUOUS
 62
     7
 10
322.39985919604419
 20
3335.7535568177168
 30
0.0
  0
SEQEND
  5
2BC
  8
10_ZEICHNUNG-WERKZEICHNUNG
  6
CONTINUOUS
 62
     7
  0
POLYLINE
  5
2BD
  8
10_ZEICHNUNG-WERKZEICHNUNG
  6
CONTINUOUS
 62
     7
 66
     1
 10
0.0
 20
0.0
 30
0.0
 70
   128
  0
VERTEX
  5
2BE
  8
10_ZEICHNUNG-WERKZEICHNUNG
  6
CONTINUOUS
 62
     7
 10
26.000000000001361
 20
3329.1142641275951
 30
0.0
  0
VERTEX
  5
2BF
  8
10_ZEICHNUNG-WERKZEICHNUNG
  6
CONTINUOUS
 62
     7
 10
23.118386802328811
 20
3329.148686899397
 30
0.0
  0
VERTEX
  5
2C0
  8
10_ZEICHNUNG-WERKZEICHNUNG
  6
CONTINUOUS
 62
     7
 10
20.2367786917921
 20
3329.1853103433691
 30
0.0
  0
VERTEX
  5
2C1
  8
10_ZEICHNUNG-WERKZEICHNUNG
  6
CONTINUOUS
 62
     7
 10
17.35517598354522
 20
3329.2241344555041
 30
0.0
  0
VERTEX
  5
2C2
  8
10_ZEICHNUNG-WERKZEICHNUNG
  6
CONTINUOUS
 62
     7
 10
14.473578992741979
 20
3329.265159231556
 30
0.0
  0
VERTEX
  5
2C3
  8
10_ZEICHNUNG-WERKZEICHNUNG
  6
CONTINUOUS
 62
     7
 10
11.591988034522959
 20
3329.3083846670379
 30
0.0
  0
VERTEX
  5
2C4
  8
10_ZEICHNUNG-WERKZEICHNUNG
  6
CONTINUOUS
 62
     7
 10
8.7104034240408055
 20
3329.3538107572199
 30
0.0
  0
VERTEX
  5
2C5
  8
10_ZEICHNUNG-WERKZEICHNUNG
  6
CONTINUOUS
 62
     7
 10
5.8288254764477188
 20
3329.401437497138
 30
0.0
  0
VERTEX
  5
2C6
  8
10_ZEICHNUNG-WERKZEICHNUNG
  6
CONTINUOUS
 62
     7
 10
2.947254506881563
 20
3329.4512648815789
 30
0.0
  0
VERTEX
  5
2C7
  8
10_ZEICHNUNG-WERKZEICHNUNG
  6
CONTINUOUS
 62
     7
 10
0.0656908304931676
 20
3329.5032929050958
 30
0.0
  0
VERTEX
  5
2C8
  8
10_ZEICHNUNG-WERKZEICHNUNG
  6
CONTINUOUS
 62
     7
 10
-2.815865237567778
 20
3329.557521562002
 30
0.0
  0
VERTEX
  5
2C9
  8
10_ZEICHNUNG-WERKZEICHNUNG
  6
CONTINUOUS
 62
     7
 10
-5.6974133821654487
 20
3329.6139508463598
 30
0.0
  0
VERTEX
  5
2CA
  8
10_ZEICHNUNG-WERKZEICHNUNG
  6
CONTINUOUS
 62
     7
 10
-8.5789532881517534
 20
3329.6725807520029
 30
0.0
  0
VERTEX
  5
2CB
  8
10_ZEICHNUNG-WERKZEICHNUNG
  6
CONTINUOUS
 62
     7
 10
-11.46048464037972
 20
3329.7334112725139
 30
0.0
  0
VERTEX
  5
2CC
  8
10_ZEICHNUNG-WERKZEICHNUNG
  6
CONTINUOUS
 62
     7
 10
-14.342007123715801
 20
3329.7964424012471
 30
0.0
  0
VERTEX
  5
2CD
  8
10_ZEICHNUNG-WERKZEICHNUNG
  6
CONTINUOUS
 62
     7
 10
-17.223520423015319
 20
3329.8616741313031
 30
0.0
  0
VERTEX
  5
2CE
  8
10_ZEICHNUNG-WERKZEICHNUNG
  6
CONTINUOUS
 62
     7
 10
-20.105024223133569
 20
3329.92910645555
 30
0.0
  0
VERTEX
  5
2CF
  8
10_ZEICHNUNG-WERKZEICHNUNG
  6
CONTINUOUS
 62
     7
 10
-22.986518208936332
 20
3329.9987393666152
 30
0.0
  0
VERTEX
  5
2D0
  8
10_ZEICHNUNG-WERKZEICHNUNG
  6
CONTINUOUS
 62
     7
 10
-25.86800206529006
 20
3330.0705728568801
 30
0.0
  0
VERTEX
  5
2D1
  8
10_ZEICHNUNG-WERKZEICHNUNG
  6
CONTINUOUS
 62
     7
 10
-28.749475477053931
 20
3330.1446069184931
 30
0.0
  0
VERTEX
  5
2D2
  8
10_ZEICHNUNG-WERKZEICHNUNG
  6
CONTINUOUS
 62
     7
 10
-31.630938129087781
 20
3330.2208415433461
 30
0.0
  0
VERTEX
  5
2D3
  8
10_ZEICHNUNG-WERKZEICHNUNG
  6
CONTINUOUS
 62
     7
 10
-34.512389706266283
 20
3330.2992767231121
 30
0.0
  0
VERTEX
  5
2D4
  8
10_ZEICHNUNG-WERKZEICHNUNG
  6
CONTINUOUS
 62
     7
 10
-37.393829893451539
 20
3330.3799124492139
 30
0.0
  0
VERTEX
  5
2D5
  8
10_ZEICHNUNG-WERKZEICHNUNG
  6
CONTINUOUS
 62
     7
 10
-40.275258375507747
 20
3330.4627487128259
 30
0.0
  0
VERTEX
  5
2D6
  8
10_ZEICHNUNG-WERKZEICHNUNG
  6
CONTINUOUS
 62
     7
 10
-43.156674837312949
 20
3330.5477855048912
 30
0.0
  0
VERTEX
  5
2D7
  8
10_ZEICHNUNG-WERKZEICHNUNG
  6
CONTINUOUS
 62
     7
 10
-46.038078963733142
 20
3330.6350228161132
 30
0.0
  0
VERTEX
  5
2D8
  8
10_ZEICHNUNG-WERKZEICHNUNG
  6
CONTINUOUS
 62
     7
 10
-48.919470439636363
 20
3330.7244606369459
 30
0.0
  0
VERTEX
  5
2D9
  8
10_ZEICHNUNG-WERKZEICHNUNG
  6
CONTINUOUS
 62
     7
 10
-51.800848949904783
 20
3330.8160989576122
 30
0.0
  0
VERTEX
  5
2DA
  8
10_ZEICHNUNG-WERKZEICHNUNG
  6
CONTINUOUS
 62
     7
 10
-54.682214179408668
 20
3330.9099377680818
 30
0.0
  0
VERTEX
  5
2DB
  8
10_ZEICHNUNG-WERKZEICHNUNG
  6
CONTINUOUS
 62
     7
 10
-57.563565813020432
 20
3331.0059770581029
 30
0.0
  0
VERTEX
  5
2DC
  8
10_ZEICHNUNG-WERKZEICHNUNG
  6
CONTINUOUS
 62
     7
 10
-60.44490353562604
 20
3331.104216817168
 30
0.0
  0
VERTEX
  5
2DD
  8
10_ZEICHNUNG-WERKZEICHNUNG
  6
CONTINUOUS
 62
     7
 10
-63.326227032100633
 20
3331.2046570345278
 30
0.0
  0
VERTEX
  5
2DE
  8
10_ZEICHNUNG-WERKZEICHNUNG
  6
CONTINUOUS
 62
     7
 10
-66.207535987320853
 20
3331.3072976992048
 30
0.0
  0
VERTEX
  5
2DF
  8
10_ZEICHNUNG-WERKZEICHNUNG
  6
CONTINUOUS
 62
     7
 10
-69.08883008617363
 20
3331.4121387999689
 30
0.0
  0
VERTEX
  5
2E0
  8
10_ZEICHNUNG-WERKZEICHNUNG
  6
CONTINUOUS
 62
     7
 10
-71.970109013547017
 20
3331.519180325356
 30
0.0
  0
VERTEX
  5
2E1
  8
10_ZEICHNUNG-WERKZEICHNUNG
  6
CONTINUOUS
 62
     7
 10
-74.851372454322686
 20
3331.6284222636609
 30
0.0
  0
VERTEX
  5
2E2
  8
10_ZEICHNUNG-WERKZEICHNUNG
  6
CONTINUOUS
 62
     7
 10
-77.73262009338373
 20
3331.7398646029328
 30
0.0
  0
VERTEX
  5
2E3
  8
10_ZEICHNUNG-WERKZEICHNUNG
  6
CONTINUOUS
 62
     7
 10
-80.613851615628164
 20
3331.8535073309849
 30
0.0
  0
VERTEX
  5
2E4
  8
10_ZEICHNUNG-WERKZEICHNUNG
  6
CONTINUOUS
 62
     7
 10
-83.495066705942236
 20
3331.9693504353882
 30
0.0
  0
VERTEX
  5
2E5
  8
10_ZEICHNUNG-WERKZEICHNUNG
  6
CONTINUOUS
 62
     7
 10
-86.376265049214453
 20
3332.0873939034759
 30
0.0
  0
VERTEX
  5
2E6
  8
10_ZEICHNUNG-WERKZEICHNUNG
  6
CONTINUOUS
 62
     7
 10
-89.257446330348316
 20
3332.2076377223361
 30
0.0
  0
VERTEX
  5
2E7
  8
10_ZEICHNUNG-WERKZEICHNUNG
  6
CONTINUOUS
 62
     7
 10
-92.138610234235557
 20
3332.3300818788189
 30
0.0
  0
VERTEX
  5
2E8
  8
10_ZEICHNUNG-WERKZEICHNUNG
  6
CONTINUOUS
 62
     7
 10
-95.019756445770327
 20
3332.4547263595291
 30
0.0
  0
VERTEX
  5
2E9
  8
10_ZEICHNUNG-WERKZEICHNUNG
  6
CONTINUOUS
 62
     7
 10
-97.900884649861624
 20
3332.5815711508399
 30
0.0
  0
VERTEX
  5
2EA
  8
10_ZEICHNUNG-WERKZEICHNUNG
  6
CONTINUOUS
 62
     7
 10
-100.78199453140719
 20
3332.7106162388818
 30
0.0
  0
VERTEX
  5
2EB
  8
10_ZEICHNUNG-WERKZEICHNUNG
  6
CONTINUOUS
 62
     7
 10
-103.6630857753071
 20
3332.84186160953
 30
0.0
  0
VERTEX
  5
2EC
  8
10_ZEICHNUNG-WERKZEICHNUNG
  6
CONTINUOUS
 62
     7
 10
-106.5441580664765
 20
3332.975307248445
 30
0.0
  0
VERTEX
  5
2ED
  8
10_ZEICHNUNG-WERKZEICHNUNG
  6
CONTINUOUS
 62
     7
 10
-109.4252110898187
 20
3333.1109531410179
 30
0.0
  0
VERTEX
  5
2EE
  8
10_ZEICHNUNG-WERKZEICHNUNG
  6
CONTINUOUS
 62
     7
 10
-112.30624453024051
 20
3333.2487992724241
 30
0.0
  0
VERTEX
  5
2EF
  8
10_ZEICHNUNG-WERKZEICHNUNG
  6
CONTINUOUS
 62
     7
 10
-115.18725807265881
 20
3333.3888456275849
 30
0.0
  0
VERTEX
  5
2F0
  8
10_ZEICHNUNG-WERKZEICHNUNG
  6
CONTINUOUS
 62
     7
 10
-118.0682514019923
 20
3333.5310921911841
 30
0.0
  0
VERTEX
  5
2F1
  8
10_ZEICHNUNG-WERKZEICHNUNG
  6
CONTINUOUS
 62
     7
 10
-120.9492242031538
 20
3333.6755389476612
 30
0.0
  0
VERTEX
  5
2F2
  8
10_ZEICHNUNG-WERKZEICHNUNG
  6
CONTINUOUS
 62
     7
 10
-123.8301761610585
 20
3333.822185881224
 30
0.0
  0
VERTEX
  5
2F3
  8
10_ZEICHNUNG-WERKZEICHNUNG
  6
CONTINUOUS
 62
     7
 10
-126.7111069606362
 20
3333.9710329758341
 30
0.0
  0
VERTEX
  5
2F4
  8
10_ZEICHNUNG-WERKZEICHNUNG
  6
CONTINUOUS
 62
     7
 10
-129.59201628680651
 20
3334.1220802152079
 30
0.0
  0
VERTEX
  5
2F5
  8
10_ZEICHNUNG-WERKZEICHNUNG
  6
CONTINUOUS
 62
     7
 10
-132.4729038244914
 20
3334.27532758283
 30
0.0
  0
VERTEX
  5
2F6
  8
10_ZEICHNUNG-WERKZEICHNUNG
  6
CONTINUOUS
 62
     7
 10
-135.35376925862781
 20
3334.4307750619369
 30
0.0
  0
VERTEX
  5
2F7
  8
10_ZEICHNUNG-WERKZEICHNUNG
  6
CONTINUOUS
 62
     7
 10
-138.23461227414279
 20
3334.5884226355302
 30
0.0
  0
VERTEX
  5
2F8
  8
10_ZEICHNUNG-WERKZEICHNUNG
  6
CONTINUOUS
 62
     7
 10
-141.1154325559653
 20
3334.7482702863658
 30
0.0
  0
VERTEX
  5
2F9
  8
10_ZEICHNUNG-WERKZEICHNUNG
  6
CONTINUOUS
 62
     7
 10
-143.99622978903949
 20
3334.9103179969738
 30
0.0
  0
VERTEX
  5
2FA
  8
10_ZEICHNUNG-WERKZEICHNUNG
  6
CONTINUOUS
 62
     7
 10
-146.8770036583
 20
3335.0745657496141
 30
0.0
  0
VERTEX
  5
2FB
  8
10_ZEICHNUNG-WERKZEICHNUNG
  6
CONTINUOUS
 62
     7
 10
-149.75775384868351
 20
3335.2410135263358
 30
0.0
  0
VERTEX
  5
2FC
  8
10_ZEICHNUNG-WERKZEICHNUNG
  6
CONTINUOUS
 62
     7
 10
-152.6384800451417
 20
3335.4096613089282
 30
0.0
  0
VERTEX
  5
2FD
  8
10_ZEICHNUNG-WERKZEICHNUNG
  6
CONTINUOUS
 62
     7
 10
-155.5191819326169
 20
3335.5805090789481
 30
0.0
  0
VERTEX
  5
2FE
  8
10_ZEICHNUNG-WERKZEICHNUNG
  6
CONTINUOUS
 62
     7
 10
-158.39985919604149
 20
3335.7535568177168
 30
0.0
  0
SEQEND
  5
2FF
  8
10_ZEICHNUNG-WERKZEICHNUNG
  6
CONTINUOUS
 62
     7
  0
LINE
  5
302
  8
10_ZEICHNUNG-WERKZEICHNUNG
  6
CONTINUOUS
 62
     7
 10
-182.99999999999861
 20
3319.3536976216001
 30
0.0
 11
36.000000000001357
 21
3319.3536976216001
 31
0.0
  0
LINE
  5
323
  8
10_ZEICHNUNG-WERKZEICHNUNG
  6
CONTINUOUS
 62
     7
 10
-182.99999999999861
 20
3319.3536976216001
 30
0.0
 11
-182.99999999999861
 21
3352.353697621601
 31
0.0
  0
LINE
  5
324
  8
10_ZEICHNUNG-WERKZEICHNUNG
  6
CONTINUOUS
 62
     7
 10
-179.99999999999861
 20
3352.353697621601
 30
0.0
 11
-182.99999999999841
 21
3352.353697621601
 31
0.0
  0
LINE
  5
325
  8
10_ZEICHNUNG-WERKZEICHNUNG
  6
CONTINUOUS
 62
     7
 10
128.00000000000139
 20
3313.3536976216001
 30
0.0
 11
36.000000000001343
 21
3313.3536976216001
 31
0.0
  0
LINE
  5
326
  8
10_ZEICHNUNG-WERKZEICHNUNG
  6
CONTINUOUS
 62
     7
 10
29.659057688721632
 20
3329.1245421682088
 30
0.0
 11
134.35439169466341
 21
3329.1245421682088
 31
0.0
  0
LINE
  5
327
  8
10_ZEICHNUNG-WERKZEICHNUNG
  6
CONTINUOUS
 62
     7
 10
133.85439169466341
 20
3323.8364254630228
 30
0.0
 11
30.159057688721639
 21
3323.8364254630228
 31
0.0
  0
LINE
  5
328
  8
10_ZEICHNUNG-WERKZEICHNUNG
  6
CONTINUOUS
 62
     7
 10
36.000000000001343
 20
3313.3536976215992
 30
0.0
 11
36.000000000001322
 21
3323.8364254630242
 31
0.0
  0
LINE
  5
329
  8
10_ZEICHNUNG-WERKZEICHNUNG
  6
CONTINUOUS
 62
     7
 10
128.00000000000139
 20
3313.3536976216001
 30
0.0
 11
128.00000000000139
 21
3323.8364254630228
 31
0.0
  0
LINE
  5
32A
  8
10_ZEICHNUNG-WERKZEICHNUNG
 10
29.659057688721632
 20
3329.1245421682088
 30
0.0
 11
29.659057688721632
 21
3324.3364254630242
 31
0.0
  0
LINE
  5
32B
  8
10_ZEICHNUNG-WERKZEICHNUNG
 10
134.35439169466341
 20
3329.1245421682088
 30
0.0
 11
134.35439169466341
 21
3324.3364254630228
 31
0.0
  0
LINE
  5
32C
  8
10_ZEICHNUNG-WERKZEICHNUNG
 10
29.659057688721632
 20
3324.3364254630242
 30
0.0
 11
30.159057688721639
 21
3323.8364254630228
 31
0.0
  0
LINE
  5
32D
  8
10_ZEICHNUNG-WERKZEICHNUNG
 10
133.85439169466341
 20
3323.8364254630228
 30
0.0
 11
134.35439169466341
 21
3324.3364254630228
 31
0.0
  0
LINE
  5
32E
  8
10_ZEICHNUNG-WERKZEICHNUNG
  6
CONTINUOUS
 62
     7
 10
36.000000000001393
 20
3319.3536976216001
 30
0.0
 11
11.000000000001391
 21
3319.3536976216001
 31
0.0
  0
LINE
  5
32F
  8
10_ZEICHNUNG-WERKZEICHNUNG
  6
CONTINUOUS
 62
     7
 10
11.000000000001391
 20
3319.3536976216001
 30
0.0
 11
11.000000000001391
 21
3313.3536976215992
 31
0.0
  0
LINE
  5
330
  8
10_ZEICHNUNG-WERKZEICHNUNG
  6
CONTINUOUS
 62
     7
 10
11.000000000001391
 20
3313.3536976216001
 30
0.0
 11
36.000000000001393
 21
3313.3536976216001
 31
0.0
  0
LINE
  5
331
  8
10_ZEICHNUNG-WERKZEICHNUNG
  6
CONTINUOUS
 62
     7
 10
128.00000000000139
 20
3319.3536976216001
 30
0.0
 11
153.00000000000139
 21
3319.3536976216001
 31
0.0
  0
LINE
  5
332
  8
10_ZEICHNUNG-WERKZEICHNUNG
  6
CONTINUOUS
 62
     7
 10
153.00000000000139
 20
3319.3536976216001
 30
0.0
 11
153.00000000000139
 21
3313.3536976216001
 31
0.0
  0
LINE
  5
333
  8
10_ZEICHNUNG-WERKZEICHNUNG
  6
CONTINUOUS
 62
     7
 10
153.00000000000139
 20
3313.3536976216001
 30
0.0
 11
128.00000000000139
 21
3313.3536976216001
 31
0.0
  0
LINE
  5
334
  8
10_ZEICHNUNG-WERKZEICHNUNG
  6
CONTINUOUS
 62
     7
 10
128.00000000000139
 20
3319.3536976216001
 30
0.0
 11
153.00000000000131
 21
3319.3536976216001
 31
0.0
  0
LINE
  5
335
  8
10_ZEICHNUNG-WERKZEICHNUNG
  6
CONTINUOUS
 62
     7
 10
36.000000000001393
 20
3319.3536976216001
 30
0.0
 11
11.000000000001391
 21
3319.3536976216001
 31
0.0
  0
LINE
  5
337
  8
10_ZEICHNUNG-WERKZEICHNUNG
 10
26.000000000001361
 20
3329.1142641275951
 30
0.0
 11
29.65233299703047
 21
3329.1245232790152
 31
0.0
  0
LINE
  5
339
  8
10_ZEICHNUNG-WERKZEICHNUNG
  6
CONTINUOUS
 62
     7
 10
344.00000000000142
 20
3352.353697621601
 30
0.0
 11
347.00000000000131
 21
3352.353697621601
 31
0.0
  0
LINE
  5
33A
  8
10_ZEICHNUNG-WERKZEICHNUNG
  6
CONTINUOUS
 62
     7
 10
347.00000000000131
 20
3319.3536976216001
 30
0.0
 11
347.00000000000131
 21
3352.353697621601
 31
0.0
  0
LINE
  5
33B
  8
10_ZEICHNUNG-WERKZEICHNUNG
  6
CONTINUOUS
 62
     7
 10
344.00000000000142
 20
3352.353697621601
 30
0.0
 11
344.00000000000142
 21
3500.3536976216001
 31
0.0
  0
POLYLINE
  5
360
  8
10_ZEICHNUNG-WERKZEICHNUNG
  6
CONTINUOUS
 62
     7
 66
     1
 10
0.0
 20
0.0
 30
0.0
 70
     1
  0
VERTEX
  5
3EF
  8
10_ZEICHNUNG-WERKZEICHNUNG
  6
CONTINUOUS
 62
     7
 10
-182.99999999999841
 20
4044.4565031439179
 30
0.0
  0
VERTEX
  5
3F0
  8
10_ZEICHNUNG-WERKZEICHNUNG
  6
CONTINUOUS
 62
     7
 10
-182.99999999999861
 20
3804.4565031439161
 30
0.0
 42
0.414213562373095
  0
VERTEX
  5
3F1
  8
10_ZEICHNUNG-WERKZEICHNUNG
  6
CONTINUOUS
 62
     7
 10
-87.999999999999105
 20
3709.4565031439161
 30
0.0
  0
VERTEX
  5
3F2
  8
10_ZEICHNUNG-WERKZEICHNUNG
  6
CONTINUOUS
 62
     7
 10
252.00000000000119
 20
3709.4565031439161
 30
0.0
 42
0.1989123673797552
  0
VERTEX
  5
3F3
  8
10_ZEICHNUNG-WERKZEICHNUNG
  6
CONTINUOUS
 62
     7
 10
319.17514421273398
 20
3737.281358931205
 30
0.0
 42
0.1989123673796164
  0
VERTEX
  5
3F4
  8
10_ZEICHNUNG-WERKZEICHNUNG
  6
CONTINUOUS
 62
     7
 10
347.00000000000063
 20
3804.4565031439151
 30
0.0
  0
VERTEX
  5
3F5
  8
10_ZEICHNUNG-WERKZEICHNUNG
  6
CONTINUOUS
 62
     7
 10
347.00000000000108
 20
4044.456503143917
 30
0.0
 42
0.414213562373095
  0
VERTEX
  5
3F6
  8
10_ZEICHNUNG-WERKZEICHNUNG
  6
CONTINUOUS
 62
     7
 10
252.0000000000023
 20
4139.4565031439161
 30
0.0
  0
VERTEX
  5
3F7
  8
10_ZEICHNUNG-WERKZEICHNUNG
  6
CONTINUOUS
 62
     7
 10
-88.000000000001194
 20
4139.4565031439161
 30
0.0
 42
0.1989123673796591
  0
VERTEX
  5
3F8
  8
10_ZEICHNUNG-WERKZEICHNUNG
  6
CONTINUOUS
 62
     7
 10
-155.17514421272151
 20
4111.6316473566376
 30
0.0
 42
0.1989123673796834
  0
SEQEND
  5
3F9
  8
10_ZEICHNUNG-WERKZEICHNUNG
  6
CONTINUOUS
 62
     7
  0
VIEWPORT
  5
1FA
 67
     1
  8
0
 10
128.5
 20
97.5
 30
0.0
 40
314.226
 41
222.18000000000001
 68
     1
 69
     1
1001
ACAD
1000
MVIEW
1002
{
1070
    16
1010
0.0
1020
0.0
1030
0.0
1010
0.0
1020
0.0
1030
1.0
1040
0.0
1040
222.18000000000001
1040
128.5
1040
97.5
1040
50.0
1040
0.0
1040
0.0
1070
     0
1070
   100
1070
     1
1070
     3
1070
     0
1070
     0
1070
     0
1070
     0
1040
0.0
1040
0.0
1040
0.0
1040
10.0
1040
10.0
1040
10.0
1040
10.0
1070
     0
1002
{
1002
}
1002
}
  0
ENDSEC
  0
EOF
